osu file format v9

[General]
AudioFilename: Silent Bible.mp3
AudioLeadIn: 0
PreviewTime: 73324
Countdown: 0
SampleSet: Soft
StackLeniency: 0.7
Mode: 0
LetterboxInBreaks: 1

[Editor]
DistanceSpacing: 1.2
BeatDivisor: 4
GridSize: 8

[Metadata]
Title:Silent Bible
Artist:Mizuki Nana
Creator:minyeob
Version:Insane
Source:
Tags:

[Difficulty]
HPDrainRate:8
CircleSize:5
OverallDifficulty:7
ApproachRate:7
SliderMultiplier:1.4
SliderTickRate:0.5

[Events]
//Background and Video events
0,0,"bg.JPG"
//Break Periods
2,106524,116091
2,173191,181258
2,205191,214091
//Storyboard Layer 0 (Background)
//Storyboard Layer 1 (Fail)
//Storyboard Layer 2 (Pass)
//Storyboard Layer 3 (Foreground)
//Storyboard Sound Samples
//Background Colour Transformations
3,100,163,162,255

[TimingPoints]
20825,333.333333333333,4,2,1,90,1,0
22325,333.333333333333,4,2,1,90,1,0
23158,-100,4,1,1,80,0,0
23491,-100,4,2,1,90,0,0
28908,-100,4,1,1,60,0,0
29241,-100,4,1,1,70,0,0
29575,-100,4,1,1,85,0,0
30158,-100,4,1,1,100,0,0
30241,-100,4,2,1,40,0,0
31575,-100,4,2,1,80,0,0
31825,-100,4,2,1,70,0,0
50241,-100,4,2,1,90,0,0
50408,-100,4,2,1,70,0,0
51408,-100,4,2,1,100,0,0
52408,-100,4,2,1,80,0,0
60574,-100,4,2,0,80,0,0
60741,-100,4,2,1,80,0,0
63574,-100,4,2,1,90,0,0
68491,-100,4,2,0,90,0,0
68824,-100,4,2,1,90,0,0
71658,-200,4,2,1,90,0,0
74324,-100,4,2,1,100,0,0
82324,-200,4,2,1,100,0,0
83658,-100,4,2,1,100,0,0
90324,-100,4,1,1,100,0,0
94991,-100,4,2,1,100,0,0
98991,-100,4,2,1,0,0,0
99158,-100,4,2,1,80,0,0
126158,-100,4,2,1,100,0,0
127241,-100,4,2,1,90,0,0
143241,-100,4,2,0,100,0,0
143408,-100,4,2,1,90,0,0
148991,-100,4,2,1,100,0,0
164824,-100,4,1,1,100,0,0
172991,-100,4,1,1,90,0,0
183324,-100,4,2,1,90,0,0
192824,-200,4,2,1,90,0,0
194324,-200,4,2,1,70,0,0
199574,-100,4,2,1,90,0,0
215658,-100,4,2,1,100,0,0
220991,-100,4,1,1,100,0,0
231158,-100,4,2,1,0,0,0

[Colours]
Combo1 : 255,255,255
Combo2 : 0,128,255
Combo3 : 255,255,255
Combo4 : 0,255,255

[HitObjects]
256,63,20824,1,2
124,110,21158,1,0
149,175,21324,1,2
100,306,21658,1,2
237,281,21991,1,2
300,307,22158,1,8
366,282,22325,1,8
366,142,22658,1,2
303,110,22824,1,0
242,143,22991,1,2
303,214,23324,5,8
163,215,23658,2,0,B|112:160,1,70,8|0
49,138,23991,2,0,B|120:73,1,70,2|0
156,47,24324,1,0
156,47,24658,2,0,B|229:84|320:33,1,140,2|8
355,24,25158,1,8
439,123,25491,1,8
382,251,25824,1,12
260,319,26158,6,0,B|183:311|109:245,1,140,2|0
64,280,26658,1,0
83,212,26824,1,0
151,198,26991,1,2
256,105,27324,2,0,B|256:19,2,70,0|8|8
357,201,27991,1,0
456,102,28324,1,2
325,49,28658,5,2
266,87,28824,1,0
294,150,28991,1,0
294,150,29158,1,0
235,188,29324,1,0
235,188,29491,1,0
273,246,29658,1,0
223,296,29824,1,0
223,296,29991,1,0
223,296,30158,1,0
256,192,30324,12,4,31658
126,90,32324,5,0
121,229,32658,1,2
248,128,32991,1,0
416,351,33658,1,2
310,259,33991,1,0
310,259,34158,1,0
310,188,34324,6,0,B|310:110,1,70
258,70,34658,2,0,B|181:112,1,70,2|0
184,172,34991,2,0,B|256:226,1,70
305,187,35324,2,0,B|381:189|459:122,1,140,2|4
385,10,35991,1,0
325,47,36158,1,0
124,108,36658,2,0,B|123:279,1,140,0|4
76,299,37158,5,0
123,350,37324,1,2
171,300,37491,1,0
236,326,37658,2,0,B|309:292|344:214,1,140,0|2
222,227,38158,1,0
208,128,38325,2,0,B|138:154|96:243,1,140,0|2
236,326,38991,2,0,B|309:292|344:214,1,140,0|2
447,146,39658,5,0
358,37,39991,1,2
221,3,40325,1,0
92,58,40658,1,2
56,193,40991,1,8
56,193,41158,1,8
113,232,41325,2,0,B|121:274|121:274|172:277,1,70
211,244,41658,2,0,B|336:244|336:244|366:269,1,140,0|2
347,326,42158,1,0
347,326,42325,6,0,B|427:288,1,70,4|0
472,263,42658,1,0
435,51,42991,2,0,B|352:92,1,70
306,116,43325,1,2
125,143,43658,2,0,B|125:98|125:98|98:75,1,70,0|0
60,27,43991,2,0,B|30:48|30:48|29:104,1,70,2|0
29,152,44325,1,2
29,152,44408,1,0
29,152,44491,1,2
99,152,44658,2,0,B|119:188|119:188|243:188,1,140,0|4
427,2,45658,5,0
450,68,45825,1,0
407,123,45991,1,0
256,92,46325,1,0
128,148,46658,1,0
70,187,46825,2,0,B|87:219|87:219|209:219,1,140
235,164,47325,2,0,B|276:192|276:192|277:302,1,140,0|0
149,340,47991,5,0
28,267,48325,1,0
151,201,48658,1,0
151,201,48825,1,0
30,129,49158,1,0
30,129,49325,1,0
151,60,49658,2,0,B|150:217,1,140
151,201,50158,1,0
149,271,50325,6,0,B|195:272|195:272|220:238,1,70,8|0
211,183,50658,2,0,B|262:183|262:183|291:219,1,70
275,268,50991,1,0
275,268,51075,1,0
275,268,51158,1,0
339,240,51325,1,0
403,268,51491,1,8
350,120,51825,1,8
226,45,52158,1,0
226,45,52325,1,8
106,119,52658,5,0
72,180,52825,1,0
142,180,52991,1,10
255,98,53325,1,0
222,35,53491,1,0
292,36,53658,1,10
406,119,53991,1,0
440,180,54158,1,0
370,180,54325,1,10
255,98,54658,2,0,B|254:262,1,140,0|10
312,284,55158,5,0
312,284,55241,1,0
312,284,55325,1,0
371,246,55491,1,0
371,316,55658,1,10
190,282,55991,1,0
129,318,56158,1,0
130,248,56325,1,10
258,191,56658,2,0,B|258:105,1,70
259,49,56991,5,10
259,49,57158,1,0
259,49,57325,1,0
157,192,57658,1,10
258,255,57825,1,0
365,191,57991,1,12
462,60,58325,6,0,B|392:100,1,70,8|0
350,41,58658,1,2
350,41,58825,1,0
289,76,58991,2,0,B|339:144,1,70,8|0
365,191,59325,1,2
306,229,59491,1,0
272,238,59575,1,0
238,228,59658,1,10
258,161,59825,2,0,B|185:171|105:231,1,140
69,249,60325,5,8
126,289,60491,1,0
183,249,60658,1,4
237,292,60825,1,0
237,292,60991,5,0
225,79,61325,1,2
404,166,61658,1,0
237,292,61991,1,0
237,292,62075,1,0
237,292,62158,1,2
225,79,62491,1,0
225,79,62575,1,0
225,79,62658,1,2
166,117,62825,1,0
166,46,62991,2,0,B|81:46,1,70
32,75,63325,5,0
48,143,63491,1,0
28,210,63658,1,10
167,212,63991,1,8
149,144,64158,1,0
170,77,64325,1,8
292,145,64658,5,8
292,145,64825,1,0
358,124,64991,2,0,B|340:84|340:84|294:68,1,70,8|0
266,24,65325,2,0,B|220:41|220:41|217:97,1,70,8|0
219,132,65658,2,0,B|184:184|184:184|82:184,2,140,0|8|8
334,53,66658,6,8,B|414:54|414:54|456:109,1,140
452,242,67325,1,8
452,242,67491,1,0
406,295,67658,1,8
406,295,67825,1,0
359,242,67991,2,8,B|340:194|340:194|243:194,1,140
251,194,68491,5,0
251,194,68658,1,4
92,49,68991,6,0,B|128:76|138:116,1,70
88,156,69325,1,2
88,156,69491,1,0
51,216,69658,2,0,B|20:207|15:176,2,35
121,218,69991,2,0,B|193:233|247:293,1,140,2|4
324,297,70491,1,0
344,219,70658,1,2
344,219,70825,1,0
344,219,70991,2,0,B|271:186|256:83,1,140,0|2
311,62,71491,1,0
369,92,71658,6,0,B|516:92,1,140
510,162,72658,1,4
510,162,72825,1,4
307,210,73658,5,0
171,291,73991,1,0
165,143,74325,1,12
307,210,74658,1,8
419,126,74991,2,0,B|401:84|360:60,1,70
323,25,75325,1,8
323,25,75491,2,0,B|251:36|190:114,1,140
252,147,75991,1,8
193,185,76158,1,0
220,248,76325,1,0
220,248,76408,1,0
220,248,76491,1,0
220,248,76658,6,0,B|267:300|364:320,1,140,8|4
397,252,77158,1,0
355,179,77325,1,8
414,119,77491,2,0,B|447:78,2,35
328,100,77825,1,0
328,100,77991,2,0,B|247:116|199:164,1,140,8|0
242,234,78491,1,0
299,295,78658,2,0,B|235:340|151:352,1,140,8|0
99,303,79158,1,0
28,258,79325,2,0,B|47:216|96:188,1,70,8|0
139,185,79658,6,0,B|128:136|85:103,1,70,4|0
37,115,79991,1,8
76,57,80158,1,0
144,69,80324,2,0,B|182:83|200:125,1,70
244,165,80658,1,8
309,140,80824,2,0,B|378:118|462:146,1,140
485,199,81324,1,8
485,199,81408,1,0
485,199,81491,1,0
443,255,81658,1,0
320,322,81991,1,8
255,295,82324,6,0,B|216:332|216:332|104:333|104:333|61:288,1,210,0|8
127,263,83658,1,8
196,263,83991,1,8
161,202,84324,1,0
161,202,84408,1,0
161,202,84491,1,0
103,161,84658,6,0,B|148:108|224:83,1,140,0|4
356,61,85324,1,8
299,189,85658,1,0
321,254,85824,1,0
291,317,85991,1,8
220,316,86158,1,0
117,220,86491,1,0
87,157,86658,1,8
116,93,86824,1,0
186,93,86991,1,0
234,224,87324,2,0,B|398:223,1,140,8|0
442,141,87991,5,8
331,55,88324,1,0
299,191,88658,1,8
299,191,88824,1,0
239,227,88991,2,0,B|223:260|223:260|172:260,1,70
143,207,89324,2,0,B|166:173|166:173|208:173,1,70,8|0
256,164,89658,5,0
212,114,89824,1,8
303,114,89991,1,8
172,62,90158,1,8
348,62,90324,5,8
424,179,90658,1,8
340,291,90991,1,0
340,291,91158,1,0
285,334,91324,1,8
285,334,91491,1,0
188,232,91824,1,0
188,232,91991,1,8
242,187,92158,1,0
187,143,92324,1,0
187,143,92408,1,0
187,143,92491,1,0
243,101,92658,2,0,B|214:52|214:52|104:52,1,140,8|0
83,104,93158,6,0,B|44:177,1,70,0|8
113,195,93491,2,0,B|151:271,1,70,0|0
207,226,93824,2,0,B|295:198,1,70,0|8
256,192,94158,12,8,94991
203,102,95324,5,4
310,102,95491,1,4
256,192,95658,12,0,98991
259,135,99491,5,2
144,248,99824,2,0,B|221:281,1,70,0|2
255,327,100158,1,0
302,275,100324,2,0,B|368:249,1,70,0|2
63,73,100824,6,0,B|136:80|210:127,1,140
201,201,101324,1,2
270,153,101491,1,0
335,99,101658,2,0,B|366:166|331:258,1,140,0|2
286,302,102158,1,4
141,272,102491,5,0
104,196,102658,1,10
143,122,102824,1,0
216,80,102991,1,0
216,80,103074,1,0
216,80,103158,1,0
299,79,103324,1,10
372,120,103491,1,0
408,195,103658,6,0,B|338:245,1,70,8|0
268,220,103991,2,0,B|204:180,1,70,8|0
132,219,104324,1,0
132,219,104491,2,0,B|59:260,2,70,0|8|0
256,192,104991,12,4,106324
106,67,116991,5,0
140,217,117324,1,8
248,106,117658,1,0
303,158,117824,1,0
248,212,117991,2,0,B|272:247|272:247|317:247,1,70,8|0
369,214,118324,5,0
369,214,118491,1,0
430,167,118658,2,0,B|387:104|297:71,1,140,8|0
176,31,119324,2,0,B|96:42|37:120,1,140,8|0
101,244,119991,2,0,B|137:307|242:333,1,140,8|0
278,284,120491,1,0
351,307,120658,2,0,B|395:278|395:278|395:171,1,140,8|0
396,113,121158,1,0
396,113,121324,2,0,B|456:113|456:113|478:150,2,70,8|0|0
255,49,121991,1,8
110,101,122324,5,0
50,149,122491,1,0
118,183,122658,1,8
189,156,122824,2,0,B|236:160|251:228|334:244,1,140
294,311,123324,2,0,B|248:305|218:256|169:232,1,140,8|0
118,183,123824,1,0
71,121,123991,2,8,B|78:60|167:70|168:130,2,140,8|0|8
36,202,124991,5,0
75,268,125158,1,0
141,306,125324,1,8
215,325,125491,1,0
290,308,125658,1,0
290,308,125741,1,0
290,308,125824,1,0
352,262,125991,1,8
402,203,126158,1,8
308,81,126491,1,8
158,43,126824,1,8
123,111,126991,2,0,B|89:137|32:145,1,70,0|0
9,80,127324,5,8
9,80,127491,1,0
9,80,127658,2,0,B|53:28|152:9,1,140,8|8
187,65,128158,1,0
187,65,128324,2,0,B|232:120|332:128,1,140,0|8
369,78,128824,1,0
427,128,128991,1,0
427,128,129074,1,0
427,128,129158,1,0
466,193,129324,1,8
431,261,129491,1,0
368,306,129658,1,0
157,307,129991,5,8
92,264,130158,1,0
29,308,130324,1,0
28,153,130658,5,8
95,190,130824,1,0
163,154,130991,1,0
259,40,131324,5,8
324,81,131491,1,0
366,145,131658,1,0
366,145,131741,1,0
366,145,131824,1,0
322,208,131991,1,8
255,246,132158,1,0
186,210,132324,1,0
150,141,132491,1,0
193,77,132658,1,12
317,167,132991,6,0,B|408:167,1,70
464,168,133324,1,8
464,168,133491,2,0,B|464:270|464:270|415:323,1,140
368,263,133991,1,8
368,263,134158,2,0,B|337:227|337:227|228:227,1,140
175,263,134658,1,8
257,150,134991,5,0
188,113,135158,1,0
223,44,135324,1,8
300,45,135491,1,0
331,112,135658,1,0
101,194,135991,5,8
422,196,136324,1,0
317,309,136658,1,8
247,275,136824,1,0
212,124,137158,1,0
283,95,137324,1,8
353,125,137491,1,0
353,125,137658,2,0,B|399:124|399:124|399:68,2,70,0|0|8
283,95,138158,1,0
217,41,138324,5,8
152,83,138491,1,0
117,151,138658,1,8
146,221,138824,1,0
211,261,138991,1,8
295,41,139324,5,8
360,83,139491,1,0
395,151,139658,1,8
359,218,139824,1,0
293,258,139991,1,8
208,200,140158,5,0
135,253,140324,5,8
183,312,140491,1,0
256,336,140658,1,8
328,310,140824,1,0
381,254,140991,1,8
381,130,141324,5,8
333,71,141491,1,0
260,47,141658,1,8
260,47,141741,1,0
260,47,141824,1,0
186,71,141991,1,8
135,129,142158,1,0
186,71,142324,1,8
186,71,142408,1,0
186,71,142491,1,0
260,47,142658,1,8
333,71,142824,1,0
383,130,142991,1,8
258,196,143324,5,4
128,279,143658,6,8,B|80:236|80:236|80:134,1,140
384,279,144324,2,8,B|432:236|432:236|432:134,1,140
371,69,144824,1,0
371,69,144991,2,0,B|128:70,1,210,8|0
159,151,145658,2,0,B|394:150,1,210,8|0
433,199,146324,5,0
433,199,146408,1,0
433,199,146491,1,0
393,265,146658,1,8
328,305,146824,1,0
256,332,146991,1,0
183,306,147158,1,0
118,264,147324,1,8
76,198,147491,1,4
256,192,147574,12,4,148991
256,296,149324,5,8
97,239,149658,1,8
256,192,149991,1,8
257,193,150158,2,0,B|209:139|116:123,1,140,8|0
72,71,150658,1,8
26,141,150824,1,0
83,202,150991,2,0,B|74:232|58:247,2,35
158,164,151324,2,0,B|214:124|308:115,1,140,8|0
369,96,151824,5,0
411,168,151991,1,8
349,225,152158,1,0
272,191,152324,2,0,B|238:201|218:226,2,35
281,106,152658,1,8
213,56,152824,1,0
74,151,153158,1,0
12,207,153324,1,8
188,299,153658,5,8
188,299,153741,1,0
188,299,153824,1,0
259,338,153991,1,8
333,299,154158,1,0
285,230,154324,2,0,B|285:141|285:141|331:92,1,140,0|8
379,48,154824,1,0
379,48,154991,2,0,B|421:48|421:48|456:81,1,70
389,133,155324,1,8
389,133,155491,2,0,B|352:175|352:175|242:175,1,140
193,174,155991,5,8
133,233,156158,1,0
99,309,156324,1,0
71,232,156491,1,0
8,175,156658,1,8
256,192,156991,12,4,158158
407,274,158991,5,8
437,197,159158,1,0
462,115,159325,1,8
298,76,159658,2,0,B|208:113|207:189,1,140,4|8
292,175,160158,1,0
292,175,160325,2,0,B|131:176,1,140,0|8
83,126,160825,1,0
2,274,161158,1,0
58,335,161325,1,8
137,362,161491,1,0
137,362,161575,1,0
137,362,161658,1,0
216,334,161825,1,0
273,272,161991,1,8
411,177,162325,6,0,B|373:107|287:86,1,140,0|8
194,217,162991,2,0,B|230:284|318:306,1,140,0|8
360,241,163491,1,0
443,94,163825,1,0
371,49,163991,1,8
443,94,164158,1,0
372,49,164325,2,0,B|314:98|224:108,1,140,0|8
38,109,164991,5,8
104,263,165325,1,8
255,336,165658,1,0
333,307,165825,1,0
394,249,165991,1,0
437,176,166158,1,4
293,52,166491,1,0
219,93,166658,1,8
70,170,166991,2,0,B|68:321,2,140,0|8|8
162,29,167991,5,8
248,173,168325,1,0
248,173,168491,1,0
196,229,168658,1,8
196,229,168825,2,0,B|256:276|296:330|416:196|520:357,1,350
509,342,169991,1,0
256,192,170158,12,4,172991
201,75,182158,5,0
198,242,182491,1,0
343,157,182825,1,0
202,78,183158,1,0
126,36,183325,2,0,B|94:68|93:114,1,70
155,155,183658,6,0,B|213:197|316:208,1,140,4|10
362,170,184158,1,0
317,99,184325,2,0,B|262:56|181:41,1,140,0|10
117,85,184825,1,4
32,227,184991,6,0,B|88:184|196:168,1,140,4|10
219,122,185491,1,0
266,191,185658,1,10
266,191,185741,1,0
266,191,185825,1,0
211,255,185991,2,0,B|263:298|367:305,1,140,10|10
411,257,186491,5,0
364,186,186658,1,10
419,123,186825,1,0
369,55,186991,2,0,B|295:67|219:122,1,140,10|10
208,185,187491,1,4
145,128,187658,1,4
58,37,187825,5,0
58,37,187908,1,0
58,37,187991,1,10
15,109,188158,1,0
58,180,188325,1,0
17,253,188491,1,0
54,328,188658,1,10
223,329,188991,5,4
223,329,189158,1,0
334,270,189325,1,8
334,270,189491,1,0
272,159,189658,1,0
272,159,189741,1,0
272,159,189825,1,0
161,219,189991,1,8
161,219,190158,1,0
50,40,190491,5,0
108,127,190658,1,8
202,81,190825,1,0
478,42,191158,5,0
409,120,191325,1,8
311,81,191491,1,0
256,192,191658,12,0,192658
263,308,192825,6,0,B|236:259|286:201|254:129,1,175,4|0
233,100,193825,1,0
197,77,193991,1,2
158,59,194158,1,0
119,76,194325,6,0,B|86:98|86:147,1,70,0|2
117,164,194825,1,0
140,198,194991,2,0,B|141:236|185:265,1,70,0|2
212,240,195491,1,0
246,216,195658,2,0,B|281:199|296:159,1,70,0|2
283,125,196158,1,0
317,101,196325,1,0
354,120,196491,1,0
381,152,196658,1,2
395,191,196825,1,0
384,231,196991,6,0,B|356:264,1,35
320,248,197325,2,0,B|287:223,1,35,2|0
252,210,197658,1,0
223,240,197825,1,0
191,267,197991,1,2
107,267,198325,1,0
73,241,198491,1,0
46,207,198658,1,2
46,207,198741,1,0
46,207,198825,1,0
76,178,198991,1,0
148,59,199325,1,12
288,93,199658,6,0,B|446:93,1,140,0|8
476,161,200158,1,0
429,230,200325,2,0,B|274:230,1,140,0|8
238,162,200825,1,0
190,92,200991,2,0,B|42:93,1,140,0|8
1,161,201491,1,0
47,231,201658,2,0,B|200:231,1,140,0|8
238,162,202158,1,0
289,95,202325,5,0
289,95,202408,1,0
289,95,202491,1,0
359,141,202658,1,8
402,212,202825,1,0
358,283,202991,1,0
358,283,203075,1,0
358,283,203158,1,0
284,323,203325,1,8
284,323,203491,1,4
256,192,203575,12,2,204991
255,87,214991,5,8
176,235,215325,1,8
344,237,215658,2,0,B|344:192|344:192|302:149,1,70,12|0
255,128,215991,1,8
186,177,216158,1,0
187,93,216325,1,0
187,93,216408,1,0
187,93,216491,1,0
256,45,216658,1,8
325,90,216825,1,0
376,156,216991,5,0
375,240,217158,1,0
326,308,217325,1,8
254,352,217491,1,0
181,308,217658,2,0,B|182:271|182:271|148:243,1,70
77,280,217991,2,0,B|41:258|41:258|41:146,1,140,8|4
179,63,218658,5,8
287,153,218991,1,0
361,113,219158,1,0
287,153,219325,1,8
218,201,219491,2,0,B|284:274|353:209|416:291,1,210,0|8
471,333,220158,1,0
399,376,220325,1,8
328,330,220491,1,0
254,370,220658,1,8
254,370,220741,1,0
254,370,220825,1,0
254,370,220908,1,0
254,370,220991,5,8
126,261,221325,1,8
126,92,221658,2,0,B|290:92,2,140,0|8|0
66,151,222491,1,0
129,206,222658,1,8
207,234,222825,1,0
291,234,222991,1,0
369,203,223158,1,0
437,154,223325,1,8
341,63,223658,5,8
181,64,223991,1,8
256,213,224325,2,0,B|256:123,1,70
258,58,224658,1,8
199,120,224825,2,0,B|260:158|260:158|344:104,1,140
427,187,225491,5,0
427,187,225658,1,0
77,191,225991,1,0
77,191,226158,1,0
77,191,226325,1,4
256,192,226491,12,0,231325
