osu file format v9

[General]
AudioFilename: Silent Bible.mp3
AudioLeadIn: 0
PreviewTime: 73324
Countdown: 0
SampleSet: Soft
StackLeniency: 0.7
Mode: 0
LetterboxInBreaks: 1

[Editor]
DistanceSpacing: 1.1
BeatDivisor: 4
GridSize: 8

[Metadata]
Title:Silent Bible
Artist:Mizuki Nana
Creator:minyeob
Version:Hard
Source:
Tags:

[Difficulty]
HPDrainRate:7
CircleSize:5
OverallDifficulty:7
ApproachRate:7
SliderMultiplier:1.3
SliderTickRate:0.5

[Events]
//Background and Video events
0,0,"bg.JPG"
//Break Periods
2,99191,105424
2,173191,181258
2,194525,198758
//Storyboard Layer 0 (Background)
//Storyboard Layer 1 (Fail)
//Storyboard Layer 2 (Pass)
//Storyboard Layer 3 (Foreground)
//Storyboard Sound Samples
//Background Colour Transformations
3,100,163,162,255

[TimingPoints]
20825,333.333333333333,4,2,1,90,1,0
22325,333.333333333333,4,2,1,90,1,0
23158,-100,4,1,1,80,0,0
23491,-100,4,2,1,90,0,0
28908,-100,4,1,1,60,0,0
29241,-100,4,1,1,70,0,0
29575,-100,4,1,1,85,0,0
30158,-100,4,1,1,100,0,0
30241,-100,4,2,1,40,0,0
31575,-100,4,2,1,80,0,0
31825,-100,4,2,1,70,0,0
50241,-100,4,2,1,90,0,0
50408,-100,4,2,1,70,0,0
51408,-100,4,2,1,100,0,0
52408,-100,4,2,1,80,0,0
60574,-100,4,2,0,80,0,0
60741,-100,4,2,1,80,0,0
63574,-100,4,2,1,90,0,0
68491,-100,4,2,0,90,0,0
68824,-100,4,2,1,90,0,0
71658,-200,4,2,1,90,0,0
74324,-100,4,2,1,100,0,0
82324,-200,4,2,1,100,0,0
83658,-100,4,2,1,100,0,0
90324,-100,4,1,1,100,0,0
94991,-100,4,2,1,100,0,0
98991,-100,4,2,1,0,0,0
106158,-100,4,2,1,60,0,0
108324,-200,4,2,1,60,0,0
108991,-100,4,2,1,60,0,0
115658,-100,4,2,1,80,0,0
126158,-100,4,2,1,100,0,0
127241,-100,4,2,1,90,0,0
143241,-100,4,2,0,100,0,0
143408,-100,4,2,1,90,0,0
148991,-100,4,2,1,100,0,0
164824,-100,4,1,1,100,0,0
172991,-100,4,1,1,90,0,0
183324,-100,4,2,1,90,0,0
192824,-200,4,2,1,90,0,0
194324,-200,4,2,0,100,0,0
199574,-100,4,2,1,90,0,0
204991,-100,4,2,1,70,0,0
212908,-100,4,1,1,30,0,0
213074,-100,4,1,1,40,0,0
213241,-100,4,1,1,50,0,0
213408,-100,4,1,1,60,0,0
213574,-100,4,1,1,70,0,0
213741,-100,4,1,1,80,0,0
214158,-100,4,1,1,100,0,0
214991,-100,4,2,1,100,0,0
215658,-100,4,2,1,100,0,0
220991,-100,4,1,1,100,0,0
231158,-100,4,2,1,0,0,0

[Colours]
Combo1 : 255,255,255
Combo2 : 0,128,255
Combo3 : 255,255,255
Combo4 : 0,255,255

[HitObjects]
256,63,20824,1,2
145,130,21158,1,0
145,130,21324,1,2
259,191,21658,2,0,B|326:210|356:279,1,130,0|2
418,275,22158,5,4
418,275,22325,1,12
304,337,22658,1,0
188,277,22991,1,2
251,163,23324,1,0
251,163,23491,1,0
251,163,23658,6,0,B|328:143|342:66,2,130
162,108,24658,1,2
72,161,24991,2,8,B|73:235,1,65
159,283,25491,1,8
247,228,25824,1,12
260,319,26158,6,0,B|183:311|118:250,1,130,2|0
92,227,26658,1,0
150,111,26991,1,2
203,147,27158,1,0
258,113,27324,2,0,B|259:34,2,65,0|8|8
358,195,27991,1,0
454,107,28324,1,2
343,38,28658,1,2
263,140,28991,5,0
263,140,29158,1,0
183,242,29491,1,0
183,242,29658,1,0
234,361,29991,1,0
234,361,30158,1,0
256,192,30324,12,4,31658
67,80,32324,5,0
190,38,32658,1,2
304,98,32991,1,0
416,339,33658,1,2
382,81,34324,5,0
258,70,34658,2,0,B|181:112,1,70,2|0
184,172,34991,2,0,B|256:226,1,70
305,187,35324,2,0,B|381:189|459:122,1,140,2|4
385,10,35991,1,0
325,47,36158,1,0
124,108,36658,2,0,B|123:279,1,140,0|4
123,350,37324,5,2
171,300,37491,1,0
236,326,37658,2,0,B|309:292|344:214,1,140,0|2
222,227,38158,1,0
208,128,38325,2,0,B|138:154|96:243,1,140,0|2
236,326,38991,2,0,B|309:292|344:214,1,140,0|2
447,146,39658,5,0
367,43,39991,1,2
241,7,40325,1,0
119,51,40658,1,2
63,168,40991,1,8
137,274,41325,1,2
259,316,41658,1,0
382,275,41991,1,0
479,189,42324,6,0,B|443:132|372:110,1,130,4|8
256,64,42991,1,0
136,113,43324,2,0,B|63:128|19:190,1,130,8|0
131,257,43991,2,0,B|220:257,1,65,8|0
261,258,44325,1,2
260,193,44491,1,2
325,193,44658,2,0,B|345:229|345:229|463:228,1,130,0|4
407,101,45324,6,0,B|381:56|381:56|275:57,1,130,8|0
172,59,45991,1,8
240,169,46325,1,0
167,276,46658,1,8
167,276,46824,1,0
167,276,46991,2,0,B|87:260|69:168,2,130,0|8|0
286,224,47991,5,8
404,277,48325,1,0
407,138,48658,1,0
407,138,48825,1,0
30,129,49158,1,0
30,129,49325,1,0
151,60,49658,2,0,B|150:217,1,140
151,201,50158,1,0
149,271,50325,6,0,B|195:272|195:272|220:238,1,70,8|0
211,183,50658,2,0,B|262:183|262:183|291:219,1,70
275,268,50991,1,0
275,268,51158,1,0
339,240,51325,1,0
403,268,51491,1,8
350,120,51825,1,8
226,45,52158,1,0
226,45,52325,1,8
110,144,52658,5,0
110,92,52825,1,0
109,39,52991,1,10
258,90,53325,1,0
258,142,53491,1,0
258,194,53658,1,10
414,138,53991,1,0
413,86,54158,1,0
412,33,54325,1,10
257,97,54658,2,0,B|258:255,1,130,0|10
312,284,55158,5,0
312,284,55325,1,0
255,316,55491,1,0
198,284,55658,1,10
161,159,55991,1,0
356,159,56325,1,10
258,191,56658,2,0,B|258:105,1,70
259,49,56991,5,10
259,49,57325,1,0
157,192,57658,1,10
365,191,57991,1,12
462,60,58325,6,0,B|395:99,1,65,8|0
361,44,58658,1,2
244,100,58991,2,0,B|285:165,1,65,8|0
336,124,59325,1,2
336,254,59658,2,0,B|337:95,1,130,8|2
208,143,60325,5,8
112,231,60658,1,4
160,274,60825,1,0
211,234,60991,5,0
211,78,61325,1,2
347,154,61658,1,0
346,236,61991,1,0
346,236,62158,5,0
212,156,62491,1,2
346,77,62825,1,0
281,33,62991,2,0,B|128:33,1,130,0|2
93,85,63491,1,0
69,152,63658,5,8
119,285,63991,1,8
171,152,64325,1,8
224,284,64658,1,8
224,284,64825,1,0
282,242,64991,2,0,B|316:262|326:307,2,65,8|0|8
226,109,65658,1,8
373,115,65991,6,0,B|373:193,2,65,8|0|8
322,64,66491,1,0
257,33,66658,1,8
193,64,66825,1,0
138,109,66991,2,0,B|138:186,2,65,8|0|8
144,252,67658,5,8
193,303,67825,1,0
325,303,68158,1,0
374,251,68325,1,8
251,194,68658,5,4
44,171,68991,6,0,B|80:198|92:236,1,65
40,267,69325,1,2
98,295,69491,1,0
163,279,69658,2,0,B|212:327|304:347,1,130,0|2
395,289,70325,1,4
329,176,70658,2,0,B|364:166|392:113,2,65,2|0|0
276,137,71158,1,0
222,173,71325,1,2
256,192,71658,12,12,72825
254,323,73658,5,0
137,268,73991,1,0
184,148,74325,5,12
308,186,74658,1,8
418,117,74991,2,0,B|400:75|359:51,2,70,0|0|8
362,153,75491,1,0
230,69,75825,1,0
170,120,75991,1,8
207,271,76325,1,0
207,271,76658,6,0,B|254:323|347:342,1,130,8|4
386,296,77158,1,0
339,233,77325,1,8
474,154,77658,6,0,B|431:98|360:76,1,130,0|8
298,111,78158,1,0
339,233,78491,1,0
298,299,78658,2,0,B|246:343|158:356,1,130,8|0
112,313,79158,1,0
112,313,79325,1,8
163,254,79491,1,0
119,188,79658,6,0,B|47:165|37:93,2,130,4|8|0
254,109,80658,1,8
185,145,80824,1,0
254,181,80991,2,0,B|324:205|339:289,1,130,0|8
335,352,81491,1,0
403,314,81658,1,0
499,188,81991,1,8
256,192,82324,12,0,83324
96,325,83658,5,8
243,275,83991,1,8
127,170,84324,1,8
187,218,84491,1,0
203,141,84658,6,0,B|248:88|318:65,1,130,8|4
383,43,85158,1,0
451,80,85324,1,8
487,192,85658,6,0,B|442:246|355:263,1,130,0|8
304,229,86158,1,0
161,282,86491,1,0
112,220,86658,1,8
167,74,86991,1,0
241,163,87324,2,0,B|290:165|312:213|387:218,1,130,8|0
456,155,87991,5,8
332,59,88324,1,0
292,210,88658,1,8
292,210,88824,1,0
180,100,89158,1,0
180,100,89324,1,8
167,255,89658,5,0
283,150,89991,1,8
408,48,90324,5,8
452,170,90658,1,8
481,296,90991,1,0
292,344,91491,1,4
258,218,91824,1,0
258,218,91991,1,8
228,91,92324,1,0
105,46,92658,1,8
35,155,92991,6,0,B|64:232|161:240,1,130,0|8
197,196,93491,1,0
258,243,93658,2,0,B|336:267|344:355,1,130,0|8
256,192,94158,12,8,94991
257,117,95324,5,4
256,192,95658,12,0,98991
259,65,106324,5,4
66,240,106991,1,2
168,320,107324,1,0
290,274,107658,2,0,B|360:252|408:204,1,130
474,143,108324,6,0,B|429:94|356:76,1,130,2|0
104,48,109658,5,0
230,76,109991,1,2
143,173,110324,1,0
262,327,110824,1,2
423,218,111324,1,0
481,101,111658,6,0,B|430:38|330:137|290:70,1,195
350,28,112324,1,0
221,8,112658,1,2
117,86,112991,1,0
72,208,113324,1,2
114,257,113491,1,0
173,284,113658,1,0
229,253,113824,1,0
273,205,113991,1,2
372,121,114324,6,0,B|336:84|275:152|226:96,1,130,0|2
181,113,114824,1,0
182,47,114991,2,0,B|218:10|279:78|328:22,1,130,0|2
372,39,115491,1,0
433,84,115658,5,8
433,84,115824,1,8
473,153,115991,1,0
423,273,116324,1,0
307,334,116658,1,0
179,306,116991,5,12
85,216,117324,1,8
65,87,117658,1,0
172,0,117991,1,0
369,214,118324,5,0
369,214,118491,1,0
430,167,118658,2,0,B|387:104|297:71,1,140,8|0
176,31,119324,2,0,B|96:42|37:120,1,140,8|0
101,244,119991,2,0,B|137:307|242:333,1,140,8|0
278,284,120491,1,0
351,307,120658,2,0,B|395:278|395:278|395:171,1,140,8|0
396,113,121158,1,0
396,113,121324,2,0,B|456:113|456:113|478:150,2,70,8|0|0
255,49,121991,1,8
102,78,122324,5,0
73,231,122658,1,8
123,190,122824,2,0,B|170:194|179:258|256:276,1,130
286,241,123324,1,8
222,113,123658,1,0
150,113,123824,1,0
147,47,123991,2,8,B|154:-14|243:-4|237:70,2,130,8|0|8
36,138,124991,5,4
34,280,125324,1,8
154,202,125658,1,0
279,133,125991,1,8
341,168,126158,1,8
218,95,126491,1,8
216,237,126824,1,8
9,80,127324,5,8
9,80,127491,1,0
9,80,127658,2,0,B|53:28|148:8,1,130,8|8
174,60,128158,1,0
174,60,128324,2,0,B|219:115|319:123,1,140,0|8
425,149,128991,1,0
425,149,129158,1,0
379,203,129324,1,8
396,272,129491,1,0
396,272,129658,6,0,B|345:320|261:340,1,130,0|8
216,360,130158,1,0
150,332,130324,1,0
45,233,130658,1,8
123,113,130991,1,0
259,40,131324,5,8
324,81,131491,1,0
366,145,131658,1,0
366,145,131824,1,0
322,208,131991,1,8
186,210,132324,1,0
150,141,132491,1,0
193,77,132658,1,12
317,167,132991,6,0,B|408:167,1,70
464,168,133324,1,8
464,168,133491,2,0,B|464:270|464:270|415:323,1,140
368,263,133991,1,8
368,263,134158,2,0,B|337:227|337:227|228:227,1,140
175,263,134658,1,8
257,150,134991,5,0
223,44,135324,1,8
300,45,135491,1,0
331,112,135658,1,0
101,194,135991,5,8
422,196,136324,1,0
317,309,136658,1,8
247,275,136824,1,0
212,124,137158,1,0
283,95,137324,1,8
353,125,137491,1,0
353,125,137658,2,0,B|399:124|399:124|399:68,2,70,0|0|8
217,41,138324,5,8
134,141,138658,1,8
173,199,138824,1,0
236,232,138991,1,8
295,41,139324,5,8
357,76,139491,1,0
394,137,139658,1,8
287,231,139991,1,8
145,253,140324,5,8
193,305,140491,1,0
258,334,140658,1,8
322,304,140824,1,0
368,249,140991,1,8
381,130,141324,5,8
333,71,141491,1,0
260,47,141658,1,8
260,47,141991,5,8
186,71,142158,1,0
135,129,142324,1,8
193,259,142658,5,8
258,287,142824,1,8
323,258,142991,1,0
259,223,143158,1,8
261,151,143324,5,4
136,305,143658,6,8,B|88:262|88:262|88:172,1,130
89,130,144158,1,8
153,130,144324,1,0
260,50,144658,5,12
376,79,144991,6,8,B|424:122|424:122|424:212,1,130
423,254,145491,1,8
359,254,145658,1,0
256,332,145991,5,12
433,199,146324,5,0
433,199,146491,1,0
328,305,146824,1,0
256,332,146991,1,0
118,264,147324,1,8
76,198,147491,1,4
256,192,147574,12,12,148991
236,335,149324,5,8
96,264,149658,1,8
249,240,149991,1,8
250,241,150158,2,0,B|202:187|109:171,1,140,8|0
79,130,150658,2,0,B|121:78|219:60,1,130,8|0
263,40,151158,1,0
247,116,151324,1,8
383,72,151658,5,0
482,195,151991,1,8
329,229,152324,2,0,B|301:263|260:275,2,65,0|0|8
283,165,152824,1,0
137,107,153158,1,0
83,163,153324,1,8
188,299,153658,5,8
337,254,153991,1,8
404,293,154158,1,0
405,215,154324,2,0,B|404:121|404:121|368:70,1,130,0|8
236,36,154991,2,0,B|144:36|144:36|97:69,1,130,0|8
111,136,155491,1,0
230,236,155824,5,8
166,281,155991,1,0
164,125,156324,1,0
305,192,156658,1,8
256,192,156991,12,4,158158
407,274,158991,5,8
448,150,159325,1,8
366,48,159658,2,0,B|276:85|275:161,1,140,4|8
151,216,160325,2,0,B|68:171|67:109,1,130,0|8
133,81,160825,1,0
68,121,160991,1,0
20,269,161325,1,8
147,359,161658,1,0
221,337,161825,1,0
290,300,161991,1,8
411,177,162325,6,0,B|375:105|293:83,1,130,0|8
213,207,162991,2,0,B|249:274|334:296,1,130,0|8
360,241,163491,1,4
337,120,164325,5,8
264,90,164491,1,0
193,57,164658,1,8
44,109,164991,5,8
121,244,165325,1,8
257,320,165658,1,0
432,165,166158,1,4
309,68,166491,1,0
240,106,166658,1,8
84,105,166991,2,0,B|82:251,2,130,0|8|8
160,33,167991,5,8
298,104,168325,1,0
165,187,168658,1,8
105,237,168825,2,0,B|165:284|205:338|325:204|420:354,1,325
256,192,170158,12,4,172991
206,114,182158,5,0
254,261,182491,1,0
356,143,182825,1,0
202,112,183158,1,0
144,60,183325,2,0,B|112:92|111:138,1,70
164,171,183658,6,0,B|216:210|314:218,1,130,4|10
341,160,184158,1,0
324,84,184325,2,0,B|269:41|196:24,1,130,0|10
32,227,184991,6,0,B|88:184|175:169,1,130,4|10
217,134,185491,1,0
260,198,185658,1,10
260,198,185825,1,0
207,255,185991,2,0,B|260:297|351:305,1,130,10|4
364,186,186658,5,10
420,133,186825,1,0
372,75,186991,2,0,B|298:87|231:139,1,130,0|10
182,159,187491,1,4
128,102,187658,1,4
55,129,187825,5,0
55,129,187991,1,10
31,283,188325,1,0
179,235,188658,1,10
298,335,188991,5,4
401,218,189325,1,8
401,218,189491,1,0
344,164,189658,2,0,B|294:142|264:211|196:186|200:172,1,130,0|8
144,210,190158,1,0
67,196,190325,5,0
259,67,190658,1,8
450,197,190991,1,0
256,323,191325,1,8
256,192,191658,12,0,192658
268,338,192825,6,0,B|241:289|291:231|260:164,1,162.5,4|0
264,139,193825,1,0
264,99,193991,1,2
265,59,194158,1,0
264,20,194325,1,4
288,93,199658,6,0,B|442:93,1,130,0|8
420,222,200325,2,0,B|270:223,1,130,0|8
290,157,200825,1,0
224,157,200991,2,0,B|160:176|143:260,2,130,0|8|0
224,91,201825,2,8,B|223:242,1,130,12|4
224,286,202325,5,0
281,254,202491,1,0
339,283,202658,1,8
340,153,202991,1,0
340,22,203325,1,8
340,22,203491,1,4
256,192,203575,12,2,204991
150,63,205658,5,0
411,177,206325,1,0
178,344,206991,1,2
260,51,207658,5,0
362,131,207991,1,0
418,248,208325,1,2
218,330,208658,5,0
218,330,208825,1,2
218,330,208991,5,0
142,224,209325,1,2
137,93,209658,1,0
264,157,209991,6,0,B|417:158,1,130,2|0
188,244,210658,2,0,B|188:98,1,130,2|2
299,24,211325,1,0
366,47,211491,1,2
485,126,211825,1,0
423,163,211991,1,2
423,163,212325,2,0,B|399:208|336:147|287:235,1,130,0|2
274,272,212825,1,0
212,308,212991,5,0
149,273,213158,1,0
101,220,213325,1,8
71,154,213491,1,0
103,90,213658,1,0
155,41,213825,1,0
224,22,213991,1,8
384,56,214325,5,4
256,289,214658,1,4
127,57,214991,1,12
260,140,215325,1,12
341,246,215658,6,0,B|341:201|341:201|299:158,1,70,12|0
257,184,215991,1,8
113,184,216325,1,0
114,41,216658,1,8
185,41,216824,2,0,B|236:44|240:98|326:103,1,130
370,100,217325,1,8
381,233,217658,1,0
77,280,217991,2,0,B|41:258|41:258|41:146,1,140,8|4
179,63,218658,5,8
287,153,218991,1,0
361,113,219158,1,0
287,153,219325,1,8
218,201,219491,2,0,B|284:274|353:209|416:291,1,210,0|8
471,333,220158,1,0
399,376,220325,1,8
328,330,220491,1,0
254,370,220658,1,8
254,370,220824,1,0
254,370,220991,5,8
126,261,221325,1,8
126,92,221658,2,0,B|290:92,2,140,0|8|0
66,151,222491,1,0
129,206,222658,1,8
291,234,222991,1,0
437,154,223325,1,8
341,63,223658,5,8
181,64,223991,1,8
256,213,224325,2,0,B|256:123,1,70
258,58,224658,1,8
199,120,224825,2,0,B|260:158|260:158|344:104,1,140
427,187,225491,5,0
427,187,225658,1,0
77,191,225991,1,0
77,191,226158,1,0
256,192,226491,12,0,231325
