osu file format v10

[General]
AudioFilename: Mizuki Nana - Shin Ai (TV Size).mp3
AudioLeadIn: 500
PreviewTime: 64202
Countdown: 0
SampleSet: Soft
StackLeniency: 0.7
Mode: 0
LetterboxInBreaks: 0

[Editor]
DistanceSpacing: 1
BeatDivisor: 4
GridSize: 8

[Metadata]
Title:Shin Ai (TV Size)
TitleUnicode:深愛
Artist:Mizuki Nana
ArtistUnicode:水樹奈々
Creator:Colin Hou
Version:Normal
Source:WHITE ALBUM
Tags:AQUAPLUS PROJECT W.A. Elements Garden1 Fujii Touya Morikawa Yuki opening theme
BeatmapID:176293
BeatmapSetID:58251

[Difficulty]
HPDrainRate:4
CircleSize:4
OverallDifficulty:4
ApproachRate:5
SliderMultiplier:1.2
SliderTickRate:1

[Events]
//Background and Video events
0,0,"BG.jpg"
Video,1354,"BGV.avi"
//Break Periods
//Storyboard Layer 0 (Background)
//Storyboard Layer 1 (Fail)
//Storyboard Layer 2 (Pass)
//Storyboard Layer 3 (Foreground)
//Storyboard Sound Samples
//Background Colour Transformations
3,100,163,162,255

[TimingPoints]
1721,451.127819548872,4,2,1,30,1,0
13450,-100,4,2,2,30,0,0
13563,-100,4,2,1,30,0,0
14352,-100,4,2,2,30,0,0
30142,-100,4,1,1,40,0,0
30254,-100,4,2,1,40,0,0
41194,-100,4,2,1,50,0,0
43224,-100,4,2,2,50,0,0
46382,-100,4,1,1,20,0,0
46495,-100,4,2,1,50,0,0
56307,-100,4,1,1,50,0,0
56420,-100,4,2,1,50,0,0
63299,-100,4,2,1,30,0,0
63751,-100,4,2,1,40,0,0
64202,-100,4,2,1,50,0,0
64878,-100,4,2,1,50,0,1
97360,-100,4,2,1,50,0,0
98149,-100,4,2,1,20,0,0
99164,-100,4,2,1,15,0,0
100066,-100,4,2,1,10,0,0
100969,-100,4,2,1,5,0,0

[Colours]
Combo1 : 239,239,239
Combo2 : 163,132,122
Combo3 : 70,94,255
Combo4 : 225,153,55
Combo5 : 249,47,52

[HitObjects]
76,108,1721,2,0,B|141:116|200:103,1,120,4|8,0:0|0:0,0:0:0
265,170,2623,1,0,0:0:0
224,257,3074,1,8,0:0:0
292,323,3525,2,0,B|360:320|414:304,1,120,0|8,0:0|0:0,0:0:0
482,242,4427,6,0,B|415:238|365:213,1,120,0|8,0:0|0:0,0:0:0
324,126,5330,2,0,B|384:119|419:101,2,90
179,122,6683,1,8,0:0:0
130,204,7134,2,0,B|72:199|24:207,2,90
265,252,8487,1,8,0:0:0
335,186,8939,6,0,B|392:210|457:211,2,120,0|8|0,0:0|0:0|0:0,0:0:0
280,106,10292,1,8,0:0:0
198,157,10743,2,0,B|139:174|73:158,2,120,0|8|0,0:0|0:0|0:0,0:0:0
234,68,12096,1,8,0:0:0
234,68,12548,6,0,B|243:120|297:148,2,90,4|4|4,0:0|0:0|0:0,0:0:0
268,34,13450,2,0,B|323:62|396:47,2,120,8|8|8,0:0|0:0|0:0,0:0:0
256,192,14465,12,8,15705,0:0:0
188,239,16157,5,8,0:0:0
191,334,16608,1,8,0:0:0
104,292,17059,1,8,0:0:0
188,239,17510,1,8,0:0:0
103,193,17961,1,8,0:0:0
188,239,18412,1,8,0:0:0
191,143,18863,1,8,0:0:0
274,190,19314,1,8,0:0:0
277,286,19766,6,0,B|339:304|399:290,1,120,8|8,0:0|0:0,0:0:0
471,232,20668,1,8,0:0:0
415,153,21119,1,8,0:0:0
439,60,21570,2,0,B|386:32|323:41,1,120,8|8,0:0|0:0,0:0:0
245,98,22472,1,8,0:0:0
245,98,22924,6,0,B|219:159|256:216,1,120,8|8,0:0|0:0,0:0:0
346,239,23826,1,8,0:0:0
423,182,24277,1,8,0:0:0
433,277,24728,1,8,0:0:0
376,199,25179,6,0,B|409:148|386:83,2,120,8|8|8,0:0|0:0|0:0,0:0:0
304,134,26533,1,8,0:0:0
245,210,26984,2,0,B|121:228,1,120,8|8,0:0|0:0,0:0:0
104,320,27886,2,0,B|222:302,2,120,8|8|8,0:0|0:0|0:0,0:0:0
217,55,30142,5,0,0:0:0
217,55,30593,2,0,B|257:80|332:79,1,120,4|8,0:0|0:0,0:0:0
427,65,31495,1,0,0:0:0
377,146,31946,1,8,0:0:0
452,204,32397,2,0,B|416:268|432:334,1,120,0|8,0:0|0:0,0:0:0
240,280,33751,5,8,0:0:0
158,229,34202,2,0,B|33:240,2,120,0|8|0,0:0|0:0|0:0,0:0:0
208,147,35555,1,8,0:0:0
157,65,36006,2,0,B|217:65|276:33,1,120,0|8,0:0|0:0,0:0:0
353,85,36908,1,0,0:0:0
353,85,37360,1,8,0:0:0
353,85,37811,6,0,B|420:96|477:69,2,120,0|8|0,0:0|0:0|0:0,0:0:0
287,155,39164,1,8,0:0:0
368,205,39615,2,0,B|337:266|349:329,2,120,0|8|0,0:0|0:0|0:0,0:0:0
455,165,40969,2,0,B|442:99|382:72,1,120,8|4,0:0|0:0,0:0:0
241,78,42322,6,4,B|192:104|184:144,2,90
256,192,43224,12,0,46382,0:0:0
467,289,46833,6,0,B|411:308|347:292,1,120,4|8,0:0|0:0,0:0:0
315,258,47510,2,8,B|298:203|318:140,1,120,0|0,0:0|0:0,0:0:0
353,107,48187,2,0,B|409:88|473:104,1,120,8|0,0:0|0:0,0:0:0
440,194,49089,1,8,0:0:0
481,280,49540,1,0,0:0:0
398,328,49991,1,8,0:0:0
321,269,50442,6,0,B|265:307|201:297,1,120,0|8,0:0|0:0,0:0:0
168,269,51119,2,0,B|204:204|194:147,1,120
155,127,51796,2,0,B|213:101|275:106,1,120,8|0,0:0|0:0,0:0:0
366,120,52698,1,8,0:0:0
437,184,53149,1,0,0:0:0
345,214,53600,1,8,0:0:0
366,120,54051,6,0,B|312:140|240:128,1,120,4|8,0:0|0:0,0:0:0
211,97,54728,2,0,B|197:162|128:176,1,120
82,176,55405,1,8,0:0:0
43,263,55856,2,0,B|112:298|201:289|232:276,1,180
301,231,56984,2,0,B|365:235,1,60,0|8,0:0|0:0,0:0:0
359,138,57660,6,0,B|412:144|458:124,2,90,4|4|4,0:0|0:0|0:0,0:0:0
240,55,59014,1,8,0:0:0
190,137,59465,2,0,B|96:154,2,90,4|4|4,0:0|0:0|0:0,0:0:0
237,128,60367,2,0,B|285:147|302:190|286:238,1,120,0|8,0:0|0:0,0:0:0
249,311,61269,1,8,0:0:0
249,311,61720,5,4,0:0:0
315,210,62172,2,0,B|344:226|379:223,1,60,0|4,0:0|0:0,0:0:0
366,103,62848,1,4,0:0:0
256,192,63074,12,8,64427,0:0:0
200,240,64878,5,4,0:0:0
128,176,65330,2,0,B|72:200|32:192,2,90,8|0|0,0:0|0:0|0:0,0:0:0
155,136,66232,2,0,B|207:104|273:104,1,120,8|0,0:0|0:0,0:0:0
348,158,67134,2,0,B|439:179,2,90,8|0|0,0:0|0:0|0:0,0:0:0
302,141,68036,5,8,0:0:0
272,232,68487,1,0,0:0:0
185,189,68939,2,0,B|150:229|164:283,2,90,8|0|0,0:0|0:0|0:0,0:0:0
224,161,69841,2,0,B|200:40,2,120,8|0|8,0:0|0:0|0:0,0:0:0
308,206,71194,2,0,B|369:201,1,60
415,194,71645,1,8,0:0:0
478,265,72096,6,0,B|427:321|365:316,1,120,0|8,0:0|0:0,0:0:0
278,299,72999,2,0,B|220:316,2,60,0|0|8,0:0|0:0|0:0,0:0:0
311,208,73901,2,0,B|268:152|277:82,1,120,0|8,0:0|0:0,0:0:0
355,42,74803,2,0,B|415:36,2,60,0|0|8,0:0|0:0|0:0,0:0:0
298,119,75705,5,0,0:0:0
202,104,76157,1,8,0:0:0
178,197,76608,1,0,0:0:0
95,245,77059,1,8,0:0:0
92,149,77510,5,4,0:0:0
167,271,78187,1,4,0:0:0
309,253,78863,1,8,0:0:0
390,303,79314,6,0,B|450:278|459:212,1,120,4|8,0:0|0:0,0:0:0
401,135,80217,2,0,B|416:73,2,60,0|0|8,0:0|0:0|0:0,0:0:0
314,176,81119,1,0,0:0:0
228,132,81570,1,8,0:0:0
160,200,82021,2,0,B|95:214,2,60,0|0|8,0:0|0:0|0:0,0:0:0
242,249,82924,6,0,B|188:300|148:299,2,90
259,204,83826,2,0,B|304:252|378:246,1,120,0|8,0:0|0:0,0:0:0
408,222,84502,1,4,0:0:0
359,138,84954,2,0,B|422:114,2,60,0|8|0,0:0|0:0|0:0,0:0:0
315,157,85630,6,0,B|260:186|199:158,1,120,0|8,0:0|0:0,0:0:0
122,100,86533,2,0,B|108:43,2,60,4|0|8,0:0|0:0|0:0,0:0:0
62,175,87435,1,0,0:0:0
138,232,87886,2,0,B|143:294,1,60,8|4,0:0|0:0,0:0:0
235,316,88563,2,0,B|230:256,1,60,4|8,0:0|0:0,0:0:0
244,161,89239,2,0,B|264:99|339:91,1,120,0|8,0:0|0:0,0:0:0
427,113,90142,6,0,B|479:164,2,60,4|0|8,0:0|0:0|0:0,0:0:0
379,196,91044,2,0,B|368:254|397:291,2,90,0|8|0,0:0|0:0|0:0,0:0:0
404,155,91946,2,0,B|447:191|500:188,2,90
370,120,92848,6,0,B|320:86|253:89,1,120,0|8,0:0|0:0,0:0:0
182,150,93751,1,4,0:0:0
139,236,94202,2,0,B|147:296,1,60,8|0,0:0|0:0,0:0:0
239,272,94878,2,0,B|260:333,2,60,0|8|4,0:0|0:0|0:0,0:0:0
281,185,95781,2,0,B|327:225,1,60,4|4,0:0|0:0,0:0:0
418,251,96457,2,0,B|467:234|482:182,2,90,8|0|0,0:0|0:0|0:0,0:0:0
370,260,97360,5,4,0:0:0
280,226,97811,2,0,B|216:240,1,60,8|4,0:0|0:0,0:0:0
256,192,98149,12,0,101871,0:0:0
