osu file format v10

[General]
AudioFilename: Mizuki Nana - Shin Ai (TV Size).mp3
AudioLeadIn: 500
PreviewTime: 64202
Countdown: 0
SampleSet: Soft
StackLeniency: 0.7
Mode: 0
LetterboxInBreaks: 0

[Editor]
DistanceSpacing: 1
BeatDivisor: 4
GridSize: 8

[Metadata]
Title:Shin Ai (TV Size)
TitleUnicode:深愛
Artist:Mizuki Nana
ArtistUnicode:水樹奈々
Creator:Colin Hou
Version:Insane
Source:WHITE ALBUM
Tags:AQUAPLUS PROJECT W.A. Elements Garden1 Fujii Touya Morikawa Yuki opening theme
BeatmapID:175523
BeatmapSetID:58251

[Difficulty]
HPDrainRate:6
CircleSize:4
OverallDifficulty:8
ApproachRate:8
SliderMultiplier:2
SliderTickRate:1

[Events]
//Background and Video events
0,0,"BG.jpg"
Video,1354,"BGV.avi"
//Break Periods
//Storyboard Layer 0 (Background)
//Storyboard Layer 1 (Fail)
//Storyboard Layer 2 (Pass)
//Storyboard Layer 3 (Foreground)
//Storyboard Sound Samples
//Background Colour Transformations
3,100,163,162,255

[TimingPoints]
1721,451.127819548872,4,2,1,30,1,0
11872,-83.3333333333333,4,2,1,30,0,0
13450,-83.3333333333333,4,2,2,30,0,0
13563,-83.3333333333333,4,2,1,30,0,0
15705,-100,4,2,2,30,0,0
30142,-100,4,1,1,40,0,0
30254,-100,4,2,1,40,0,0
41194,-200,4,2,1,50,0,0
42322,-100,4,2,1,50,0,0
43224,-133.333333333333,4,2,2,50,0,0
46382,-83.3333333333333,4,2,1,20,0,0
46495,-83.3333333333333,4,2,1,50,0,0
47059,-100,4,2,1,50,0,0
63299,-133.333333333333,4,2,1,30,0,0
63751,-100,4,2,1,40,0,0
64202,-76.9230769230769,4,2,1,50,0,0
64878,-76.9230769230769,4,2,1,50,0,1
67698,-83.3333333333333,4,2,1,50,0,1
78187,-76.9230769230769,4,2,1,50,0,1
81119,-83.3333333333333,4,2,1,50,0,1
88111,-76.9230769230769,4,2,1,50,0,1
90142,-83.3333333333333,4,2,1,50,0,1
94991,-76.9230769230769,4,2,1,50,0,1
97360,-76.9230769230769,4,2,1,50,0,0
98149,-76.9230769230769,4,2,1,20,0,0
99164,-76.9230769230769,4,2,1,15,0,0
100066,-76.9230769230769,4,2,1,10,0,0
100969,-76.9230769230769,4,2,1,5,0,0

[Colours]
Combo1 : 239,239,239
Combo2 : 163,132,122
Combo3 : 70,94,255
Combo4 : 225,153,55
Combo5 : 249,47,52

[HitObjects]
41,256,1495,2,0,B|96:248,1,50
130,218,1721,2,0,B|142:276|207:297|259:280,1,150,4|0,0:0|0:0,0:0:0
294,264,2172,1,8,0:0:0
221,195,2397,1,0,0:0:0
248,98,2623,2,0,B|288:66|344:75,1,100
452,25,3074,2,0,B|411:56|398:127|457:165,1,150,8|0,0:0|0:0,0:0:0
491,172,3525,2,0,B|433:177|400:240|423:289,1,150
419,281,3976,1,8,0:0:0
286,346,4202,5,0,0:0:0
295,312,4314,1,0,0:0:0
304,278,4427,1,0,0:0:0
240,67,4653,1,0,0:0:0
248,100,4766,1,0,0:0:0
257,133,4878,1,8,0:0:0
266,166,4991,1,0,0:0:0
275,199,5104,2,0,B|176:211,2,100
309,195,5668,2,0,B|368:188,1,50,0|8,0:0|0:0,0:0:0
100,221,6006,1,0,0:0:0
108,121,6232,6,0,B|165:131|204:168|213:232|180:282,1,200,0|8,0:0|0:0,0:0:0
404,263,6908,1,0,0:0:0
404,263,7021,1,0,0:0:0
404,263,7134,2,0,B|351:254|310:216|314:152,1,150
326,111,7585,2,0,B|357:69|421:74,1,100,8|0,0:0|0:0,0:0:0
406,169,8036,2,0,B|463:176,2,50,0|8|0,0:0|0:0|0:0,0:0:0
235,253,8487,1,8,0:0:0
96,102,8713,5,0,0:0:0
114,125,8826,1,0,0:0:0
125,152,8939,1,0,0:0:0
129,181,9051,1,0,0:0:0
127,211,9164,1,0,0:0:0
119,240,9277,1,0,0:0:0
105,266,9390,2,0,B|3:284,2,100,8|0|0,0:0|0:0|0:0,0:0:0
234,317,10066,2,0,B|332:299,1,100,0|8,0:0|0:0,0:0:0
448,236,10517,5,0,0:0:0
413,232,10630,1,0,0:0:0
380,217,10743,1,0,0:0:0
352,194,10856,1,0,0:0:0
335,162,10969,1,0,0:0:0
331,127,11081,1,0,0:0:0
339,93,11194,2,0,B|437:75,2,100,8|0|0,0:0|0:0|0:0,0:0:0
174,57,11871,5,0,0:0:0
221,218,12096,2,0,B|237:274,2,59.9999981689454,8|8|0,0:0|0:0|0:0,0:0:0
35,198,12548,2,0,B|87:222|161:215|201:157,2,179.999994506836,4|4|4,0:0|0:0|0:0,0:0:0
314,222,13450,2,0,B|351:169|425:162|477:186,1,179.999994506836,8|0,0:0|0:0,0:0:0
476,185,13901,1,8,0:0:0
476,185,14014,1,8,0:0:0
476,185,14127,1,8,0:0:0
256,192,14352,12,0,15254,0:0:0
113,138,15705,6,0,B|102:169|88:200|88:200|111:240|129:277|129:277|156:281|175:287,1,200,8|8,0:0|0:0,0:0:0
370,328,16608,2,0,B|419:307|428:246,1,100,8|0,0:0|0:0,0:0:0
287,147,17059,1,8,0:0:0
327,240,17284,1,0,0:0:0
327,240,17397,1,0,0:0:0
327,240,17510,2,0,B|272:263|222:224,1,100,8|0,0:0|0:0,0:0:0
385,158,17961,2,0,B|434:189|443:259|407:299,1,150,8|0,0:0|0:0,0:0:0
370,328,18412,2,0,B|475:327,1,100,0|0,0:0|0:0,0:0:0
265,330,18863,1,8,0:0:0
36,332,19314,6,0,B|68:338|101:346|101:346|137:318|170:294|170:294|170:267|173:247,1,200,8|8,0:0|0:0,0:0:0
211,36,20217,1,8,0:0:0
139,154,20442,1,0,0:0:0
278,160,20668,1,8,0:0:0
392,222,20893,1,0,0:0:0
444,329,21119,2,0,B|396:342|348:316,1,100,8|0,0:0|0:0,0:0:0
238,273,21570,2,0,B|286:250|289:192,1,100,8|0,0:0|0:0,0:0:0
278,160,21908,2,0,B|260:113|206:88|152:108,1,150
192,195,22472,1,8,0:0:0
361,257,22698,1,0,0:0:0
499,171,22924,6,0,B|467:165|434:157|434:157|398:185|365:209|365:209|365:236|362:256,1,200,8|8,0:0|0:0,0:0:0
205,226,23826,1,8,0:0:0
136,298,24051,2,0,B|180:335|235:321,1,100,0|8,0:0|0:0,0:0:0
302,253,24502,1,0,0:0:0
337,254,24615,1,0,0:0:0
372,255,24728,1,8,0:0:0
467,225,24954,1,0,0:0:0
393,157,25179,1,8,0:0:0
215,347,25630,1,8,0:0:0
0,200,26081,1,8,0:0:0
185,17,26533,6,0,B|213:31|244:45|244:45|255:90|267:129|267:129|250:150|240:168,1,200,8|8,0:0|0:0,0:0:0
115,325,27435,1,8,0:0:0
224,241,27660,1,0,0:0:0
245,94,27886,2,0,B|189:102|167:157,1,100,8|0,0:0|0:0,0:0:0
335,132,28337,2,0,B|368:178|344:232,1,100,8|0,0:0|0:0,0:0:0
346,226,28675,1,0,0:0:0
256,192,28788,12,0,29916,0:0:0
256,192,30142,5,0,0:0:0
36,270,30593,2,0,B|72:293|124:299|124:299|128:282|128:282|172:294|219:290,1,200,4|8,0:0|0:0,0:0:0
315,276,31269,1,0,0:0:0
400,223,31495,1,0,0:0:0
340,142,31720,1,0,0:0:0
256,192,31946,2,0,B|154:178,1,100,8|0,0:0|0:0,0:0:0
8,81,32397,2,0,B|107:94,1,100
107,94,32736,2,0,B|164:81,1,50,0|8,0:0|0:0,0:0:0
346,40,33074,6,0,B|397:49,2,50,0|8|0,0:0|0:0|0:0,0:0:0
155,82,33525,1,0,0:0:0
252,61,33751,2,0,B|221:111|248:161,1,100,8|0,0:0|0:0,0:0:0
306,305,34202,2,0,B|348:269|364:173|332:116,1,200,0|8,0:0|0:0,0:0:0
153,188,34878,5,0,0:0:0
117,206,34991,1,0,0:0:0
81,224,35104,1,0,0:0:0
186,171,35330,1,0,0:0:0
48,242,35555,1,8,0:0:0
179,333,35781,1,0,0:0:0
321,262,36006,2,0,B|425:269,2,100,0|0|8,0:0|0:0|0:0,0:0:0
264,179,36683,1,0,0:0:0
219,89,36908,2,0,B|165:83,2,50,0|8|0,0:0|0:0|0:0,0:0:0
317,67,37360,2,0,B|328:120|290:159,1,100,8|0,0:0|0:0,0:0:0
27,212,37811,6,0,B|72:243|123:224,1,100
319,201,38262,2,0,B|273:170|223:189,1,100,8|0,0:0|0:0,0:0:0
260,282,38713,2,0,B|333:320|407:284|418:215,1,200,0|8,0:0|0:0,0:0:0
319,201,39390,1,0,0:0:0
512,233,39615,1,0,0:0:0
0,151,40066,1,8,0:0:0
256,40,40517,2,0,B|240:88|256:136|256:136|272:184|256:240,1,200,0|8,0:0|0:0,0:0:0
256,262,41081,1,8,0:0:0
256,287,41194,6,0,B|253:320|257:346,1,50,0|4,0:0|0:0,0:0:0
390,249,42322,5,4,0:0:0
139,279,42660,1,4,0:0:0
238,47,42999,1,4,0:0:0
115,166,43224,6,0,B|47:136,1,75.0000028610231
184,135,43675,2,0,B|116:166,1,75.0000028610231,8|0,0:0|0:0,0:0:0
252,166,44127,2,0,B|184:136,1,75.0000028610231,8|0,0:0|0:0,0:0:0
320,136,44578,2,0,B|252:167,1,75.0000028610231,8|0,0:0|0:0,0:0:0
388,167,45029,2,0,B|320:137,1,75.0000028610231,8|0,0:0|0:0,0:0:0
456,137,45480,2,0,B|388:168,1,75.0000028610231,8|0,0:0|0:0,0:0:0
206,252,45931,5,8,0:0:0
297,211,46157,1,0,0:0:0
165,342,46382,2,0,B|226:368|298:339|320:277|297:210,1,239.999992675781,8|4,0:0|0:0,0:0:0
214,154,47059,1,0,0:0:0
123,194,47284,2,0,B|87:231|30:232,1,100,8|0,0:0|0:0,0:0:0
21,203,47623,1,0,0:0:0
7,176,47736,2,0,B|11:128|7:77,1,100
127,29,48187,2,0,B|123:77|127:128,1,100,8|0,0:0|0:0,0:0:0
143,154,48525,1,0,0:0:0
160,178,48638,2,0,B|198:219|252:207,2,100,0|0|8,0:0|0:0|0:0,0:0:0
324,168,49314,2,0,B|376:168,2,50,0|8|0,0:0|0:0|0:0,0:0:0
144,92,49766,5,0,0:0:0
144,92,49991,2,0,B|83:99|68:156,1,100,8|0,0:0|0:0,0:0:0
129,230,50442,1,0,0:0:0
200,160,50668,1,0,0:0:0
259,240,50893,1,8,0:0:0
324,168,51119,2,0,B|376:172,1,50,0|0,0:0|0:0,0:0:0
434,211,51345,2,0,B|490:200|500:136,2,100,0|0|8,0:0|0:0|0:0,0:0:0
404,115,52021,5,0,0:0:0
295,62,52247,2,0,B|309:163,1,100
252,328,52698,2,0,B|238:228,1,100,8|0,0:0|0:0,0:0:0
208,224,53036,1,8,0:0:0
178,220,53149,1,0,0:0:0
320,173,53375,5,0,0:0:0
268,32,53600,2,0,B|235:74|257:128,1,100,8|0,0:0|0:0,0:0:0
338,258,54051,2,0,B|392:260|426:198|402:149,1,150,4|0,0:0|0:0,0:0:0
391,121,54502,2,0,B|360:79|302:85,1,100,8|0,0:0|0:0,0:0:0
275,97,54841,1,0,0:0:0
173,224,55066,1,8,0:0:0
173,224,55179,2,0,B|273:212,2,100,0|8|0,0:0|0:0|0:0,0:0:0
44,114,55856,6,0,B|80:148|136:153|185:129,1,150
184,129,56307,1,8,0:0:0
361,88,56533,2,0,B|317:50|260:60,1,100
286,157,56984,1,0,0:0:0
335,348,57209,1,8,0:0:0
329,324,57322,1,0,0:0:0
323,300,57435,1,0,0:0:0
318,276,57548,1,0,0:0:0
313,252,57660,5,4,0:0:0
122,210,57999,1,4,0:0:0
256,69,58337,1,4,0:0:0
227,179,58788,5,8,0:0:0
227,179,59014,1,0,0:0:0
193,167,59127,1,8,0:0:0
159,156,59239,1,0,0:0:0
125,144,59352,1,0,0:0:0
91,133,59465,5,4,0:0:0
242,318,59803,1,4,0:0:0
442,185,60142,1,4,0:0:0
442,185,60367,6,0,B|415:228|354:220,1,100
365,293,60705,2,0,B|314:299|281:248,1,100,8|0,0:0|0:0,0:0:0
235,304,61044,2,0,B|197:269|215:211,2,100,0|8|0,0:0|0:0|0:0,0:0:0
381,240,61721,1,4,0:0:0
296,104,62172,5,8,0:0:0
131,144,62397,1,4,0:0:0
216,280,62848,5,4,0:0:0
457,143,63299,6,0,B|423:141|381:126,1,75.0000028610231,0|8,0:0|0:0,0:0:0
449,221,63751,2,0,B|399:220|347:197,1,100,0|8,0:0|0:0,0:0:0
444,301,64202,2,0,B|377:303|316:272,1,129.999994049073,0|8,0:0|0:0,0:0:0
203,168,64653,5,0,0:0:0
313,32,64878,2,0,B|263:86|288:156,1,129.999994049073,4|0,0:0|0:0,0:0:0
409,225,65330,1,8,0:0:0
250,256,65555,2,0,B|316:236,1,64.9999970245363
393,114,65893,1,8,0:0:0
393,114,66006,2,0,B|460:122,2,64.9999970245363,0|0|8,0:0|0:0|0:0,0:0:0
263,101,66457,5,0,0:0:0
177,207,66683,2,0,B|241:188|305:192,1,129.999994049073
498,307,67134,2,0,B|428:296|409:225,1,129.999994049073,8|0,0:0|0:0,0:0:0
403,193,67472,1,0,0:0:0
485,90,67698,5,8,0:0:0
485,90,67811,2,0,B|512:206,2,119.999996337891,0|8|0,0:0|0:0|0:0,0:0:0
320,187,68487,1,0,0:0:0
153,283,68713,1,0,0:0:0
153,283,68826,1,0,0:0:0
153,283,68939,2,0,B|125:166,2,119.999996337891,8|0|0,0:0|0:0|0:0,0:0:0
346,300,69615,6,0,B|360:241|320:187,1,119.999996337891,0|8,0:0|0:0,0:0:0
362,48,70066,2,0,B|411:112|379:229|305:250,1,239.999992675781
306,250,70743,2,0,B|252:278|189:254,1,119.999996337891,8|0,0:0|0:0,0:0:0
190,254,71081,1,0,0:0:0
241,127,71307,1,8,0:0:0
241,127,71420,2,0,B|257:66,2,59.9999981689454,0|0|8,0:0|0:0|0:0,0:0:0
162,319,71871,5,0,0:0:0
213,190,72096,2,0,B|259:211|307:179|309:135,1,119.999996337891
309,102,72435,2,0,B|372:94,1,59.9999981689454,0|8,0:0|0:0,0:0:0
466,182,72773,1,0,0:0:0
413,303,72999,1,0,0:0:0
375,284,73111,1,8,0:0:0
333,292,73224,1,0,0:0:0
295,273,73337,1,0,0:0:0
255,288,73450,1,8,0:0:0
124,271,73675,1,0,0:0:0
28,171,73901,6,0,B|88:190|146:167,1,119.999996337891
170,133,74239,1,0,0:0:0
187,94,74352,2,0,B|245:71|305:90,1,119.999996337891,8|0,0:0|0:0,0:0:0
434,65,74803,1,0,0:0:0
444,105,74916,1,8,0:0:0
436,146,75029,1,0,0:0:0
443,187,75142,1,0,0:0:0
435,227,75254,2,0,B|417:274|441:308|441:308|479:326,1,119.999996337891,8|0,0:0|0:0,0:0:0
337,327,75705,6,0,B|355:280|331:246|331:246|293:228,1,119.999996337891
256,237,76044,1,0,0:0:0
214,243,76157,2,0,B|100:204,1,119.999996337891,8|0,0:0|0:0,0:0:0
60,190,76495,1,0,0:0:0
60,190,76608,2,0,B|100:240|82:305,2,119.999996337891,0|0|8,0:0|0:0|0:0,0:0:0
3,70,77284,5,0,0:0:0
3,70,77397,1,0,0:0:0
3,70,77510,2,0,B|52:106|118:96,1,119.999996337891,4|0,0:0|0:0,0:0:0
171,172,77848,2,0,B|221:133|290:145,1,119.999996337891,4|0,0:0|0:0,0:0:0
412,89,78187,2,0,B|358:140|348:213|377:285|437:312,1,259.999988098145,4|0,0:0|0:0,0:0:0
504,193,78863,5,8,0:0:0
471,161,78976,1,8,0:0:0
429,141,79089,1,0,0:0:0
384,132,79202,1,0,0:0:0
339,138,79314,2,0,B|341:203|285:256|204:249,1,194.999991073609,4|0,0:0|0:0,0:0:0
162,239,79766,1,8,0:0:0
71,145,79991,2,0,B|87:82,1,64.9999970245363
206,28,80330,1,8,0:0:0
206,28,80442,2,0,B|183:104|228:150,2,129.999994049073,0|8|0,0:0|0:0|0:0,0:0:0
326,76,81119,6,0,B|446:67,1,119.999996337891
509,169,81570,1,8,0:0:0
405,229,81796,1,0,0:0:0
484,318,82021,2,0,B|426:327,2,59.9999981689454,0|8|0,0:0|0:0|0:0,0:0:0
456,198,82472,2,0,B|337:216,1,119.999996337891,8|0,0:0|0:0,0:0:0
161,230,82924,6,0,B|231:240|265:186,1,119.999996337891
292,140,83262,2,0,B|246:100|255:23,1,119.999996337891,0|0,0:0|0:0,0:0:0
254,31,83600,1,0,0:0:0
254,31,83826,6,0,B|208:59|192:151|236:199,1,179.999994506836,0|0,0:0|0:0,0:0:0
258,231,84277,1,8,0:0:0
258,231,84502,6,0,B|208:277|144:266|144:266|96:308|34:288,1,239.999992675781,4|0,0:0|0:0,0:0:0
72,199,85179,2,0,B|126:176|116:89,1,119.999996337891,8|0,0:0|0:0,0:0:0
117,48,85517,1,8,0:0:0
117,48,85630,6,0,B|130:117|188:143,2,119.999996337891,0|0|8,0:0|0:0|0:0,0:0:0
236,32,86307,1,0,0:0:0
236,32,86420,1,0,0:0:0
236,32,86533,2,0,B|361:47,1,119.999996337891,4|0,0:0|0:0,0:0:0
474,61,86984,1,8,0:0:0
336,255,87209,1,0,0:0:0
336,255,87322,1,0,0:0:0
336,255,87435,2,0,B|461:270,2,119.999996337891,0|0|8,0:0|0:0|0:0,0:0:0
160,313,88111,6,0,B|223:298|268:238|262:156,1,194.999991073609,4|0,0:0|0:0,0:0:0
238,97,88563,2,0,B|200:47|122:41,1,129.999994049073,4|4,0:0|0:0,0:0:0
127,182,89014,2,0,B|65:197,2,64.9999970245363,0|8|0,0:0|0:0|0:0,0:0:0
260,235,89465,1,0,0:0:0
349,123,89690,1,8,0:0:0
390,142,89803,1,8,0:0:0
435,146,89916,1,0,0:0:0
481,130,90029,1,0,0:0:0
506,87,90142,6,0,B|502:160|516:220,1,119.999996337891,4|0,0:0|0:0,0:0:0
442,350,90593,2,0,B|446:277|432:217,1,119.999996337891,8|0,0:0|0:0,0:0:0
399,235,90931,1,0,0:0:0
399,235,91044,1,0,0:0:0
287,277,91269,1,0,0:0:0
92,330,91495,2,0,B|165:327|193:263,1,119.999996337891,8|0,0:0|0:0,0:0:0
186,222,91833,1,0,0:0:0
186,222,91946,1,0,0:0:0
79,165,92172,2,0,B|19:185,1,59.9999981689454
32,124,92397,2,0,B|86:160|155:136,1,119.999996337891,8|0,0:0|0:0,0:0:0
198,29,92848,6,0,B|318:19,2,119.999996337891,0|0|8,0:0|0:0|0:0,0:0:0
96,220,93525,1,0,0:0:0
96,220,93638,1,0,0:0:0
96,220,93751,2,0,B|165:319,1,119.999996337891,4|0,0:0|0:0,0:0:0
256,192,94202,1,8,0:0:0
360,315,94427,1,0,0:0:0
360,315,94540,1,0,0:0:0
360,315,94653,2,0,B|411:206,1,119.999996337891
454,191,94991,5,8,0:0:0
454,191,95104,2,0,B|384:184|343:126,1,129.999994049073,0|4,0:0|0:0,0:0:0
292,9,95555,1,0,0:0:0
92,125,95781,2,0,B|221:107,1,129.999994049073,4|4,0:0|0:0,0:0:0
325,232,96232,1,0,0:0:0
405,72,96457,2,0,B|345:93|307:167|327:238,1,194.999991073609,8|0,0:0|0:0,0:0:0
344,307,96908,2,0,B|392:298|412:245|399:202,1,129.999994049073,8|0,0:0|0:0,0:0:0
237,219,97360,6,0,B|202:272|121:291|63:258,1,194.999991073609,4|0,0:0|0:0,0:0:0
83,188,97811,2,0,B|122:216|173:205|192:159,1,129.999994049073,8|4,0:0|0:0,0:0:0
256,192,98149,12,0,101871,0:0:0
