osu file format v10

[General]
AudioFilename: Mizuki Nana - Shin Ai (TV Size).mp3
AudioLeadIn: 500
PreviewTime: 64202
Countdown: 0
SampleSet: Soft
StackLeniency: 0.7
Mode: 0
LetterboxInBreaks: 0

[Editor]
DistanceSpacing: 1
BeatDivisor: 4
GridSize: 8

[Metadata]
Title:Shin Ai (TV Size)
TitleUnicode:深愛
Artist:Mizuki Nana
ArtistUnicode:水樹奈々
Creator:Colin Hou
Version:Hard
Source:WHITE ALBUM
Tags:AQUAPLUS PROJECT W.A. Elements Garden1 Fujii Touya Morikawa Yuki opening theme
BeatmapID:176179
BeatmapSetID:58251

[Difficulty]
HPDrainRate:5
CircleSize:4
OverallDifficulty:7
ApproachRate:7
SliderMultiplier:1.6
SliderTickRate:1

[Events]
//Background and Video events
0,0,"BG.jpg"
Video,1354,"BGV.avi"
//Break Periods
//Storyboard Layer 0 (Background)
//Storyboard Layer 1 (Fail)
//Storyboard Layer 2 (Pass)
//Storyboard Layer 3 (Foreground)
//Storyboard Sound Samples
//Background Colour Transformations
3,100,163,162,255

[TimingPoints]
1721,451.127819548872,4,2,1,30,1,0
13450,-100,4,2,2,30,0,0
13563,-100,4,2,1,30,0,0
14352,-100,4,2,2,30,0,0
30142,-100,4,1,1,40,0,0
30254,-100,4,2,1,40,0,0
41194,-100,4,2,1,50,0,0
42322,-133.333333333333,4,2,1,50,0,0
43224,-100,4,2,2,50,0,0
46382,-100,4,2,1,20,0,0
46495,-100,4,2,1,50,0,0
63299,-100,4,2,1,30,0,0
63751,-100,4,2,1,40,0,0
64202,-100,4,2,1,50,0,0
64878,-100,4,2,1,50,0,1
97360,-100,4,2,1,50,0,0
98149,-100,4,2,1,20,0,0
99164,-100,4,2,1,15,0,0
100066,-100,4,2,1,10,0,0
100969,-100,4,2,1,5,0,0

[Colours]
Combo1 : 239,239,239
Combo2 : 163,132,122
Combo3 : 70,94,255
Combo4 : 225,153,55
Combo5 : 249,47,52

[HitObjects]
72,56,1721,2,0,B|72:216,1,160,4|8,0:0|0:0,0:0:0
132,268,2397,1,0,0:0:0
199,225,2623,2,0,B|244:230|263:276,1,80
305,339,3074,2,0,B|388:331,1,80,8|0,0:0|0:0,0:0:0
433,268,3525,2,0,B|396:256|376:213|396:162,1,120
415,134,3976,2,0,B|375:144|308:136|260:113,1,160,8|0,0:0|0:0,0:0:0
192,67,4653,5,0,0:0:0
116,91,4878,2,0,B|127:135|173:146,1,80,8|0,0:0|0:0,0:0:0
248,128,5330,2,0,B|265:256,2,120
383,43,6457,5,0,0:0:0
457,71,6683,2,0,B|445:112|400:128,1,80,8|0,0:0|0:0,0:0:0
326,104,7134,2,0,B|295:224,2,120
178,42,8262,6,0,B|139:58|95:54,1,80,0|8,0:0|0:0,0:0:0
28,197,8939,2,0,B|116:219|187:195,1,160,0|8,0:0|0:0,0:0:0
253,153,9615,1,0,0:0:0
253,153,9841,1,0,0:0:0
370,44,10292,1,8,0:0:0
492,146,10743,6,0,B|402:152|363:231,1,160,0|8,0:0|0:0,0:0:0
342,305,11420,1,0,0:0:0
263,318,11645,1,0,0:0:0
106,206,12096,6,0,B|56:216,2,40,8|0|0,0:0|0:0|0:0,0:0:0
166,130,12548,2,0,B|204:156|216:200|192:256,2,120,4|4|4,0:0|0:0|0:0,0:0:0
91,69,13450,2,0,B|151:85|220:72|256:32,2,160,8|8|8,0:0|0:0|0:0,0:0:0
256,192,14465,12,8,15705,0:0:0
256,192,16157,5,8,0:0:0
100,228,16608,2,0,B|141:242|141:242|166:284,1,80,8|0,0:0|0:0,0:0:0
217,328,17059,1,8,0:0:0
295,328,17284,1,0,0:0:0
352,273,17510,2,0,B|371:242|371:242|412:228,2,80,8|0|8,0:0|0:0|0:0,0:0:0
256,144,18412,2,0,B|256:226,2,80,8|0|8,0:0|0:0|0:0,0:0:0
387,52,19314,6,0,B|460:88|460:88|475:165,1,160,8|8,0:0|0:0,0:0:0
314,162,20217,2,0,B|392:145,2,80,8|0|8,0:0|0:0|0:0,0:0:0
237,185,20893,1,0,0:0:0
160,207,21119,2,0,B|175:253|218:262,1,80,8|0,0:0|0:0,0:0:0
292,245,21570,2,0,B|361:235|404:276,2,120,8|0|0,0:0|0:0|0:0,0:0:0
237,185,22472,2,0,B|257:104,1,80,8|0,0:0|0:0,0:0:0
196,31,22924,2,0,B|176:108,1,80,8|0,0:0|0:0,0:0:0
97,119,23375,6,0,B|126:169|121:237|68:268,1,160,8|8,0:0|0:0,0:0:0
9,308,24051,1,0,0:0:0
81,343,24277,2,0,B|130:347|158:318,1,80,8|0,0:0|0:0,0:0:0
190,220,24728,2,0,B|197:269|234:286,1,80,8|0,0:0|0:0,0:0:0
275,217,25179,2,0,B|357:245|440:217,2,160,8|8|8,0:0|0:0|0:0,0:0:0
205,72,26533,6,0,B|152:88|109:80,1,80,8|0,0:0|0:0,0:0:0
73,142,26984,2,0,B|105:204|83:306,1,160,8|8,0:0|0:0,0:0:0
154,336,27660,1,0,0:0:0
229,308,27886,2,0,B|214:263|166:256,1,80,8|0,0:0|0:0,0:0:0
171,176,28337,2,0,B|221:177|261:160,2,80,8|0|8,0:0|0:0|0:0,0:0:0
256,192,28901,12,0,30142,0:0:0
479,91,30593,6,0,B|443:140|464:201|464:201|416:232,1,160,4|8,0:0|0:0,0:0:0
354,260,31269,1,0,0:0:0
289,212,31495,2,0,B|247:207|208:210,1,80,0|0,0:0|0:0,0:0:0
145,257,31946,1,8,0:0:0
182,327,32172,1,0,0:0:0
102,323,32397,1,0,0:0:0
182,327,32623,2,0,B|224:343|260:335,1,80,0|8,0:0|0:0,0:0:0
329,282,33074,2,0,B|371:280,2,40,0|8|0,0:0|0:0|0:0,0:0:0
272,224,33525,5,0,0:0:0
327,166,33751,2,0,B|302:126|294:66|316:9,2,160,8|0|8,0:0|0:0|0:0,0:0:0
357,239,34878,2,0,B|371:284,2,40
403,172,35330,1,0,0:0:0
369,99,35555,2,0,B|324:102|279:96,1,80,8|0,0:0|0:0,0:0:0
220,139,36006,1,0,0:0:0
154,92,36232,1,0,0:0:0
89,139,36457,2,0,B|132:185|127:257|98:296,1,160,8|0,0:0|0:0,0:0:0
81,322,37021,2,0,B|38:324,1,40,8|0,0:0|0:0,0:0:0
12,248,37360,2,0,B|66:247|105:233,1,80,8|0,0:0|0:0,0:0:0
159,196,37811,6,0,B|194:207|245:209,1,80
291,267,38262,2,0,B|337:260|368:240,1,80,8|0,0:0|0:0,0:0:0
445,250,38713,2,0,B|414:210|404:156|420:94,1,160,0|8,0:0|0:0,0:0:0
474,40,39390,1,0,0:0:0
496,116,39615,5,0,0:0:0
341,74,40066,1,8,0:0:0
239,197,40517,2,0,B|184:216|117:213|82:203,1,160,0|8,0:0|0:0,0:0:0
50,177,41081,1,8,0:0:0
50,177,41194,2,0,B|56:223|44:268,1,80,0|4,0:0|0:0,0:0:0
462,207,42322,6,0,B|456:161|469:112,2,90.0000034332277,4|4|4,0:0|0:0|0:0,0:0:0
256,192,43224,12,8,45931,0:0:0
442,241,46382,6,0,B|385:212|331:212|281:237,1,160,8|4,0:0|0:0,0:0:0
226,285,47059,1,0,0:0:0
158,242,47284,1,8,0:0:0
190,168,47510,2,0,B|232:154,2,40
125,120,47961,1,0,0:0:0
154,45,48187,2,0,B|205:68|260:64|317:46,1,160,8|0,0:0|0:0,0:0:0
437,145,49089,5,8,0:0:0
459,221,49314,2,0,B|471:266,2,40,0|8|0,0:0|0:0|0:0,0:0:0
383,249,49766,1,0,0:0:0
383,249,49991,2,0,B|337:249|300:239,1,80,8|0,0:0|0:0,0:0:0
291,319,50442,2,0,B|241:312|215:273,1,80
194,207,50893,1,8,0:0:0
231,135,51119,2,0,B|261:105,2,40,0|0|0,0:0|0:0|0:0,0:0:0
276,201,51570,1,0,0:0:0
239,272,51796,2,0,B|200:288|134:292|74:277,2,160,8|0|8,0:0|0:0|0:0,0:0:0
394,307,53149,1,0,0:0:0
449,248,53375,5,0,0:0:0
379,208,53600,2,0,B|394:169|389:127,1,80,8|0,0:0|0:0,0:0:0
354,57,54051,2,0,B|272:44|193:56,1,160,4|8,0:0|0:0,0:0:0
145,118,54728,2,0,B|99:135,2,40,0|8|0,0:0|0:0|0:0,0:0:0
215,156,55179,1,0,0:0:0
181,228,55405,2,0,B|220:241|264:232,1,80,8|0,0:0|0:0,0:0:0
304,299,55856,2,0,B|357:269|428:282,2,120
234,339,56758,2,0,B|226:380,2,40
228,259,57209,1,8,0:0:0
294,214,57435,6,0,B|287:170,1,40,0|0,0:0|0:0,0:0:0
275,136,57660,2,0,B|344:143|404:112,2,120,4|4|4,0:0|0:0|0:0,0:0:0
141,47,58788,1,0,0:0:0
96,113,59014,2,0,B|50:124,2,40,8|8|0,0:0|0:0|0:0,0:0:0
156,165,59465,6,0,B|130:223|149:296,2,120,4|4|4,0:0|0:0|0:0,0:0:0
199,97,60367,1,0,0:0:0
303,156,60705,2,0,B|338:130,1,40,0|8,0:0|0:0,0:0:0
398,82,61044,1,0,0:0:0
398,82,61269,2,0,B|423:112|454:129|454:129|437:174|447:220,1,160,8|4,0:0|0:0,0:0:0
343,337,62172,1,8,0:0:0
343,337,62397,2,0,B|318:307|287:290|287:290|304:245|294:199,2,160,4|4|0,0:0|0:0|0:0,0:0:0
256,192,63412,12,8,64427,0:0:0
424,251,64878,5,4,0:0:0
293,343,65330,2,0,B|255:317|215:312,1,80,8|0,0:0|0:0,0:0:0
189,338,65668,2,0,B|139:312|73:306,1,120,8|0,0:0|0:0,0:0:0
25,242,66232,1,8,0:0:0
82,186,66457,1,0,0:0:0
58,109,66683,2,0,B|103:105|140:80,1,80
191,28,67134,1,8,0:0:0
263,62,67360,2,0,B|279:105,1,40
281,219,67811,6,0,B|310:304,2,80,0|8|0,0:0|0:0|0:0,0:0:0
329,155,68487,1,0,0:0:0
364,226,68713,2,0,B|393:311,2,80,0|8|0,0:0|0:0|0:0,0:0:0
408,159,69390,1,0,0:0:0
376,85,69615,6,0,B|335:76|294:74,1,80,0|8,0:0|0:0,0:0:0
216,77,70066,2,0,B|180:118|120:139|71:130,1,160
17,188,70743,2,0,B|49:217|59:260,1,80,8|0,0:0|0:0,0:0:0
57,255,71081,1,0,0:0:0
160,317,71420,2,0,B|244:306,1,80,0|8,0:0|0:0,0:0:0
287,242,71871,5,0,0:0:0
224,192,72096,2,0,B|260:172|286:133|292:82,2,120
151,157,72999,2,0,B|109:164,2,40
185,84,73450,1,8,0:0:0
126,30,73675,6,0,B|86:48|43:48,2,80
185,84,74352,1,8,0:0:0
261,60,74578,1,0,0:0:0
322,110,74803,2,0,B|340:148|341:193,1,80
297,254,75254,2,0,B|251:272|213:270,1,80,8|0,0:0|0:0,0:0:0
153,224,75705,5,0,0:0:0
206,164,75931,1,0,0:0:0
150,106,76157,2,0,B|102:118|61:108,1,80,8|0,0:0|0:0,0:0:0
70,110,76495,2,0,B|50:156|55:198|84:223|88:278|64:320,1,200,0|8,0:0|0:0,0:0:0
230,327,77510,5,4,0:0:0
341,283,77848,1,4,0:0:0
311,166,78187,2,0,B|296:114|325:56|388:48,1,160,4|0,0:0|0:0,0:0:0
386,48,78863,1,8,0:0:0
447,100,79089,6,0,B|498:108,2,40,0|0|4,0:0|0:0|0:0,0:0:0
404,167,79540,1,0,0:0:0
447,234,79766,1,8,0:0:0
399,298,79991,2,0,B|360:314,2,40,0|8|0,0:0|0:0|0:0,0:0:0
478,311,80442,1,0,0:0:0
447,234,80668,2,0,B|404:253|354:250|316:232,1,120,8|0,0:0|0:0,0:0:0
301,209,81119,6,0,B|278:170|283:121,1,80,0|0,0:0|0:0,0:0:0
324,64,81570,2,0,B|284:86|212:83|168:59,1,160,8|0,0:0|0:0,0:0:0
97,23,82247,1,0,0:0:0
28,64,82472,2,0,B|53:101|100:102,1,80,8|0,0:0|0:0,0:0:0
103,181,82924,2,0,B|109:305,2,120
173,142,83826,2,0,B|209:174|255:177|291:169,1,120
321,153,84277,1,8,0:0:0
321,153,84502,5,4,0:0:0
386,299,84954,2,0,B|466:312,2,80,0|8|0,0:0|0:0|0:0,0:0:0
313,331,85630,5,0,0:0:0
264,267,85856,2,0,B|264:220,2,40,0|0|8,0:0|0:0|0:0,0:0:0
200,316,86307,1,0,0:0:0
122,294,86533,2,0,B|39:276,2,80,4|0|8,0:0|0:0|0:0,0:0:0
175,234,87209,2,0,B|119:221|90:148|124:94,1,160
188,63,87886,1,8,0:0:0
188,63,88111,1,4,0:0:0
333,130,88563,6,0,B|416:124,2,80,4|4|0,0:0|0:0|0:0,0:0:0
298,201,89239,1,0,0:0:0
354,258,89465,1,0,0:0:0
298,315,89690,2,0,B|244:295|179:292|136:318,1,160,8|4,0:0|0:0,0:0:0
76,359,90367,5,0,0:0:0
70,279,90593,2,0,B|93:244|90:198,1,80,8|0,0:0|0:0,0:0:0
33,146,91044,2,0,B|80:158|130:147|161:124,2,120,0|2|0,0:0|0:0|0:0,0:0:0
56,69,91946,2,0,B|104:70|150:48|175:18,2,120,0|2|0,0:0|0:0|0:0,0:0:0
5,131,92848,6,0,B|20:169|17:218,1,80,0|0,0:0|0:0,0:0:0
82,256,93299,1,8,0:0:0
149,212,93525,1,0,0:0:0
149,212,93751,2,0,B|184:241|249:254|315:228,1,160,4|8,0:0|0:0,0:0:0
369,191,94427,1,0,0:0:0
238,97,94878,6,0,B|226:49,2,40,0|0|8,0:0|0:0|0:0,0:0:0
303,143,95330,1,4,0:0:0
267,299,95781,1,4,0:0:0
267,299,96006,1,4,0:0:0
113,253,96457,6,0,B|168:220|240:226,1,120,8|0,0:0|0:0,0:0:0
267,222,96908,2,0,B|311:234|352:213,2,80,8|0|4,0:0|0:0|0:0,0:0:0
279,62,97811,2,0,B|299:99|296:151,1,80,8|4,0:0|0:0,0:0:0
256,192,98149,12,0,101871,0:0:0
