osu file format v10

[General]
AudioFilename: Mizuki Nana - Shin Ai (TV Size).mp3
AudioLeadIn: 500
PreviewTime: 64202
Countdown: 0
SampleSet: Soft
StackLeniency: 0.7
Mode: 0
LetterboxInBreaks: 0

[Editor]
DistanceSpacing: 0.6
BeatDivisor: 4
GridSize: 8

[Metadata]
Title:Shin Ai (TV Size)
TitleUnicode:深愛
Artist:Mizuki Nana
ArtistUnicode:水樹奈々
Creator:Colin Hou
Version:Easy
Source:WHITE ALBUM
Tags:AQUAPLUS PROJECT W.A. Elements Garden1 Fujii Touya Morikawa Yuki opening theme
BeatmapID:176292
BeatmapSetID:58251

[Difficulty]
HPDrainRate:2
CircleSize:3
OverallDifficulty:2
ApproachRate:2
SliderMultiplier:1
SliderTickRate:2

[Events]
//Background and Video events
0,0,"BG.jpg"
Video,1354,"BGV.avi"
//Break Periods
//Storyboard Layer 0 (Background)
//Storyboard Layer 1 (Fail)
//Storyboard Layer 2 (Pass)
//Storyboard Layer 3 (Foreground)
//Storyboard Sound Samples
//Background Colour Transformations
3,100,163,162,255

[TimingPoints]
1721,451.127819548872,4,2,1,30,1,0
5781,-100,4,1,1,30,0,0
5893,-100,4,2,1,30,0,0
7585,-100,4,1,1,30,0,0
7698,-100,4,2,1,30,0,0
9390,-100,4,1,1,30,0,0
9502,-100,4,2,1,30,0,0
11194,-100,4,1,1,30,0,0
11307,-100,4,2,1,30,0,0
13450,-100,4,1,2,30,0,0
13563,-100,4,2,1,30,0,0
16157,-100,4,2,2,30,0,0
27435,-100,4,1,2,30,0,0
27548,-100,4,2,2,30,0,0
28337,-100,4,1,2,30,0,0
28450,-100,4,2,2,30,0,0
30593,-100,4,2,1,40,0,0
38262,-100,4,1,1,40,0,0
38375,-100,4,2,1,40,0,0
41194,-100,4,2,1,50,0,0
43224,-100,4,2,2,50,0,0
47059,-100,4,2,1,50,0,0
56307,-100,4,1,1,50,0,0
56420,-100,4,2,1,50,0,0
63299,-100,4,2,1,30,0,0
63751,-100,4,2,1,40,0,0
64202,-100,4,2,1,50,0,0
64878,-100,4,2,1,50,0,1
72548,-100,4,1,1,50,0,1
72660,-100,4,2,1,50,0,1
74352,-100,4,1,1,50,0,1
74465,-100,4,2,1,50,0,1
79766,-100,4,1,1,50,0,1
79878,-100,4,2,1,50,0,1
82472,-100,4,1,1,50,0,1
82585,-100,4,2,1,50,0,1
84277,-100,4,1,1,50,0,1
84390,-100,4,2,1,50,0,1
86984,-100,4,1,1,50,0,1
87096,-100,4,2,1,50,0,1
89690,-100,4,1,1,50,0,1
89803,-100,4,2,1,50,0,1
95104,-100,4,1,1,50,0,1
95217,-100,4,2,1,50,0,1
97360,-100,4,2,1,50,0,0
98149,-100,4,2,1,20,0,0
99164,-100,4,2,1,15,0,0
100066,-100,4,2,1,10,0,0
100969,-100,4,2,1,5,0,0

[Colours]
Combo1 : 239,239,239
Combo2 : 163,132,122
Combo3 : 70,94,255
Combo4 : 225,153,55
Combo5 : 249,47,52

[HitObjects]
72,239,1721,1,4,0:0:0
255,84,3525,1,0,0:0:0
467,195,5330,6,0,B|432:236|432:267,2,75,0|2|0,0:0|0:0|0:0,0:0:0
342,111,7134,2,0,B|394:107|427:93,2,75,0|2|0,0:0|0:0|0:0,0:0:0
194,82,8939,6,0,B|151:148|192:204|147:275,1,200
259,317,10743,2,0,B|304:246|263:190|306:124,1,200
408,63,12548,2,0,B|483:101|473:192,2,150,4|0|8,0:0|0:0|0:0,0:0:0
256,192,14352,12,8,16157,0:0:0
127,225,17059,5,8,0:0:0
205,315,17961,1,8,0:0:0
320,284,18863,1,8,0:0:0
314,164,19766,5,8,0:0:0
422,113,20668,1,8,0:0:0
511,193,21570,2,0,B|489:234|488:294,1,100,8|8,0:0|0:0,0:0:0
368,296,22924,2,0,B|263:318,1,100,8|8,0:0|0:0,0:0:0
152,338,24277,1,8,0:0:0
80,241,25179,6,0,B|105:139,2,100,8|8|8,0:0|0:0|0:0,0:0:0
196,213,26984,2,0,B|296:244|398:200,2,200,8|8|8,0:0|0:0|0:0,0:0:0
256,192,29014,12,4,30593,0:0:0
143,290,31495,5,0,0:0:0
62,200,32397,2,0,B|80:93,1,100,0|8,0:0|0:0,0:0:0
193,67,33751,2,0,B|176:165,1,100,8|0,0:0|0:0,0:0:0
242,265,35104,1,0,0:0:0
348,209,36006,2,0,B|449:221,2,100,0|8|0,0:0|0:0|0:0,0:0:0
323,91,37811,6,0,B|228:49|130:102,1,200
63,200,39615,2,0,B|75:301,2,100,0|8|0,0:0|0:0|0:0,0:0:0
173,153,41420,5,4,0:0:0
285,195,42322,2,0,B|280:278,2,75,4|4|4,0:0|0:0|0:0,0:0:0
256,192,43224,12,4,46833,0:0:0
432,104,47736,5,0,0:0:0
338,179,48638,2,0,B|296:205|232:185,1,100,0|8,0:0|0:0,0:0:0
186,212,49540,2,0,B|131:202|112:147,1,100,0|8,0:0|0:0,0:0:0
103,91,50442,5,0,0:0:0
216,52,51345,1,0,0:0:0
279,153,52247,2,0,B|384:160,1,100,0|8,0:0|0:0,0:0:0
398,216,53149,2,0,B|339:303,1,100,0|8,0:0|0:0,0:0:0
283,289,54051,5,4,0:0:0
166,317,54954,1,0,0:0:0
79,233,55856,2,0,B|42:164|81:84,2,150,0|0|8,0:0|0:0|0:0,0:0:0
120,275,57660,6,0,B|195:270,2,75,4|4|4,0:0|0:0|0:0,0:0:0
216,159,59465,2,0,B|141:164,2,75,4|4|4,0:0|0:0|0:0,0:0:0
305,153,60818,5,8,0:0:0
305,153,61269,2,0,B|348:189|408:192,1,100,8|4,0:0|0:0,0:0:0
435,272,62397,2,4,B|393:311|344:312,1,100
256,192,63074,12,4,64878,0:0:0
92,167,65781,5,0,0:0:0
182,88,66683,2,0,B|231:112|288:103,1,100,0|8,0:0|0:0,0:0:0
385,48,68036,1,8,0:0:0
385,48,68487,2,0,B|417:89|408:151,1,100,0|8,0:0|0:0,0:0:0
333,235,69841,5,8,0:0:0
273,241,70292,2,0,B|170:252,2,100,0|8|0,0:0|0:0|0:0,0:0:0
186,324,72096,6,0,B|104:316|60:241|69:170,1,200
127,82,73901,2,0,B|209:90|253:165|244:236,1,200
327,306,75705,5,0,0:0:0
431,246,76608,1,0,0:0:0
378,137,77510,6,0,B|433:124|456:113,2,75,4|4|4,0:0|0:0|0:0,0:0:0
296,99,78863,1,8,0:0:0
296,99,79314,2,0,B|253:158|179:172|112:159,1,200,4|0,0:0|0:0,0:0:0
35,248,81119,6,0,B|48:300|98:323,1,100,0|8,0:0|0:0,0:0:0
154,339,82021,2,0,B|250:353|332:312|355:286,1,200
451,241,83826,2,0,B|381:199|376:118,2,150,0|4|8,0:0|0:0|0:0,0:0:0
356,315,86081,5,8,0:0:0
356,315,86533,2,0,B|288:276|206:280,1,150,4|0,0:0|0:0,0:0:0
155,299,87660,2,0,B|128:187,1,100,0|4,0:0|0:0,0:0:0
141,142,88563,2,0,B|206:157|253:140,1,100,4|0,0:0|0:0,0:0:0
278,98,89465,2,0,B|320:126|380:124,1,100,0|8,0:0|0:0,0:0:0
256,192,90142,12,0,91946,0:0:0
184,269,92848,6,0,B|87:289,2,100,0|8|4,0:0|0:0|0:0,0:0:0
242,254,94202,1,8,0:0:0
280,172,94878,2,0,B|344:171|388:136,1,100,0|4,0:0|0:0,0:0:0
404,93,95781,2,0,B|462:107,1,50,4|4,0:0|0:0,0:0:0
490,151,96457,5,8,0:0:0
504,209,96908,2,0,B|492:276|460:299,1,100,8|4,0:0|0:0,0:0:0
375,321,98036,1,4,0:0:0
256,192,98262,12,0,101871,0:0:0
