osu file format v5

[General]
AudioFilename: Shin Ai.mp3
AudioLeadIn: 0
PreviewTime: -1
Countdown: 0
SampleSet: Normal
StackLeniency: 0.9
Mode: 0
LetterboxInBreaks: 1

[Editor]
Bookmarks: 9924,25150,72067,73420,103420,104323,108157,111315,111541,113909
DistanceSpacing: 0.800000011920929
BeatDivisor: 4
GridSize: 16

[Metadata]
Title:Shin Ai
Artist:Mizuki Nana
Creator:Mystearica
Version:Special
Source:
Tags:Anime J-Pop White Album

[Difficulty]
HPDrainRate:7
CircleSize:5
OverallDifficulty:7
SliderMultiplier:1.2
SliderTickRate:0.5

[Events]
//Background and Video events
0,0,"white-bg.jpg"
//Break Periods
2,111514,113122
//Storyboard Layer 0 (Background)
//Storyboard Layer 1 (Fail)
//Storyboard Layer 2 (Pass)
//Storyboard Layer 3 (Foreground)
//Storyboard Sound Samples
//Background Colour Transformations
3,100,208,208,208

[TimingPoints]
10230,451.127819548872,4,2,0,100,1,0
10803,-100,4,2,0,80,0,0
27034,-100,4,2,0,60,0,0
27260,-100,4,2,0,80,0,0
27372,-100,4,2,0,60,0,0
27485,-100,4,2,0,80,0,0
27711,-100,4,2,0,50,0,0
27936,-100,4,2,0,60,0,0
28275,-100,4,2,0,70,0,0
28500,-100,4,2,0,80,0,0
28613,-100,4,2,0,60,0,0
28839,-100,4,2,0,80,0,0
29741,-100,4,2,0,60,0,0
30192,-100,4,2,0,80,0,0
30869,-100,4,2,0,60,0,0
31094,-100,4,2,0,80,0,0
31207,-100,4,2,0,60,0,0
31320,-100,4,2,0,80,0,0
31771,-100,4,2,0,50,0,0
32335,-100,4,2,0,60,0,0
33350,-100,4,2,0,60,0,0
33575,-100,4,2,0,80,0,0
33688,-100,4,2,0,60,0,0
34026,-100,4,2,0,50,0,0
34252,-100,4,2,0,60,0,0
34365,-100,4,2,0,70,0,0
34590,-100,4,2,0,60,0,0
34703,-100,4,2,0,50,0,0
34929,-100,4,2,0,80,0,0
35831,-100,4,2,0,60,0,0
36057,-100,4,2,0,80,0,0
36169,-100,4,2,0,60,0,0
36282,-100,4,2,0,80,0,0
36395,-100,4,2,0,60,0,0
36508,-100,4,2,0,80,0,0
37410,-100,4,2,0,60,0,0
37636,-100,4,2,0,80,0,0
37861,-100,4,2,0,60,0,0
38087,-100,4,2,0,80,0,0
38651,-100,4,2,0,50,0,0
38763,-100,4,2,0,50,0,0
39102,-100,4,2,0,60,0,0
39327,-100,4,2,0,70,0,0
39553,-100,4,2,0,50,0,0
39891,-100,4,1,0,50,0,0
46771,-100,4,1,0,40,0,0
46884,-100,4,1,0,50,0,0
50493,-100,4,1,0,20,0,0
50831,-100,4,1,0,30,0,0
51057,-100,4,1,0,40,0,0
51282,-100,4,1,0,50,0,0
52974,-100,4,1,0,30,0,0
53425,-100,4,1,0,30,0,0
53876,-100,4,1,0,40,0,0
54214,-100,4,1,0,40,0,0
54553,-100,4,1,0,20,0,0
55906,-100,4,1,0,50,0,1
57936,-100,4,1,0,34,0,1
58613,-100,4,1,0,50,0,1
71132,-200,4,1,0,50,0,1
73613,-100,4,1,0,50,0,1
100229,-100,4,1,0,0,0,1
102147,-100,4,1,0,50,0,0
103387,-200,4,1,0,50,0,0
104290,-100,4,1,0,50,0,0
108124,-100,4,2,0,30,0,0
111282,-100,4,2,0,0,0,0
113876,-100,4,2,0,80,0,0
115229,-100,4,2,0,60,0,0
115455,-100,4,2,0,80,0,0
115568,-100,4,2,0,60,0,0
115681,-100,4,2,0,80,0,0
116245,-100,4,2,0,50,0,0
116357,-100,4,2,0,0,0,0
117485,-100,4,2,0,80,0,0
119515,-100,4,2,0,60,0,0
119741,-100,4,2,0,80,0,0
119854,-100,4,2,0,60,0,0
120079,-100,4,2,0,50,0,0
120192,-100,4,2,0,60,0,0
120305,-100,4,2,0,70,0,0
120417,-100,4,2,0,60,0,0
120530,-100,4,2,0,70,0,0
120643,-100,4,2,0,60,0,0
120756,-100,4,2,0,50,0,0
121094,-100,4,2,0,80,0,0
121996,-100,4,2,0,60,0,0
122673,-100,4,2,0,80,0,0
123575,-100,4,2,0,60,0,0
123801,-100,4,2,0,80,0,0
123914,-100,4,2,0,60,0,0
124026,-100,4,2,0,80,0,0
124816,-100,4,2,0,60,0,0
124929,-100,4,2,0,80,0,0
125042,-100,4,2,0,60,0,0
125154,-100,4,2,0,80,0,0
125267,-100,4,2,0,60,0,0
125380,-100,4,2,0,80,0,0
126846,-100,4,2,0,50,0,0
129778,-100,4,1,0,50,0,0
175455,-100,4,1,0,50,0,0
176470,-100,4,1,0,40,0,0
177034,-100,4,1,0,30,0,0
177598,-100,4,1,0,20,0,0

[Colours]
Combo1 : 122,95,135
Combo2 : 160,160,160
Combo3 : 128,147,234
Combo4 : 238,113,30
Combo5 : 196,36,108

[HitObjects]
368,320,25568,1,0
416,240,25793,1,0
384,144,26019,1,0
224,240,26470,2,0,B|160:256|96:240,1,120
48,160,27147,1,2
48,160,27260,1,0
48,160,27372,1,2
128,96,27598,1,0
224,64,27823,1,2
368,192,28049,5,0
336,192,28162,1,2
304,192,28275,1,0
224,192,28500,1,0
224,192,28726,1,4
48,96,29177,5,0
80,176,29402,1,0
128,256,29628,1,0
208,320,29854,2,2,B|288:320,1,60
256,224,30305,2,0,B|224:224,2,30
288,128,30756,1,0
368,80,30981,1,2
368,112,31094,1,0
368,144,31207,1,2
432,224,31433,1,0
464,320,31658,2,0,B|400:320,1,60,0|4
48,320,32560,6,0,B|112:320,1,60,0|0
112,224,33011,2,0,B|32:224,1,60,0|0
80,128,33463,1,2
80,128,33575,1,0
80,128,33688,1,2
176,128,33914,1,0
240,208,34139,1,2
240,208,34252,1,2
304,128,34478,1,2
304,128,34590,1,2
240,208,34816,1,4
384,336,35042,6,0,B|432:288|448:208,1,120
442,232,35718,1,0
352,240,35944,1,2
336,224,36057,1,0
320,208,36169,1,2
304,192,36282,1,0
288,176,36395,1,6
160,80,36620,6,0,B|208:80,2,30,0|0|0
208,160,37072,2,0,B|144:160,1,60
64,208,37523,1,2
96,288,37748,1,0
176,336,37974,1,2
272,336,38199,2,0,B|352:320|400:272,1,120,0|4
432,208,38876,5,0
422,179,38989,1,0
428,149,39102,1,2
415,122,39214,1,0
421,92,39327,1,2
413,62,39440,1,0
421,33,39553,1,4
80,80,40004,6,0,B|128:96|80:160|144:192,1,120,4|0
192,112,40681,1,0
192,208,40906,2,0,B|256:224|224:144|304:128,1,120
368,144,41583,1,0
400,240,41808,1,0
352,320,42034,6,0,B|272:320,3,60
208,256,42936,5,0
144,192,43162,1,0
320,96,43387,6,0,B|272:128|224:64|176:96,1,120
208,176,44064,2,0,B|240:160|288:208|352:160,1,120
272,256,44741,1,0
176,288,44966,1,0
80,256,45192,1,0
64,160,45417,2,0,B|112:144|96:80|160:64,1,120
240,48,46094,1,0
240,126,46320,6,0,B|213:156|249:193,1,60
320,160,46771,2,0,B|352:192|311:225,1,60,0|4
80,240,47673,6,0,B|160:240,2,60
99,151,48350,1,0
136,69,48575,2,0,B|170:57|213:74,1,60
202,157,49026,2,0,B|257:170|278:137,1,60
312,228,49478,1,0
372,161,49703,1,0
406,77,49929,2,0,B|457:90|416:162|476:176,1,120,0|4
432,272,50605,5,0
402,265,50718,1,0
373,274,50831,1,0
344,264,50944,1,0
316,275,51057,1,0
287,266,51169,1,0
257,272,51282,1,4
321,139,51508,6,0,B|254:91|200:98,1,120,0|4
112,96,52184,1,0
48,160,52410,2,0,B|32:240|64:288,1,120,0|4
128,208,53087,1,0
128,208,53199,1,0
128,208,53312,1,0
224,96,53538,5,0
214,124,53651,1,0
206,152,53763,1,0
218,178,53876,1,0
236,201,53989,1,0
247,228,54102,1,0
235,255,54214,1,0
223,282,54327,1,0
235,309,54440,1,4
256,192,54666,12,4,55793
64,272,56019,5,0
64,176,56245,2,0,B|119:196|144:144|207:171,1,120
156,250,56921,1,0
186,334,57147,2,0,B|255:330|242:249|300:262,1,120
256,144,57823,1,0
352,144,58049,2,0,B|400:144,4,30
336,240,58726,1,0
256,288,58951,1,4
208,64,59628,5,0
144,128,59854,1,0
96,208,60079,2,0,B|96:288|160:320,1,120
192,240,60756,2,0,B|192:176,1,60
192,96,61207,1,0
288,96,61433,2,0,B|320:128|256:176|299:239,1,120
290,301,62109,6,0,B|359:302,1,60
349,241,62560,2,0,B|277:240,1,60
240,320,63237,5,0
160,320,63463,1,0
160,320,63688,2,0,B|96:272|128:192,1,120
128,128,64365,1,0
160,48,64590,2,0,B|240:48|288:96,1,120
224,144,65267,1,0
160,208,65493,2,0,B|208:256|288:256,1,120
240,336,66169,1,0
319,288,66395,6,0,B|367:272|383:240,1,60,0|0
368,176,66846,5,0
368,144,66959,1,0
368,112,67072,1,4
214,70,67297,6,0,B|167:67|137:96,1,60
86,117,67748,1,0
46,184,67974,2,0,B|29:217|52:246,1,60
115,201,68425,2,0,B|165:189|133:283|227:281,1,120
231,207,69102,1,0
231,207,69327,1,0
231,207,69553,1,0
233,284,69778,2,0,B|278:312|320:264|379:300,1,120
349,210,70455,6,0,B|417:211,1,60
469,211,70906,1,0
469,211,71132,6,0,B|368:208|328:320|168:296,1,300
144,96,74064,6,0,B|192:144|256:144,1,120
176,208,74741,1,0
176,208,74966,1,0
240,272,75192,2,0,B|192:320|112:304,1,120
80,224,75869,1,0
80,128,76094,2,0,B|144:96|224:96,1,120
256,160,76771,1,0
320,224,76996,1,0
336,128,77222,1,0
336,128,77335,1,0
336,128,77448,1,4
192,64,77673,6,0,B|112:64,2,60,0|0|0
128,240,78575,2,0,B|208:240,2,60,0|0|0
128,144,79252,1,0
128,144,79365,1,0
128,144,79478,2,0,B|224:192|384:192,1,240
304,112,80605,1,0
400,112,80831,1,0
400,144,80944,1,0
400,176,81057,1,0
400,272,81282,6,0,B|352:272,2,30
336,192,81733,1,0
240,192,81959,1,0
224,208,82072,1,0
208,224,82184,1,0
128,288,82410,2,0,B|64:272|48:176,1,120
128,144,83087,1,0
208,96,83312,1,4
240,192,83538,6,0,B|320:160|352:96,1,120
368,208,84214,1,0
448,256,84440,2,0,B|400:304|320:320,1,120
272,256,85117,1,0
272,256,85230,1,0
272,256,85342,1,0
192,208,85568,2,0,B|128:160|112:96,1,120
208,96,86245,1,0
208,96,86470,1,4
256,192,86696,12,4,87823
160,96,88049,6,0,B|112:160|128:208,1,120
128,304,88726,2,0,B|208:320|272:304,1,120
304,224,89402,1,0
304,224,89515,1,0
304,224,89628,1,0
224,160,89854,1,0
160,80,90079,1,0
256,48,90305,2,0,B|320:48|384:96,1,120
288,144,90981,1,0
288,144,91207,1,4
144,304,91433,6,0,B|96:240|112:192,1,120
144,96,92109,1,0
208,160,92335,1,0
208,160,92448,1,0
208,160,92560,1,0
240,64,92786,1,0
336,48,93011,2,0,B|400:96|416:160,1,120
320,128,93688,5,0
320,160,93801,1,0
320,192,93914,1,0
320,224,94026,1,0
320,256,94139,1,0
240,208,94365,2,0,B|144:208|144:80|48:64,1,240,0|4
160,64,95493,5,0
256,64,95718,1,0
352,64,95944,1,0
304,144,96169,2,0,B|224:144|240:288|160:256|128:304,1,240,0|4
112,208,97297,1,0
39,144,97523,2,0,B|66:107|119:112,1,60
184,113,97974,2,0,B|220:117|245:148,1,60
336,112,98425,5,0
336,112,98651,2,0,B|352:176|384:224,1,120
432,304,99327,1,0
336,304,99553,2,0,B|272:272|208:288,1,120,0|4
256,192,100230,12,4,102034
112,112,102711,6,0,B|128:192|176:224,1,120
240,128,103387,6,0,B|288:144|384:128,1,120
336,208,104515,1,0
256,208,104741,2,0,B|176:224|144:272,1,120
144,176,105417,1,0
144,176,105530,1,0
144,176,105643,1,0
144,176,105869,1,0
139,80,106094,6,0,B|186:67|213:81,1,60
287,110,106545,1,0
202,155,106771,2,0,B|202:219|138:283,1,120
247,232,107448,2,0,B|231:296|174:341,1,120,0|4
256,192,108124,12,0,111282
112,112,113989,5,0
112,208,114214,1,0
192,160,114440,2,0,B|256:192|320:192,1,120
272,96,115117,1,0
368,96,115342,1,2
368,96,115455,1,0
368,96,115568,1,2
368,192,115793,2,0,B|304:224|240:240,1,120,0|4
256,192,116470,12,0,117372
384,320,117598,5,0
288,288,117823,1,0
368,240,118049,2,0,B|320:176|256:160,1,120
176,160,118726,1,0
176,64,118951,2,0,B|240:48|320:64,1,120
368,112,119628,1,2
368,112,119741,1,0
368,112,119854,1,2
256,64,120079,5,0
248,93,120192,1,2
254,122,120305,1,0
248,151,120417,1,2
257,179,120530,1,0
247,207,120643,1,2
260,233,120756,1,4
96,80,121207,6,0,B|80:160|112:208,1,120
144,288,121884,1,0
240,320,122109,1,2
240,320,122222,1,2
336,304,122448,1,2
336,304,122560,1,2
384,224,122786,2,0,B|400:144|352:96,1,120
256,192,123463,5,0
176,128,123688,1,2
176,128,123801,1,0
176,128,123914,1,2
80,160,124139,2,0,B|144:208|144:272,1,120
256,320,124816,5,2
256,288,124929,1,0
256,256,125042,1,2
256,224,125154,1,0
256,192,125267,1,2
336,96,125493,6,0,B|400:96,2,60,0|0|0
368,192,126169,1,0
384,288,126395,2,0,B|320:320|240:304,1,120,0|4
256,192,127072,12,4,129778
80,96,130004,5,0
144,176,130230,1,0
208,96,130455,1,0
272,176,130681,1,0
336,96,130906,1,0
384,176,131132,1,0
432,256,131357,6,0,B|368:320|320:336,1,120
320,240,132034,1,0
224,240,132260,1,0
192,240,132372,1,0
160,240,132485,1,0
128,240,132598,1,0
96,240,132711,1,0
96,144,132936,2,0,B|176:112|240:128,1,120,0|4
208,224,133613,6,0,B|272:256|336:224,1,120
272,144,134290,1,0
272,48,134515,2,0,B|336:48|400:96,1,120
416,176,135192,1,0
416,176,135305,1,0
368,256,135530,1,0
368,256,135643,1,0
288,304,135869,1,0
192,304,136094,2,0,B|112:272|80:208,1,120,0|4
48,64,137222,5,0
80,160,137448,1,0
128,240,137673,1,0
192,320,137899,2,0,B|320:336|368:288,1,180
416,208,138801,1,0
416,208,138914,1,0
416,208,139026,1,0
352,128,139252,1,0
272,80,139478,1,0
240,176,139703,6,0,B|160:176|112:112,1,120
80,208,140380,1,0
96,224,140493,1,0
112,240,140605,1,0
128,256,140718,1,0
144,272,140831,1,0
224,320,141057,1,4
256,112,141282,6,0,B|320:112|368:160,1,120
336,224,141959,2,0,B|272:240|208:192,1,120
144,128,142636,1,0
96,208,142861,1,0
144,288,143087,1,0
144,288,143199,1,0
144,288,143312,1,0
192,208,143538,6,0,B|272:208|320:144,1,120
384,112,144214,1,0
448,176,144440,1,0
416,272,144666,1,0
336,320,144891,2,0,B|256:320|208:288,1,120,0|4
256,192,145568,12,4,147823
160,128,148049,5,0
160,128,148162,1,0
160,128,148275,2,0,B|176:192|256:224,1,120
288,144,148951,1,0
384,112,149177,2,0,B|432:176|400:240,1,120
320,272,149854,1,0
224,288,150079,1,0
144,224,150305,2,0,B|96:160|96:112,1,120
176,64,150981,5,0
192,80,151094,1,0
208,96,151207,1,0
224,112,151320,1,0
240,128,151433,1,4
144,192,151658,5,0
256,304,151884,1,0
352,192,152109,1,4
272,80,152335,5,0
176,112,152560,1,0
176,112,152673,1,0
176,112,152786,1,0
256,176,153011,1,4
64,224,153463,6,0,B|112:272|176:288,1,120
256,288,154139,2,0,B|336:288|384:256,1,120
304,192,154816,1,0
304,160,154929,1,0
304,128,155042,1,0
304,96,155154,1,0
304,64,155267,1,0
304,64,155493,1,4
160,240,155718,6,0,B|128:176|144:112,1,120
208,64,156395,1,0
208,160,156620,1,0
272,224,156846,2,0,B|256:288|192:320,1,120
112,272,157523,1,0
64,192,157748,2,0,B|48:112|80:64,1,120
176,80,158425,1,0
256,128,158651,1,0
320,208,158876,2,0,B|368:256|448:256,1,120,0|4
400,160,159553,5,0
384,144,159666,1,0
368,128,159778,1,0
352,112,159891,1,0
336,96,160004,1,0
240,64,160229,1,0
240,64,160342,1,0
240,64,160455,1,0
240,64,160681,1,0
240,64,160906,1,4
256,192,161132,12,4,161808
224,304,162034,6,0,B|304:304|352:256,1,120
368,176,162711,1,0
272,176,162936,1,0
176,176,163162,2,0,B|112:224|112:304,1,120
64,192,163839,1,0
64,192,163951,1,0
64,192,164064,1,0
64,96,164290,5,0
64,96,164402,1,0
64,96,164515,1,0
144,144,164741,5,0
144,144,164854,1,0
144,144,164966,1,0
240,144,165192,1,0
240,240,165417,6,0,B|320:208|384:208,1,120
432,144,166094,2,0,B|368:80|304:80,1,120
336,176,166771,1,0
336,176,166996,1,0
256,224,167222,2,0,B|208:272|128:272,1,120
176,176,167899,1,0
128,96,168124,1,0
128,96,168350,1,0
208,48,168575,2,0,B|272:80|320:128,1,120
128,192,169478,5,0
128,288,169703,1,0
224,256,169929,2,0,B|192:256,2,30
208,160,170380,2,0,B|240:160,2,30
208,64,170831,1,0
368,144,171057,5,0
368,144,171169,1,0
368,144,171282,1,0
368,240,171508,2,0,B|288:240|256:176,1,120
192,256,172184,1,0
192,256,172410,1,0
144,176,172636,2,0,B|192:128|272:128,1,120
400,176,173312,5,0
400,176,173538,1,0
384,272,173763,2,0,B|304:304|240:304,1,120
208,224,174440,1,0
176,128,174666,1,0
256,64,174891,1,0
336,128,175117,1,0
304,224,175342,1,4
256,192,175568,12,4,178049
