osu file format v5

[General]
AudioFilename: Mahou_Shoujo_Lyrical_Nanoha_StrikerS_-_Secret_Ambition.mp3
AudioLeadIn: 0
PreviewTime: -1
Countdown: 1
SampleSet: Normal
StackLeniency: 0.7
Mode: 0
LetterboxInBreaks: 1
EditorBookmarks: 50213,76071,104616,143683,197638,234579,252191

[Metadata]
Title:Secret Ambition
Artist:Mizuki Nana
Creator:eirrol
Version:Normal
Source:
Tags:

[Difficulty]
HPDrainRate:2
CircleSize:5
OverallDifficulty:3
SliderMultiplier:1.6
SliderTickRate:2

[Events]
//Background and Video events
0,0,"e17f387f55d8d60a29388ac0.jpg"
//Break Periods
2,57017,64719
2,88808,101493
2,119028,134179
2,170745,187853
//Storyboard Layer 0 (Background)
//Storyboard Layer 1 (Failing)
//Storyboard Layer 2 (Passing)
//Storyboard Layer 3 (Foreground)
//Storyboard Sound Samples
//Background Colour Transformations
3,100,163,162,255

[TimingPoints]
11594,447.761194029851,4,1,0,100,1

[Colours]
Combo1 : 0,128,255
Combo2 : 128,255,0
Combo3 : 255,128,255
Combo4 : 255,255,0

[HitObjects]
376,80,26594,1,0
176,80,27153,1,0
176,80,27489,1,4
144,240,28381,5,0
216,240,28608,1,0
320,240,28944,1,0
416,240,29276,1,0
416,176,29500,2,4,B|345:126|250:96|119:176|16:360,1,480
392,256,31519,5,0
296,328,31967,1,0
208,240,32414,1,0
272,240,32634,1,4
240,288,32858,1,4
368,48,33646,5,0
400,136,34094,1,0
400,136,34317,2,0,B|380:208|333:247|224:256,1,200
128,176,35545,5,0
184,96,35885,1,0
248,96,36108,1,0
304,176,36444,1,0
360,200,36668,2,4,B|296:270|188:282|56:248,1,320
136,272,38679,5,0
200,272,38903,1,0
264,272,39127,1,0
432,176,39798,1,0
344,112,40246,1,4
176,48,40922,5,0
184,104,41142,1,0
240,128,41366,1,0
376,152,41817,1,0
336,200,42041,2,4,B|224:253|100:208|24:104,1,320
232,136,43604,5,0
232,72,43828,1,4
152,40,44168,1,4
136,136,44504,2,0,B|106:232|144:312,1,160
328,296,45619,5,0
200,304,46067,1,0
240,216,46403,1,4
88,56,47191,1,0
144,80,47410,5,0
272,136,47858,1,0
272,72,48082,1,0
328,96,48310,1,0
320,256,49201,5,4
256,368,49649,1,4
200,256,50097,1,4
256,152,50769,5,0
216,104,50992,2,4,B|174:153|224:224,2,120
408,128,52336,1,0
288,104,52784,6,4,B|324:153|280:224,2,120
160,128,53907,1,0
200,176,54131,1,0
256,192,54579,12,4,56817
424,80,65325,5,0
312,136,65769,5,0
312,200,65992,2,4,B|203:272|72:200,2,240
264,160,67564,1,0
264,160,67788,1,0
328,272,68235,6,0,B|257:337|168:272,1,160
224,232,68907,1,0
288,152,69243,1,0
232,72,69579,1,0
200,128,69802,1,0
256,200,70138,1,0
256,360,70698,1,4
256,360,71034,1,4
256,360,71370,1,4
240,80,71813,5,0
304,80,72037,1,0
336,128,72261,1,0
272,128,72489,1,0
392,272,73161,1,0
328,272,73385,1,0
192,32,74052,5,0
192,96,74280,1,0
360,184,74952,1,0
360,248,75176,1,0
184,320,75843,5,0
248,304,76071,1,0
224,200,76515,2,0,B|160:264|64:200,1,160
56,112,77302,1,0
160,96,77638,2,0,B|236:42|336:104,2,160
112,192,78982,5,0
120,248,79205,1,0
248,248,79653,1,0
336,336,80101,1,0
384,296,80325,1,0
440,184,80773,1,0
352,96,81220,1,0
288,96,81444,2,4,B|288:272,4,160
256,192,84131,12,4,88608
352,336,102933,5,4
256,336,103273,1,4
160,336,103608,1,4
200,216,104052,5,4
248,136,104388,1,4
304,208,104724,1,4
416,96,105395,6,0,B|368:32|296:40,2,120
136,248,107191,1,0
184,288,107410,2,0,B|121:331|72:264,2,120
248,280,108310,5,0
312,208,108646,1,0
296,112,108982,1,0
240,88,109205,2,4,B|163:197|24:88,1,240
128,88,110545,5,0
192,88,110769,1,0
256,88,110992,2,0,B|512:88,1,240
256,320,112560,5,0
256,256,112788,1,0
256,192,113011,2,4,B|80:192,1,160
336,120,114355,1,0
272,120,114579,1,0
176,120,114914,1,0
312,200,115474,2,4,B|512:200,1,160
432,320,116370,1,0
96,264,117037,5,0
96,328,117261,1,0
152,288,117489,1,0
144,224,117709,5,0
192,176,117933,1,0
288,256,118385,1,0
336,208,118604,1,4
384,160,118828,1,4
256,192,135619,5,4
256,192,136067,1,4
256,192,136515,1,4
240,64,136963,5,4
120,96,137410,1,4
168,136,137634,2,4,B|344:136,1,160
432,208,138530,1,4
304,200,138978,1,0
240,200,139201,2,4,B|144:200,1,80
296,328,140097,5,0
352,296,140321,1,0
296,272,140545,2,0,B|168:272,2,120
288,144,141664,1,4
224,144,141888,1,4
152,232,142336,1,4
96,336,142784,1,4
216,336,143231,1,4
328,272,143679,5,0
296,216,143907,1,0
232,216,144127,2,0,B|72:200|40:104|360:40,1,400
360,168,145694,1,0
376,296,146142,1,0
312,296,146366,1,0
248,296,146590,1,0
120,304,147037,5,0
120,240,147261,1,0
120,176,147485,1,0
168,128,147713,2,0,B|272:40,2,120
184,192,148608,1,0
240,264,148944,1,0
336,272,149280,2,0,B|589:221|429:21|264:88,1,400
288,144,150623,1,0
304,208,150847,1,0
368,224,151071,2,0,B|460:206|504:296,1,160
376,312,151967,5,0
312,312,152191,1,0
200,256,152858,5,0
264,256,153082,2,0,B|264:-8,2,240
392,176,154873,5,0
384,304,155321,1,0
240,296,155769,1,4
240,200,156104,1,4
144,192,156444,1,4
360,64,157336,5,0
232,48,157784,1,0
320,120,158231,1,0
376,128,158455,2,0,B|376:304,1,160
368,344,159127,1,0
248,336,159575,1,0
144,272,160022,2,0,B|42:180|144:24,2,240
288,280,161813,1,0
288,280,162041,1,0
192,176,162489,6,0,B|144:192|136:248,2,80
256,152,163157,1,0
312,184,163381,1,0
368,152,163604,1,0
320,104,163828,2,4,B|448:200|312:304,5,240
256,192,167746,12,4,170545
424,312,188903,5,0
304,296,189355,2,0,B|440:263|496:120,1,240
312,104,190698,1,0
128,264,191594,1,0
144,136,192037,1,0
400,128,192937,2,0,B|448:208|392:320,2,160
272,128,194276,5,0
96,304,195172,1,0
96,304,195507,1,0
96,304,195843,1,0
152,264,196067,2,0,B|336:264,4,160
264,176,198306,2,4,B|440:176,5,160
200,288,201440,5,4
200,192,201776,1,4
200,96,202112,1,4
320,144,202560,5,0
408,240,203007,1,0
256,192,203459,12,4,208608
320,224,209500,5,0
384,112,209948,5,0
320,112,210172,1,0
256,112,210395,2,0,B|256:304,1,160
72,304,211515,1,0
200,304,211963,1,0
128,200,212410,1,0
128,128,212634,1,4
128,128,212858,1,4
256,128,213310,5,0
256,128,213534,1,0
256,128,213758,1,0
256,128,213981,1,0
384,104,214429,2,0,B|392:184|328:240,2,120
208,176,215769,5,4
256,96,216104,1,4
312,176,216440,1,4
256,288,216888,1,4
432,248,217560,6,0,B|351:194|288:264,2,160
408,304,218679,1,0
304,232,219131,1,4
344,352,219579,1,4
352,256,219914,1,4
456,232,220694,5,0
320,144,221142,1,0
192,64,221590,1,0
112,72,221813,2,0,B|88:96|64:160|48:264|80:328,1,240
144,312,222713,1,0
224,312,222933,1,0
248,72,223608,1,0
40,184,224280,5,0
200,184,224724,2,0,B|317:183|394:186|408:296,1,240
256,328,225843,1,0
256,168,226291,1,0
376,64,226739,1,0
296,64,226963,1,0
216,64,227187,1,0
88,48,227634,5,0
224,144,228082,1,0
288,192,228306,2,0,B|456:304,1,160
368,352,229201,1,0
248,352,229537,1,0
320,256,229873,2,0,B|176:136,2,160
408,120,231216,5,0
408,120,231440,1,0
408,120,231664,1,0
328,120,231888,2,0,B|216:68|168:264,2,240
368,272,233679,2,0,B|294:336|200:256,2,160
456,32,235474,5,0
368,120,235922,1,0
320,160,236142,1,0
272,200,236366,2,4,B|168:280,2,120
432,312,237933,5,0
312,208,238381,1,0
176,120,238828,1,0
240,168,239052,2,4,B|184:208|80:152,2,160
352,224,240395,1,0
472,176,240843,2,4,B|314:51|124:42|12:41|-22:108|-21:244|272:352,1,800
328,256,243530,5,0
328,184,243754,1,0
328,112,243978,1,0
328,40,244201,1,0
256,192,244425,12,4,248907
