osu file format v5

[General]
AudioFilename: Mahou_Shoujo_Lyrical_Nanoha_StrikerS_-_Secret_Ambition.mp3
AudioLeadIn: 0
PreviewTime: -1
Countdown: 1
SampleSet: Normal
StackLeniency: 0.7
Mode: 0
LetterboxInBreaks: 1
EditorBookmarks: 24802,102377,125549,251482

[Metadata]
Title:Secret Ambition
Artist:Mizuki Nana
Creator:eirrol
Version:Insane
Source:
Tags:

[Difficulty]
HPDrainRate:7
CircleSize:6
OverallDifficulty:6
SliderMultiplier:1.3
SliderTickRate:1

[Events]
//Background and Video events
0,0,"e17f387f55d8d60a29388ac0.jpg"
//Break Periods
2,10898,25544
2,58361,63823
2,88808,101883
2,163804,187853
//Storyboard Layer 0 (Background)
//Storyboard Layer 1 (Failing)
//Storyboard Layer 2 (Passing)
//Storyboard Layer 3 (Foreground)
//Storyboard Sound Samples
//Background Colour Transformations
3,100,163,162,255

[TimingPoints]
11594,447.761194029851,4,1,0,100,1

[Colours]
Combo1 : 0,128,255
Combo2 : 128,255,0
Combo3 : 255,128,255
Combo4 : 255,255,0

[HitObjects]
464,336,3310,1,0
464,336,3422,1,0
464,336,3534,2,0,B|408:304|398:360|312:344,1,130
368,304,4205,1,0
336,264,4429,1,0
264,184,4877,5,0
224,224,5101,2,0,B|177:198|202:134|272:136,1,130
312,216,5996,1,0
232,288,6444,1,0
176,280,6668,1,0
136,240,6892,1,0
64,120,7340,2,4,B|101:164|140:101|200:136,1,130
256,192,8011,12,4,8683
256,192,8907,12,4,9579
256,192,9802,12,4,10698
376,304,26594,5,0
376,304,26705,1,0
376,304,26813,1,0
376,304,26929,1,0
320,304,27153,1,0
240,304,27489,1,4
240,304,27601,1,4
240,304,27713,1,4
112,208,28381,5,0
112,208,28496,1,0
112,208,28604,1,0
112,208,28720,1,0
120,152,28944,1,0
192,144,29276,1,0
240,120,29500,2,0,B|282:168|344:168,2,97.5
272,80,30395,1,4
352,144,30847,2,0,B|424:176|448:264|424:256,1,130
416,288,31519,5,0
360,288,31739,1,0
336,288,31855,1,0
328,240,32079,1,0
264,192,32414,1,0
232,232,32634,1,4
192,200,32858,1,4
168,200,32974,1,0
144,200,33086,1,0
200,320,33758,5,0
200,320,33870,1,0
200,320,33982,1,0
200,320,34094,2,0,B|304:352|360:296,1,162.5
368,280,34765,2,0,B|302:203|368:120,1,162.5
320,96,35545,5,0
320,96,35657,1,0
320,96,35773,1,0
320,96,35885,1,0
264,96,36108,1,0
184,96,36444,1,0
184,120,36556,1,0
184,144,36664,1,0
240,192,37000,1,0
280,256,37336,1,4
288,280,37452,1,0
280,304,37560,2,4,B|204:328|144:272,2,130
232,272,38683,5,0
200,232,38903,1,0
232,192,39127,1,0
232,192,39243,1,0
296,152,39575,1,0
296,152,39798,1,0
336,192,40026,1,0
360,240,40246,1,4
336,288,40474,1,0
296,328,40698,1,4
248,336,40922,5,0
200,320,41142,1,0
200,264,41366,1,0
248,240,41590,2,0,B|290:254|328:200,1,65
304,168,42041,2,0,B|261:140|224:185|152:160,1,130
136,168,42713,1,0
96,192,42937,1,0
184,240,43385,5,0
232,240,43604,5,0
200,280,43828,1,4
200,200,44168,1,4
192,120,44504,2,0,B|292:58|392:128,1,195
336,152,45399,1,0
336,152,45511,1,0
336,152,45619,5,0
248,208,46067,1,0
248,152,46291,1,4
272,160,46403,1,4
304,232,46743,1,0
352,248,46967,1,0
400,264,47191,1,0
384,288,47302,5,0
360,304,47410,5,0
256,288,47858,1,0
256,344,48082,1,0
256,344,48194,1,0
256,208,48754,1,0
256,152,48978,1,0
200,128,49201,5,4
224,80,49429,1,0
256,40,49653,1,0
288,80,49877,1,0
304,128,50101,2,0,B|328:179|304:216,1,65
264,200,50545,5,0
264,200,50661,1,0
264,200,50769,1,0
304,224,50996,2,0,B|289:263|248:272,1,65
232,264,51332,1,0
184,304,51556,1,0
184,304,51668,1,0
120,224,52112,1,0
120,224,52336,1,0
208,168,52788,6,0,B|254:198|320:160,2,97.5
256,80,53907,2,0,B|256:8,1,65
256,80,54355,1,0
256,192,54579,12,0,56817
256,192,57041,12,4,58161
424,192,64873,5,0
424,192,64985,1,0
424,192,65097,1,0
424,192,65209,1,0
424,192,65321,1,0
384,192,65549,2,0,B|296:192,1,65
264,168,65996,2,4,B|224:200|182:156|128:192,1,130
40,224,66892,1,0
88,312,67336,1,0
136,328,67564,1,0
184,328,67788,2,0,B|264:328,1,65
304,328,68235,6,0,B|352:301|377:352|456:328,1,130
424,280,68907,2,4,B|440:224|416:152,2,97.5
376,264,69802,2,0,B|336:232|328:293|264:280,2,97.5
368,200,70698,1,4
304,152,71034,1,4
240,200,71370,1,4
176,280,71813,5,0
176,280,72037,1,0
176,280,72261,1,0
232,280,72489,6,0,B|308:280|352:208,1,130
296,192,73161,1,0
272,184,73273,1,0
248,176,73385,2,0,B|175:182|125:144|128:24,1,195
176,56,74280,2,0,B|256:45|312:104,1,130
328,136,74952,1,0
352,136,75064,1,0
376,136,75176,2,0,B|440:167|424:272,1,130
464,296,75847,1,0
408,288,76071,6,0,B|360:312|320:288,3,65
328,248,76967,1,0
240,224,77302,1,0
216,224,77414,1,0
192,224,77526,2,4,B|96:216|56:152|48:40,1,227.5
256,192,78534,12,4,82788
312,304,83903,5,0
256,296,84127,1,0
216,256,84351,1,0
224,232,84467,1,0
248,144,84802,2,0,B|304:152|328:104,1,65
272,96,85250,2,4,B|280:19|184:24,1,130
216,72,85922,1,4
256,192,86370,12,0,88608
320,48,102933,5,0
320,48,103045,1,0
256,48,103273,1,0
256,48,103385,1,0
192,48,103608,1,0
192,48,103720,1,0
256,104,104056,5,0
280,120,104168,1,0
256,168,104392,1,0
232,184,104504,1,0
248,232,104728,1,0
264,248,104840,1,0
392,264,105399,5,0
392,264,105511,1,0
392,264,105623,6,0,B|377:320|312:336,2,97.5
360,224,106519,2,4,B|298:214|312:128,1,97.5
232,152,107187,1,0
216,128,107302,1,0
224,96,107410,2,0,B|161:53|112:120,2,97.5
248,96,108198,1,0
272,96,108310,5,0
336,48,108646,1,0
400,96,108982,1,0
440,128,109205,2,0,B|401:186|364:110|304:168,1,130
352,192,109877,2,0,B|312:224|272:168|224:208,1,130
176,208,110545,5,0
152,208,110661,1,4
120,160,110885,1,0
40,112,111220,1,0
112,88,111556,1,4
184,112,111892,1,4
336,88,112560,5,0
312,88,112676,1,0
288,88,112788,1,0
264,88,112899,1,0
264,136,113123,2,4,B|235:184|281:187|248:256,1,97.5
256,280,113683,1,0
240,328,113907,1,0
208,288,114131,1,0
168,264,114351,5,0
152,240,114467,1,0
136,216,114579,1,0
152,192,114691,1,0
128,136,114914,1,0
72,80,115246,1,0
120,64,115474,2,4,B|206:108|289:14|456:104,1,325
432,200,117037,5,0
432,200,117261,1,0
376,200,117489,1,0
328,200,117709,5,0
304,200,117825,1,0
248,200,118049,1,0
200,136,118385,1,0
240,104,118604,1,4
248,48,118828,1,4
272,48,118944,1,0
288,80,119056,1,4
392,56,119504,6,0,B|433:73|440:136,1,65
432,152,119952,1,0
432,200,120176,1,0
408,240,120399,1,0
368,264,120623,1,0
328,288,120847,2,0,B|320:336|360:360,1,65
384,328,121295,2,4,B|425:335|448:272,2,65
336,304,121967,2,0,B|275:343|184:344,1,130
160,320,122638,1,0
104,256,122974,1,0
112,176,123310,5,0
136,192,123422,1,0
160,176,123534,1,4
272,216,123870,1,0
344,176,124205,5,0
328,152,124317,1,0
344,120,124429,1,0
240,152,124877,1,0
192,152,125101,1,0
192,152,125213,1,0
112,160,125549,1,0
64,136,125773,1,0
96,96,125996,1,0
96,96,126108,1,0
96,96,126220,2,4,B|259:52|424:104,1,325
344,200,127560,5,0
344,264,127784,1,0
288,264,128007,5,4
288,232,128123,1,0
288,208,128231,1,4
232,200,128455,1,4
232,224,128571,1,0
232,248,128679,1,4
184,232,128903,1,4
144,192,129131,1,0
128,136,129351,5,0
128,136,129575,1,0
176,120,129798,6,4,B|216:140|240:104|288:120,2,97.5
192,64,130698,1,0
216,56,130810,1,0
240,40,130922,1,0
264,48,131034,1,0
280,64,131142,1,4
368,128,131590,6,4,B|322:139|296:110|256:128,2,97.5
360,184,132489,1,0
376,208,132601,1,0
400,216,132713,1,0
424,208,132825,1,0
424,176,132933,1,4
424,176,133157,1,4
424,120,133381,2,4,B|285:27|165:33|48:280,1,455
160,256,135399,1,4
200,224,135623,1,4
240,264,135847,5,0
264,264,135959,1,4
288,240,136071,1,0
312,248,136183,1,0
320,168,136407,1,4
288,88,136743,1,4
240,112,136963,5,4
200,152,137191,1,0
152,168,137410,1,4
136,216,137634,2,4,B|204:248|280:216,1,130
368,192,138530,1,4
336,88,138978,1,0
328,144,139201,2,4,B|296:159|232:144,1,65
104,120,140097,5,0
144,152,140321,1,0
176,192,140545,2,0,B|204:215|256:200,2,65
216,160,141216,1,0
192,264,141664,1,4
144,248,141888,1,4
248,232,142336,1,4
256,96,143011,1,4
256,96,143123,2,0,B|294:120|289:174|280:184,1,97.5
232,160,143679,5,0
232,160,143791,1,0
232,160,143907,1,0
232,160,144019,1,0
200,160,144127,2,0,B|121:160|96:224,1,130
152,232,144802,1,0
256,256,145250,1,0
352,216,145694,1,0
352,104,146142,1,0
312,144,146366,1,0
264,120,146590,1,0
160,80,147037,5,0
128,120,147261,1,0
152,168,147485,1,0
184,208,147709,2,0,B|172:248|255:207|272:280,2,97.5
232,176,148608,2,0,B|276:191|248:109|312:112,2,97.5
256,192,149504,12,4,151295
256,40,151967,5,0
256,64,152079,1,0
256,88,152191,1,0
192,168,152638,2,0,B|144:240|184:328|300:144|336:320,1,260
288,328,153758,5,0
240,304,153982,1,0
320,160,154653,1,0
368,184,154873,5,0
360,136,155101,1,0
320,96,155321,1,0
272,72,155549,1,0
216,72,155769,1,4
152,112,156108,1,0
88,152,156444,1,0
64,168,156556,1,4
192,344,157336,5,0
192,232,157784,1,0
232,264,158007,1,0
288,264,158231,1,0
344,256,158455,2,0,B|309:221|385:184|344:112,1,130
352,80,159127,1,0
248,40,159575,1,0
256,192,159802,12,0,161146
224,104,161813,5,0
288,104,162041,1,0
376,256,162709,5,0
328,288,162933,1,0
288,248,163157,1,0
256,200,163381,1,0
200,184,163604,1,0
424,72,188903,5,0
304,88,189355,2,0,B|440:121|496:264,2,260
296,136,191370,2,0,B|268:220|328:264,1,130
360,288,192037,1,0
256,312,192489,2,0,B|144:336|72:284|32:200,1,260
216,80,194276,5,0
368,232,195172,1,0
312,288,195507,1,0
232,288,195843,1,0
192,248,196071,5,0
184,224,196183,1,0
152,224,196295,1,0
128,176,196519,5,0
144,128,196743,1,0
192,96,196967,1,0
216,112,197079,1,0
208,136,197191,1,0
232,184,197414,1,0
280,200,197638,5,0
304,192,197750,1,0
312,168,197862,1,0
328,120,198086,1,0
272,112,198310,1,0
304,72,198534,1,0
256,192,198758,12,0,200996
312,256,201440,5,4
312,256,201556,1,0
256,256,201776,1,4
256,256,201892,1,0
200,256,202112,1,4
200,256,202228,1,0
152,184,202564,1,0
152,184,202676,1,0
104,120,203011,1,0
88,64,203235,2,0,B|224:48|288:64,1,195
272,112,204131,2,0,B|368:144|496:120,1,195
464,176,205026,5,0
392,256,205474,1,0
336,256,205698,1,0
176,288,206366,5,0
232,280,206590,1,0
192,240,206813,1,0
224,192,207037,1,0
272,216,207261,1,0
304,256,207485,2,0,B|376:312|472:248,2,162.5
336,224,208832,1,0
376,216,209056,1,0
416,232,209280,1,0
424,256,209392,1,0
320,344,209948,5,0
296,360,210060,1,0
272,360,210172,1,0
248,352,210284,1,0
224,336,210399,2,0,B|192:280|152:256|48:296,1,195
96,336,211295,2,0,B|216:336|224:200,1,195
144,144,212410,1,0
184,104,212634,1,4
184,104,212858,1,4
256,192,213194,12,0,215321
288,328,215769,5,4
216,272,216104,1,4
288,216,216440,1,4
256,104,216888,1,4
192,56,217228,1,0
72,72,217564,5,0
128,120,217788,1,0
184,168,218011,1,0
248,216,218235,1,0
368,312,218679,1,0
224,352,219131,2,0,B|79:354|72:248,1,195
144,232,220026,1,0
344,112,220694,5,0
416,128,220918,1,0
360,184,221142,1,0
296,232,221366,1,0
232,280,221590,1,0
152,304,221813,2,0,B|128:280|104:216|88:112|120:48,1,260
224,80,222933,1,0
240,240,223381,1,0
240,160,223608,1,0
280,160,223720,1,0
248,360,224276,5,0
248,360,224388,1,0
248,360,224500,1,0
248,360,224612,1,0
248,360,224724,2,0,B|364:383|440:280,1,195
392,128,225843,1,0
232,120,226291,1,0
320,256,226739,1,0
248,232,226963,1,0
176,200,227187,1,0
88,336,227634,5,0
152,280,227858,1,0
224,240,228082,1,0
288,192,228306,2,0,B|456:88,1,195
368,32,229201,1,0
248,32,229537,1,0
120,32,229877,1,0
120,120,230101,5,0
240,152,230437,1,0
312,256,230773,1,0
240,344,231216,5,0
240,344,231440,1,0
240,344,231664,1,0
256,192,231892,12,0,232788
256,192,233455,5,0
256,192,233683,12,0,234579
432,328,235250,5,0
368,280,235470,1,0
304,232,235694,1,0
240,184,235918,1,0
176,136,236142,1,0
104,96,236366,2,4,B|63:95|66:52|16:40,2,97.5
432,72,237933,5,0
312,176,238381,1,0
232,176,238604,1,0
152,176,238828,1,0
112,208,239056,1,0
40,136,239504,1,0
88,128,239728,1,0
152,48,240176,5,0
240,96,240623,2,0,B|312:48|422:146|504:72,2,260
160,96,242634,1,0
168,176,242858,1,0
208,256,243086,1,0
208,256,243198,1,0
320,128,243530,1,0
240,168,243754,1,0
160,192,243978,1,0
80,192,244201,1,0
256,192,244425,12,4,250698
256,56,251146,5,0
256,136,251370,1,0
256,216,251594,1,0
272,256,251705,1,0
240,256,251817,1,0
312,216,252041,1,0
432,328,252489,5,0
376,328,252638,1,0
376,272,252788,1,0
320,288,252937,1,0
264,312,253086,1,0
208,336,253235,1,0
176,288,253385,1,0
224,264,253534,1,0
176,232,253683,1,0
152,176,253832,1,0
208,184,253982,1,0
256,216,254131,1,4
256,160,254280,1,4
256,192,254952,12,4,255847
