osu file format v7

[General]
AudioFilename: Mizuki Nana - Ribbon no Onpu.mp3
AudioLeadIn: 0
PreviewTime: 7911
Countdown: 0
SampleSet: Normal
StackLeniency: 0.9
Mode: 0
LetterboxInBreaks: 0

[Editor]
DistanceSpacing: 1.10000002384186
BeatDivisor: 4
GridSize: 8

[Metadata]
Title:Ribbon no Onpu
Artist:Mizuki Nana
Creator:quintitem
Version:Hard
Source:Shinkyoku Soukai Polyphonica Crimson S
Tags:Anime

[Difficulty]
HPDrainRate:7
CircleSize:5
OverallDifficulty:7
SliderMultiplier:1.5
SliderTickRate:0.5

[Events]
//Background and Video events
0,0,"Yugiri_3.jpg"
//Break Periods
2,22143,28785
2,93756,100398
2,165369,179753
2,223433,230075
//Storyboard Layer 0 (Background)
//Storyboard Layer 1 (Fail)
//Storyboard Layer 2 (Pass)
//Storyboard Layer 3 (Foreground)
Sprite,Foreground,Centre,"StoryBoard\aa.png",320,240 M,0,8394,,314,425 F,0,8394,8636,0,1 F,0,8636,15652,1 F,0,15652,15894,1,0
Sprite,Foreground,Centre,"StoryBoard\ab.png",320,240 M,0,11056,,420,425 F,0,11056,11298,0,1 F,0,11298,15652,1 F,0,15652,15894,1,0
Sprite,Foreground,Centre,"StoryBoard\ac.png",320,240 M,0,14201,,649,425 F,0,14201,14443,0,1 F,0,14443,15652,1 F,0,15652,15894,1,0
Sprite,Foreground,Centre,"StoryBoard\ad.png",320,240 M,0,16136,,314,425 F,0,16136,16378,0,1 F,0,16378,22669,1 F,0,22669,22911,1,0
Sprite,Foreground,Centre,"StoryBoard\ae.png",320,240 M,0,18798,,411,425 F,0,18798,19040,0,1 F,0,19040,22669,1 F,0,22669,22911,1,0
Sprite,Foreground,Centre,"StoryBoard\title.png",320,240 M,0,23878,24846,223,415,223,390 F,0,23878,24846,0,1 F,0,24846,28717,1 M,0,28717,29685,223,390,223,415 F,0,28717,29685,1,0
Sprite,Foreground,Centre,"StoryBoard\ba.png",320,240 M,0,30169,,314,425 F,0,30169,30411,0,1 F,0,30411,36701,1 F,0,36701,36943,1,0
Sprite,Foreground,Centre,"StoryBoard\bb.png",320,240 M,0,34040,,439,425 F,0,34040,34282,0,1 F,0,34282,36701,1 F,0,36701,36943,1,0
Sprite,Foreground,Centre,"StoryBoard\bc.png",320,240 M,0,37427,,314,425 F,0,37427,37669,0,1 F,0,37669,41056,1 F,0,41056,41298,1,0
Sprite,Foreground,Centre,"StoryBoard\bd.png",320,240 M,0,39362,,476,425 F,0,39362,39604,0,1 F,0,39604,41056,1 F,0,41056,41298,1,0
Sprite,Foreground,Centre,"StoryBoard\be.png",320,240 M,0,41540,,314,425 F,0,41540,41782,0,1 F,0,41782,43717,1 F,0,43717,43959,1,0
Sprite,Foreground,Centre,"StoryBoard\bf.png",320,240 M,0,45652,,314,425 F,0,45652,45894,0,1 F,0,45894,52185,1 F,0,52185,52427,1,0
Sprite,Foreground,Centre,"StoryBoard\bg.png",320,240 M,0,49523,,513,425 F,0,49523,49765,0,1 F,0,49765,52185,1 F,0,52185,52427,1,0
Sprite,Foreground,Centre,"StoryBoard\bh.png",320,240 M,0,52911,,314,425 F,0,52911,53152,0,1 F,0,53152,60411,1 F,0,60411,60652,1,0
Sprite,Foreground,Centre,"StoryBoard\bi.png",320,240 M,0,57023,,557,425 F,0,57023,57265,0,1 F,0,57265,60411,1 F,0,60411,60652,1,0
Sprite,Foreground,Centre,"StoryBoard\bj.png",320,240 M,0,60894,,314,425 F,0,60894,61136,0,1 F,0,61136,67185,1 F,0,67185,67427,1,0
Sprite,Foreground,Centre,"StoryBoard\bk.png",320,240 M,0,64765,,445,425 F,0,64765,65007,0,1 F,0,65007,67185,1 F,0,67185,67427,1,0
Sprite,Foreground,Centre,"StoryBoard\bl.png",320,240 M,0,67669,,314,425 F,0,67669,67911,0,1 F,0,67911,77346,1 F,0,77346,77588,1,0
Sprite,Foreground,Centre,"StoryBoard\bm.png",320,240 M,0,72023,,554,425 F,0,72023,72265,0,1 F,0,72265,77346,1 F,0,77346,77588,1,0
Sprite,Foreground,Centre,"StoryBoard\ca.png",320,240 M,0,80007,,314,425 F,0,80007,80249,0,1 F,0,80249,87265,1 F,0,87265,87507,1,0
Sprite,Foreground,Centre,"StoryBoard\cb.png",320,240 M,0,82669,,424,425 F,0,82669,82911,0,1 F,0,82911,87265,1 F,0,87265,87507,1,0
Sprite,Foreground,Centre,"StoryBoard\ac.png",320,240 M,0,85814,,645,425 F,0,85814,86056,0,1 F,0,86056,87265,1 F,0,87265,87507,1,0
Sprite,Foreground,Centre,"StoryBoard\ad.png",320,240 M,0,87749,,314,425 F,0,87749,87991,0,1 F,0,87991,94282,1 F,0,94282,94523,1,0
Sprite,Foreground,Centre,"StoryBoard\cc.png",320,240 M,0,90411,,410,425 F,0,90411,90652,0,1 F,0,90652,94282,1 F,0,94282,94523,1,0
Sprite,Foreground,Centre,"StoryBoard\cd.png",320,240 M,0,101782,,314,425 F,0,101782,102023,0,1 F,0,102023,108314,1 F,0,108314,108556,1,0
Sprite,Foreground,Centre,"StoryBoard\da.png",320,240 M,0,105652,,506,425 F,0,105652,105894,0,1 F,0,105894,108314,1 F,0,108314,108556,1,0
Sprite,Foreground,Centre,"StoryBoard\db.png",320,240 M,0,109040,,314,425 F,0,109040,109282,0,1 F,0,109282,116298,1 F,0,116298,116540,1,0
Sprite,Foreground,Centre,"StoryBoard\dd.png",320,240 M,0,113152,,580,425 F,0,113152,113394,0,1 F,0,113394,116298,1 F,0,116298,116540,1,0
Sprite,Foreground,Centre,"StoryBoard\bj.png",320,240 M,0,117023,,314,425 F,0,117023,117265,0,1 F,0,117265,123314,1 F,0,123314,123556,1,0
Sprite,Foreground,Centre,"StoryBoard\de.png",320,240 M,0,120894,,447,425 F,0,120894,121136,0,1 F,0,121136,123314,1 F,0,123314,123556,1,0
Sprite,Foreground,Centre,"StoryBoard\df.png",320,240 M,0,123798,,314,425 F,0,123798,124040,0,1 F,0,124040,127669,1 F,0,127669,127911,1,0
Sprite,Foreground,Centre,"StoryBoard\dg.png",320,240 M,0,128152,,314,425 F,0,128152,128394,0,1 F,0,128394,133475,1 F,0,133475,133717,1,0
Sprite,Foreground,Centre,"StoryBoard\ea.png",320,240 M,0,136136,,314,425 F,0,136136,136378,0,1 F,0,136378,143394,1 F,0,143394,143636,1,0
Sprite,Foreground,Centre,"StoryBoard\eb.png",320,240 M,0,138798,,418,425 F,0,138798,139040,0,1 F,0,139040,143394,1 F,0,143394,143636,1,0
Sprite,Foreground,Centre,"StoryBoard\ec.png",320,240 M,0,141943,,611,425 F,0,141943,142185,0,1 F,0,142185,143394,1 F,0,143394,143636,1,0
Sprite,Foreground,Centre,"StoryBoard\ad.png",320,240 M,0,143878,,314,425 F,0,143878,144120,0,1 F,0,144120,150411,1 F,0,150411,150652,1,0
Sprite,Foreground,Centre,"StoryBoard\ed.png",320,240 M,0,146540,,411,425 F,0,146540,146782,0,1 F,0,146782,150411,1 F,0,150411,150652,1,0
Sprite,Foreground,Centre,"StoryBoard\ca.png",320,240 M,0,182588,,314,425 F,0,182588,182830,0,1 F,0,182830,189846,1 F,0,189846,190088,1,0
Sprite,Foreground,Centre,"StoryBoard\cb.png",320,240 M,0,185249,,424,425 F,0,185249,185491,0,1 F,0,185491,189846,1 F,0,189846,190088,1,0
Sprite,Foreground,Centre,"StoryBoard\ac.png",320,240 M,0,188394,,643,425 F,0,188394,188636,0,1 F,0,188636,189846,1 F,0,189846,190088,1,0
Sprite,Foreground,Centre,"StoryBoard\ad.png",320,240 M,0,190330,,314,425 F,0,190330,190572,0,1 F,0,190572,196862,1 F,0,196862,197104,1,0
Sprite,Foreground,Centre,"StoryBoard\cc.png",320,240 M,0,192991,,411,425 F,0,192991,193233,0,1 F,0,193233,196862,1 F,0,196862,197104,1,0
Sprite,Foreground,Centre,"StoryBoard\aa.png",320,240 M,0,198072,,314,425 F,0,198072,198314,0,1 F,0,198314,205330,1 F,0,205330,205572,1,0
Sprite,Foreground,Centre,"StoryBoard\ab.png",320,240 M,0,200733,,421,425 F,0,200733,200975,0,1 F,0,200975,205330,1 F,0,205330,205572,1,0
Sprite,Foreground,Centre,"StoryBoard\ac.png",320,240 M,0,203878,,650,425 F,0,203878,204120,0,1 F,0,204120,205330,1 F,0,205330,205572,1,0
Sprite,Foreground,Centre,"StoryBoard\ad.png",320,240 M,0,205814,,314,425 F,0,205814,206056,0,1 F,0,206056,212346,1 F,0,212346,212588,1,0
Sprite,Foreground,Centre,"StoryBoard\ae.png",320,240 M,0,208475,,411,425 F,0,208475,208717,0,1 F,0,208717,212346,1 F,0,212346,212588,1,0
Sprite,Foreground,Centre,"StoryBoard\ee.png",320,240 M,0,213314,,314,425 F,0,213314,213556,0,1 F,0,213556,217185,1 F,0,217185,217427,1,0
//Storyboard Sound Samples
//Background Colour Transformations
3,100,163,162,255

[TimingPoints]
653,483.870967741935,4,1,2,70,1,0
8394,-100,4,1,2,70,0,1
8455,-100,4,1,2,70,0,0
21822,-100,4,1,2,60,0,0
27749,-100,4,1,2,60,0,0
60532,-200,4,1,2,55,0,0
67185,-100,4,1,2,60,0,0
76015,-100,4,1,2,80,0,0
80007,-100,4,1,2,70,0,1
80068,-100,4,1,2,70,0,0
93435,-100,4,1,2,60,0,0
99362,-100,4,1,2,60,0,0
116661,-200,4,1,2,55,0,0
123314,-100,4,1,2,60,0,0
132144,-100,4,1,2,80,0,0
135894,-100,4,1,2,70,0,0
136136,-100,4,1,2,70,0,1
136197,-100,4,1,2,70,0,0
149564,-100,4,1,2,60,0,0
150169,-100,4,1,2,60,0,0
178717,-100,4,1,2,80,0,0
181983,-100,4,1,2,60,0,0
183072,-100,4,1,2,70,0,0
185975,-100,4,1,2,50,0,0
186943,-100,4,1,2,70,0,0
187911,-100,4,1,2,50,0,0
188636,-100,4,1,2,70,0,0
190088,-100,4,1,2,60,0,0
190814,-100,4,1,2,70,0,0
193717,-100,4,1,2,50,0,0
194685,-100,4,1,2,70,0,0
196983,-100,4,1,2,60,0,0
197830,-100,4,1,2,70,0,0
198072,-100,4,1,2,70,0,1
198132,-100,4,1,2,70,0,0
211499,-100,4,1,2,60,0,0
213072,-100,4,1,2,70,0,0
215370,-100,4,1,2,60,0,0
215975,-100,4,1,2,70,0,0
223112,-100,4,1,2,60,0,0
229040,-100,4,1,2,70,0,0
234362,-100,4,1,2,50,0,0
234604,-100,4,1,2,70,0,0
242588,-100,4,1,2,40,0,0
246459,-100,4,1,2,0,0,0

[Colours]
Combo1 : 255,208,49
Combo2 : 77,64,57
Combo3 : 109,71,141
Combo4 : 236,79,95

[HitObjects]
256,192,6459,1,0
168,112,6943,1,0
76,192,7427,2,0,B|52:228,1,37.5
40,280,7790,2,0,B|72:312,1,37.5,0|0
120,336,8152,1,0
180,340,8394,6,0,B|340:340,2,150,8|0|8
180,220,9846,1,0
180,220,10088,1,0
180,220,10330,2,0,B|187:143|272:110,1,150,8|0
328,96,11056,1,0
328,96,11298,2,0,B|328:16,2,75,8|0|0
384,120,12023,1,0
384,120,12265,2,0,B|459:135|483:223,2,150,8|0|8
384,60,13475,2,0,B|384:212,1,150
384,272,14201,5,8
344,316,14443,1,0
304,272,14685,1,0
264,316,14927,1,0
224,276,15169,5,8
224,276,15652,1,4
180,160,16136,6,0,B|20:160,2,150,8|0|8
224,48,17588,1,0
224,48,17830,1,0
224,48,18072,2,0,B|306:81|312:158,1,150,8|0
328,216,18798,1,0
328,216,19040,2,0,B|408:216,2,75,8|0|0
304,272,19765,1,0
304,272,20007,2,0,B|152:272,2,150,8|0|8
304,332,21217,1,0
304,332,21459,1,0
364,332,21701,1,0
364,332,21943,1,4
184,48,29685,5,4
84,112,30169,1,8
84,232,30653,1,0
188,292,31136,1,8
188,292,31378,1,0
188,292,31620,2,0,B|188:368,2,75,0|0|8
236,256,32346,1,0
236,256,32588,2,0,B|392:256,2,150,0|8|4
176,152,34040,5,8
176,152,34282,1,0
176,152,34523,2,0,B|192:65|267:44,1,150,0|8
324,68,35249,2,0,B|324:144,2,75
380,44,35975,2,0,B|464:44,2,75,8|0|0
372,164,36943,1,8
388,284,37427,6,0,B|470:252|477:175,2,150,0|8|0
388,284,38636,1,0
388,284,38878,1,8
128,228,39362,6,0,B|46:260|39:337,2,150,0|8|0
128,228,40572,1,0
128,228,40814,1,8
164,112,41298,5,0
256,36,41782,1,8
348,112,42265,1,0
348,112,42507,1,0
348,112,42749,2,0,B|436:112,2,75,8|0|0
256,192,43475,12,4,45169
384,96,45653,6,0,B|459:114|478:200,2,150,8|0|8
352,44,46862,1,0
292,44,47104,1,0
264,96,47346,1,0
328,100,47588,1,8
328,100,47830,1,0
328,100,48072,2,0,B|328:256,2,150,0|8|4
36,192,49523,5,8
36,192,49765,1,0
36,192,50007,2,0,B|56:280|131:298,1,150,0|8
163,350,50733,1,0
223,350,50975,1,0
251,298,51217,1,0
199,302,51459,1,8
199,302,51701,1,0
199,302,51943,2,0,B|199:146,1,150,0|8
200,32,52911,6,0,B|40:32,2,150,0|8|0
200,32,54120,1,0
200,32,54362,1,8
320,32,54846,2,0,B|403:65|409:142,1,150,0|8
468,144,55572,2,0,B|308:144,1,150
318,144,56298,1,8
256,240,56782,5,0
144,192,57265,1,8
36,240,57749,1,0
44,180,57991,1,0
76,128,58233,1,8
128,96,58475,1,0
188,84,58717,2,0,B|271:117|277:194,1,150,0|8
216,196,59443,2,0,B|396:196,1,150
416,228,60169,2,0,B|416:288,2,37.5,8|0|0
468,196,60653,5,8
468,196,60894,1,0
400,96,61378,1,0
400,96,61620,1,8
292,40,62104,2,0,B|212:40,2,75,0|8|0
292,40,63314,1,0
292,40,63556,1,8
256,156,64040,1,0
300,268,64523,5,8
272,320,64765,1,0
212,320,65007,1,0
180,268,65249,1,0
240,268,65491,2,0,B|240:188,2,75,8|0|8
240,268,66943,1,0
124,236,67427,5,12
84,188,67669,1,0
124,144,67911,1,0
84,100,68153,1,0
128,60,68394,2,0,B|284:60,1,150,8|0
400,64,69362,5,8
400,64,69604,1,0
400,64,69846,2,0,B|492:64,2,75,0|0|8
440,176,70814,1,0
388,284,71298,2,0,B|388:368,2,75,8|0|0
344,244,72023,5,0
344,244,72265,2,0,B|192:244,1,150,8|0
72,244,73233,1,8
72,244,73475,1,0
32,200,73717,1,0
32,200,73959,1,0
72,156,74201,2,0,B|83:70|162:47,2,150,8|0|8
112,200,75411,2,0,B|216:200,2,75
112,260,76136,6,0,B|144:308,1,37.5
180,328,76499,2,0,B|228:344,1,37.5
256,296,76862,1,0
312,272,77104,2,0,B|312:208,2,37.5
368,296,77588,1,0
420,324,77830,5,4
256,92,78314,1,0
256,92,78556,1,4
256,192,78798,12,8,80007
156,148,80491,6,0,B|149:71|64:38,2,150,0|8|0
204,188,81701,1,0
156,224,81943,2,0,B|163:301|248:334,1,150,8|0
292,292,82669,1,0
336,332,82911,2,0,B|416:332,2,75,8|0|0
336,332,83636,1,0
336,332,83878,1,8
404,232,84362,1,0
336,132,84846,1,8
336,132,85088,2,0,B|488:132,1,150
484,72,85814,5,8
484,72,86056,1,0
440,32,86298,1,0
440,32,86540,1,0
396,72,86782,5,8
116,312,87265,1,4
116,312,87749,5,8
56,208,88233,1,0
116,104,88717,1,8
224,48,89201,2,0,B|304:48,2,75,0|0|8
256,164,90169,5,0
256,164,90411,1,0
300,204,90653,1,8
300,204,90894,1,0
344,164,91136,1,0
344,164,91378,1,0
388,204,91620,2,0,B|462:222|480:320,1,150,8|0
364,344,92588,1,8
308,324,92830,1,0
260,288,93072,1,0
224,240,93314,1,0
212,184,93556,1,4
184,48,101298,5,4
184,48,101782,2,0,B|28:48,2,150,8|0|8
256,84,102991,1,0
256,84,103233,1,0
328,48,103475,1,0
328,48,103717,1,8
400,84,103959,1,0
400,84,104201,2,0,B|475:105|491:192,2,150,0|8|4
276,192,105653,6,0,B|192:192,2,75,8|0|0
420,276,106620,1,8
384,348,106862,1,0
300,348,107104,1,0
256,276,107346,1,0
340,276,107588,2,0,B|340:196,2,75,8|0|0
340,276,108556,1,8
224,160,109040,6,0,B|207:72|132:51,1,150,0|8
36,184,110007,1,0
36,184,110249,1,0
36,184,110491,1,8
120,328,110975,2,0,B|203:295|209:218,1,150,0|8
128,216,111701,2,0,B|288:216,1,150
278,216,112427,1,8
278,216,112911,5,0
380,88,113394,1,8
480,220,113878,2,0,B|432:220|424:288,1,75
376,328,114362,2,0,B|324:328|324:260,1,75,8|0
256,236,114846,1,0
256,236,115330,1,8
176,260,115572,1,0
176,260,116056,1,0
116,316,116298,1,8
116,316,116419,1,0
116,316,116540,1,0
116,316,116782,5,8
52,260,117023,1,0
52,260,117507,1,0
116,208,117749,1,8
116,208,118233,2,0,B|116:128,2,75,0|8|0
192,184,119443,1,0
260,212,119685,1,8
260,212,120169,1,0
352,64,120653,6,0,B|408:64,1,37.5,8|0
432,132,121136,2,0,B|380:132,1,37.5
348,192,121620,1,8
256,324,122104,1,0
164,192,122588,1,8
256,60,123072,1,0
256,60,123556,6,0,B|300:60|308:112,1,75,12|0
340,180,124040,2,0,B|380:180|404:128,1,75
436,68,124523,1,8
436,68,125007,1,0
256,324,125491,6,0,B|212:324|204:272,1,75,8|0
172,204,125975,2,0,B|132:204|108:256,1,75
76,316,126459,1,8
76,316,126943,1,0
76,152,127427,1,8
76,152,127669,1,0
128,88,127911,1,0
128,88,128153,5,0
204,60,128394,2,0,B|289:84|304:160,2,150,8|0|8
200,144,129604,2,0,B|200:196|140:196,1,75
80,224,130088,1,0
80,224,130330,2,0,B|99:308|180:322,1,150,8|0
344,324,131298,1,8
344,324,131540,1,0
404,268,131782,1,0
404,268,132023,1,0
444,196,132265,5,0
444,196,132386,1,0
388,136,132628,1,0
388,136,132749,2,0,B|388:96|340:76,1,75,0|0
264,68,133233,1,0
252,68,133354,1,0
240,68,133475,2,0,B|160:68,1,75
88,36,133959,5,4
424,348,134443,1,0
424,348,134685,1,4
256,192,134806,12,0,135653
256,36,136136,5,8
32,192,136620,1,0
256,348,137104,1,8
480,192,137588,1,0
480,192,137830,1,0
480,192,138072,2,0,B|404:207|380:294,1,150,8|0
316,344,138798,5,0
256,288,139040,1,8
180,252,139282,1,0
108,216,139523,1,0
56,152,139765,1,0
136,128,140007,2,0,B|211:112|235:25,2,150,8|0|8
136,44,141217,2,0,B|136:196,1,150
92,264,141943,5,8
176,264,142185,1,0
48,324,142427,1,0
224,328,142669,1,0
224,328,142911,5,8
484,192,143394,1,4
180,32,143878,6,0,B|340:32,1,150,8|0
332,352,144846,2,0,B|172:352,1,150,8|0
182,352,145572,1,0
182,352,145814,1,8
132,192,146298,6,0,B|84:188|84:120,1,75
152,92,146782,2,0,B|204:100|204:160,1,75,8|0
80,244,147265,2,0,B|32:240|32:172,1,75,0|0
208,44,147749,2,0,B|260:52|260:112,1,75,8|0
296,164,148233,2,0,B|303:241|388:274,1,150,0|8
408,192,148959,5,0
256,344,149201,1,0
104,192,149443,1,0
256,40,149685,1,4
256,192,150169,12,0,152588
256,192,153072,5,4
256,192,153556,12,0,156459
256,64,156943,5,4
336,208,157427,2,0,B|411:192|435:105,2,150,0|0|0
256,224,158636,1,0
176,240,158878,2,0,B|101:256|77:343,2,150,0|0|0
180,76,160330,2,0,B|260:76,2,75,0|0|4
32,192,161298,5,0
256,352,161782,1,0
480,192,162265,1,0
256,32,162749,1,0
136,192,163233,5,0
256,316,163475,1,0
376,192,163717,1,0
256,68,163959,1,0
256,192,164201,12,4,165169
256,80,180653,5,0
140,288,181015,1,0
372,288,181378,1,0
372,288,181620,1,0
424,224,181862,1,0
372,160,182104,1,0
372,148,182225,1,0
372,136,182346,1,0
372,124,182467,1,0
372,112,182588,5,4
372,112,183556,2,0,B|496:112,2,112.5
372,112,184523,1,0
256,32,185491,5,0
256,84,186459,1,4
256,136,187427,1,0
260,196,188394,1,4
260,196,188878,1,0
260,196,189362,2,0,B|260:276,2,75
140,308,190330,5,4
140,308,191298,2,0,B|16:308,2,112.5
140,308,192265,1,0
256,352,193233,5,0
256,300,194201,1,4
256,244,195169,6,0,B|412:244,2,150,0|0|0
192,192,196378,2,0,B|108:192,2,75
256,140,197104,1,0
256,128,197225,1,0
256,116,197346,1,0
256,104,197467,1,0
256,92,197588,1,4
36,116,198072,6,0,B|36:288,1,150,8|0
476,268,199040,2,0,B|476:96,1,150,8|0
400,84,199765,5,0
324,112,200007,2,0,B|248:127|224:214,1,150,8|0
280,272,200733,1,0
232,340,200975,1,8
184,272,201217,1,0
136,340,201459,1,0
88,272,201701,1,0
40,340,201943,1,8
32,176,202427,2,0,B|107:161|131:75,1,150,0|8
48,72,203153,2,0,B|212:72,1,150
256,36,203878,5,8
256,36,204120,1,0
256,36,204362,1,0
256,36,204604,1,0
256,36,204846,5,8
256,348,205330,1,4
32,192,205814,5,8
256,32,206298,1,0
480,192,206782,1,8
256,352,207265,2,0,B|256:272,2,75,0|0|8
92,324,208233,5,0
48,252,208475,1,0
108,184,208717,1,8
196,140,208959,1,0
256,52,209201,1,0
364,76,209443,1,0
440,168,209685,1,8
408,292,209927,1,0
284,348,210169,2,0,B|200:315|193:238,1,150,0|8
194,239,210894,5,0
236,96,211136,1,0
280,240,211378,1,0
320,96,211620,1,4
256,192,211862,12,0,213072
152,52,213556,6,0,B|72:80|64:164,2,150,8|0|8
212,108,214765,1,0
256,36,215007,1,0
296,108,215249,1,0
360,56,215491,2,0,B|440:84|448:168,1,150,4|0
408,328,216459,2,0,B|492:328,2,75,0|0|0
256,260,217427,5,0
104,192,217911,1,0
256,124,218394,1,0
320,72,218636,1,0
384,128,218878,1,0
444,72,219120,2,0,B|444:32,2,37.5,0|0|0
476,236,219846,5,0
356,348,220330,1,0
240,232,220814,2,0,B|200:232|188:288,1,75
116,320,221298,2,0,B|68:320|72:256,1,75
28,200,221782,2,0,B|28:148|84:140,1,75
152,140,222265,1,0
256,268,222749,2,0,B|312:268,2,37.5
256,184,223233,1,4
256,116,230975,5,0
144,236,231459,1,0
32,112,231943,2,0,B|32:36,2,75
32,276,232911,2,0,B|32:328|88:332,1,75
152,304,233394,2,0,B|196:304|204:368,1,75
284,352,233878,2,0,B|365:329|379:246,1,150,0|4
224,196,234846,6,0,B|146:167|140:82,1,150
304,100,235814,1,0
372,56,236056,1,0
444,100,236298,1,0
484,260,236782,2,0,B|432:320,1,75
364,272,237265,2,0,B|284:292,1,75
224,336,237749,2,0,B|140:312,1,75
76,344,238233,2,0,B|16:272,1,75
28,204,238717,1,4
192,192,239201,6,0,B|280:192,2,75,0|0|0
100,52,240169,2,0,B|24:52,2,75
168,100,240894,2,0,B|168:176,2,75
236,52,241620,2,0,B|313:80|319:165,1,150,0|4
256,192,242588,12,0,246459
