osu file format v9

[General]
AudioFilename: Orgol and Piano.mp3
AudioLeadIn: 0
PreviewTime: 62455
Countdown: 0
SampleSet: Soft
StackLeniency: 0.6
Mode: 0
LetterboxInBreaks: 1

[Editor]
DistanceSpacing: 1
BeatDivisor: 4
GridSize: 8

[Metadata]
Title:Orugouru to Piano to
Artist:Mizuki Nana
Creator:mjw5150
Version:Orugouru
Source:Memories Off 2nd
Tags:KID 5pb impossiblexu Shirakawa Hotaru

[Difficulty]
HPDrainRate:3
CircleSize:4
OverallDifficulty:3
ApproachRate:4
SliderMultiplier:1
SliderTickRate:1

[Events]
//Background and Video events
0,0,"hotaru03.jpg"
//Break Periods
2,92002,97982
2,180697,187004
//Storyboard Layer 0 (Background)
//Storyboard Layer 1 (Fail)
//Storyboard Layer 2 (Pass)
//Storyboard Layer 3 (Foreground)
//Storyboard Sound Samples
//Background Colour Transformations
3,100,163,162,255

[TimingPoints]
499,652.173913043478,4,2,0,40,1,0
62455,-100,4,2,0,60,0,0
63107,-100,4,2,0,60,0,1
87890,-100,4,2,0,60,0,0
91803,-100,4,2,0,50,0,0
151151,-100,4,2,0,60,0,0
151803,-100,4,2,0,60,0,1
176585,-100,4,2,0,60,0,0
199412,-100,4,2,0,50,0,0
218977,-100,4,2,0,60,0,0
219629,-100,4,2,0,70,0,1
219955,-100,4,2,0,60,0,1
245716,-100,4,2,0,60,0,0

[Colours]
Combo1 : 248,211,171
Combo2 : 171,252,203
Combo3 : 175,221,254
Combo4 : 249,254,186
Combo5 : 240,80,80

[HitObjects]
256,192,10606,1,0
208,192,10932,2,0,B|104:192,2,100,0|2|0
208,296,12889,2,0,B|312:296,1,100,2|0
400,344,14193,2,0,B|440:296|392:240,1,100,2|0
336,176,15498,1,2
336,128,15824,5,0
336,80,16150,2,0,B|440:80,2,100,0|2|0
240,80,18106,2,0,B|192:48|128:88,1,100,2|0
64,128,19411,2,0,B|24:80|72:24,2,100,2|0|2
88,176,21041,5,0
64,216,21367,2,0,B|24:264|72:320,2,100,0|2|0
152,264,23324,1,2
152,360,23976,2,0,B|200:392|248:360,1,100,0|2
280,264,25280,1,0
376,264,25932,1,2
424,264,26258,5,0
472,264,26585,2,0,B|472:368,2,100,0|2|0
472,168,28541,2,0,B|424:128|376:168,1,100,2|0
312,232,29845,1,2
264,232,30171,1,0
216,232,30498,2,0,B|176:184|224:128,1,100,0|2
272,64,31802,6,0,B|320:32|376:64,1,100,0|2
392,104,32780,1,0
416,144,33106,2,0,B|416:248,1,100,0|2
384,280,34085,1,0
352,312,34411,2,0,B|248:312,1,100,0|2
216,280,35389,1,0
168,280,35715,2,0,B|56:280,1,100,0|2
40,184,37019,6,0,B|0:136|48:80,1,100,0|2
72,56,37998,1,0
104,96,38324,2,0,B|144:128|200:96,1,100,0|2
224,56,39302,1,0
248,96,39628,2,0,B|360:96,1,100
400,96,40606,2,0,B|456:96,1,50,0|2
496,96,41258,2,0,B|496:184,1,75,0|0
448,232,42237,6,0,B|416:280|360:296,1,100,0|2
328,312,43215,1,0
280,296,43541,2,0,B|232:264|208:208,1,100,0|2
192,176,44519,1,0
240,176,44845,2,0,B|344:176,2,100,0|2|0
136,176,46802,6,0,B|168:224|136:280,1,100,2|0
40,272,48106,2,0,B|8:224|40:168,1,100,2|0
128,136,49411,5,2
128,88,49737,1,0
128,40,50063,2,0,B|80:0|24:48,2,100,0|2|0
224,40,52019,2,0,B|272:0|328:48,2,100,2|0|2
224,144,53976,1,0
224,240,54628,1,2
224,240,55280,6,0,B|344:240,1,100,0|2
328,192,56258,2,0,B|408:208|448:304,1,150,0|2
376,368,57890,2,0,B|296:352|256:264,2,150,0|2|0
416,280,60498,6,0,B|416:176,1,100,2|0
416,128,61476,2,0,B|368:96|312:128,1,100,2|0
280,128,62454,6,0,B|232:80|288:32,2,100,2|4|8
280,176,64085,1,0
280,224,64411,2,0,B|208:312,1,100,0|8
128,352,65715,2,0,B|88:256,1,100,0|8
72,216,66693,1,0
48,168,67019,2,0,B|48:56,2,100,0|8|0
96,168,68650,6,0,B|200:168,1,100,0|0
248,168,69628,2,0,B|248:88|352:64,1,150,2|0
392,64,70932,2,0,B|496:64,2,100,0|8|0
384,160,72889,6,8,B|280:160,2,100,0|2|8
384,208,74519,1,0
384,256,74845,2,0,B|304:296|240:256,1,150,2|0
216,216,76150,2,0,B|168:176|112:224,1,100,2|8
80,240,77128,1,0
40,272,77454,2,0,B|40:376,2,100,0|8|0
40,224,79085,6,0,B|8:144|40:72,1,150,2|0
128,32,80715,1,8
224,32,81367,1,0
224,80,81693,2,0,B|296:112|376:80,1,150,2|0
448,144,83324,1,8
392,224,83976,6,0,B|288:224,1,100,2|8
264,264,84954,1,0
232,304,85280,2,0,B|128:304,1,100,2|0
80,304,86258,1,0
80,256,86585,5,2
80,208,86911,1,2
128,232,87237,1,2
128,184,87563,1,0
176,184,87889,1,0
256,192,88541,12,0,91802
168,280,99302,5,0
168,232,99628,2,0,B|216:200|272:232,1,100,0|2
344,280,100932,2,0,B|384:256|408:192,1,100,0|2
304,176,102237,2,0,B|312:128|352:88,1,100,0|2
432,32,103541,1,0
336,32,104193,1,2
288,32,104519,5,0
240,32,104845,2,0,B|240:144,1,100,0|2
176,56,106150,2,0,B|120:152,1,100,0|2
48,208,107454,2,0,B|152:208,1,100,2|0
152,304,108758,1,0
200,304,109085,1,0
248,304,109411,1,2
248,256,109737,5,0
248,256,110063,2,0,B|296:224|360:264,1,100,0|2
424,312,111367,2,0,B|392:264|424:216,1,100,0|2
344,152,112671,1,0
256,104,113324,1,2
168,152,113976,1,0
80,104,114628,1,2
80,56,114954,5,0
80,56,115280,2,0,B|128:88|184:48,1,100,0|2
240,128,116585,1,0
336,128,117237,1,2
288,40,117889,2,0,B|392:40,1,100,2|2
440,40,118867,1,0
440,88,119193,2,0,B|440:192,1,100,2|4
360,248,120497,6,0,B|360:144,1,100,0|8
320,120,121476,1,0
280,144,121802,2,0,B|280:248,1,100,0|8
320,272,122780,1,0
360,304,123106,2,0,B|464:304,2,100,0|8|0
312,304,124737,1,0
264,304,125063,1,8
160,304,125715,6,0,B|104:296|64:256,1,100,0|8
32,232,126693,1,0
32,184,127019,2,0,B|80:136|136:200,1,100,0|8
168,184,127998,1,0
168,136,128324,2,0,B|216:88|272:152,1,100,0|8
256,184,129302,1,0
256,232,129628,2,0,B|312:232,1,50,2|0
312,280,130280,2,0,B|360:280,1,50,2|0
408,280,130932,6,0,B|432:224|408:184,1,100,0|8
360,160,131911,1,0
312,136,132237,2,0,B|336:80|312:40,1,100,0|8
256,40,133215,1,0
200,40,133541,2,0,B|96:40,1,100,0|8
96,96,134519,1,0
96,152,134845,2,0,B|48:192,1,50,2|0
56,240,135498,6,0,B|104:272|160:240,1,100,8|0
192,216,136476,1,0
248,216,136802,2,0,B|248:280|304:312,1,100,8|0
352,216,138106,5,8
352,216,138432,1,0
352,272,138758,2,0,B|352:376,2,100,0|8|0
464,272,140715,2,0,B|464:168,1,100,8|0
464,120,141693,1,0
408,120,142019,2,0,B|352:120,1,50,8|0
360,176,142671,2,0,B|312:176,1,50,2|0
256,176,143324,6,0,B|256:240,1,50,2|0
256,280,143976,2,0,B|184:320|112:280,2,150,2|0|8
320,192,146585,2,0,B|392:152|464:192,2,150,2|0|8
208,192,149193,6,4,B|208:136,1,50
208,88,149845,1,2
168,112,150171,2,4,B|120:112,1,50
120,224,151150,6,0,B|184:224,2,50,2|0|4
120,280,152128,1,0
120,336,152454,1,8
176,336,152780,5,0
176,336,153106,2,0,B|232:320|264:280,1,100,0|8
320,192,154411,1,0
352,232,154737,1,0
384,192,155063,1,8
352,144,155389,5,0
352,144,155715,2,0,B|352:96,1,50,2|0
328,48,156367,2,0,B|280:24|224:48,1,100,2|0
184,64,157345,6,0,B|184:112,2,50,0|8|0
128,64,158324,1,0
80,88,158650,1,0
32,112,158976,1,8
80,136,159302,1,0
128,160,159628,2,0,B|128:264,1,100,0|8
80,288,160606,1,0
128,304,160932,2,0,B|192:304,1,50,2|0
232,304,161585,6,0,B|288:304,2,50,0|0|2
232,248,162563,2,0,B|232:192,1,50,0|8
232,144,163215,5,0
232,144,163541,2,0,B|280:112|344:152,2,100,0|8|0
184,168,165171,1,0
136,144,165498,1,8
88,168,165824,5,0
40,144,166150,2,0,B|40:88,1,50
88,64,166802,1,8
136,40,167128,2,0,B|192:40,1,50
240,40,167780,5,0
240,96,168106,2,0,B|296:96,1,50,8|0
344,96,168758,2,0,B|344:144,2,50,0|0|8
400,96,169737,1,0
456,96,170063,1,0
456,152,170389,6,0,B|408:192,1,50,0|8
376,216,171041,1,0
320,216,171367,1,0
280,248,171693,1,0
280,304,172019,1,8
168,304,172671,5,2
168,248,172998,1,2
136,208,173324,1,10
80,208,173650,1,2
48,168,173976,2,0,B|48:120,1,50,2|0
88,80,174628,2,0,B|136:80,1,50,2|0
192,80,175280,5,2
240,88,175606,1,2
216,136,175932,1,2
264,144,176258,1,2
240,192,176585,1,2
288,200,176911,1,6
320,240,177237,6,0,B|288:280,1,50,4|0
264,320,177889,2,0,B|200:336,1,50
168,336,178541,2,0,B|112:328|72:256,2,100,8|0|8
168,232,180497,1,0
208,200,188324,6,0,B|208:96,1,100,0|8
120,48,189628,1,0
40,104,190280,1,8
120,160,190932,2,0,B|224:160,1,100,0|8
320,168,192237,2,0,B|304:272,1,100,0|8
232,336,193541,6,0,B|280:336,2,50,0|0|8
184,336,194519,1,0
136,336,194845,2,0,B|136:232,1,100,0|8
136,136,196150,5,0
184,136,196476,1,0
232,136,196802,1,8
280,136,197128,1,0
328,136,197454,2,0,B|328:192,1,50,2|0
376,192,198106,2,0,B|376:256,1,50,2|0
376,288,198758,1,0
328,288,199085,2,0,B|328:344,1,50,0|2
240,288,200063,6,0,B|272:240|240:192,1,100,0|2
144,192,201367,2,0,B|112:240|144:288,1,100,0|2
224,344,202671,2,0,B|272:368|328:344,1,100,0|2
320,248,203976,6,0,B|272:224|216:248,1,100,0|2
224,144,205280,2,0,B|144:72,1,100,0|2
248,72,206585,2,0,B|328:144,1,100,0|2
392,208,207889,1,2
296,208,208541,1,2
296,304,209193,6,0,B|200:264,1,100,0|2
160,248,210171,1,0
112,232,210498,2,0,B|48:136,1,100,0|2
32,104,211476,1,0
64,64,211802,5,0
152,104,212454,1,2
248,64,213106,1,0
344,104,213758,1,2
344,208,214411,5,0
344,256,214737,1,0
344,304,215063,1,2
296,304,215389,1,0
248,304,215715,1,0
248,256,216041,1,0
248,208,216367,1,2
296,208,216693,1,0
296,160,217019,6,0,B|296:104,1,50,4|4
256,80,217671,2,0,B|200:80,1,50,2|4
152,80,218324,1,4
72,144,218976,6,0,B|48:192|72:248,1,100,2|4
96,280,219954,1,0
128,312,220280,1,8
176,328,220606,5,0
224,312,220932,2,0,B|264:280|328:312,1,100,0|8
416,312,222237,2,0,B|416:248,1,50
384,224,222889,1,8
416,184,223215,5,0
384,144,223541,2,0,B|384:88,1,50
384,48,224193,2,0,B|336:16|280:48,1,100,8|0
256,80,225171,6,0,B|256:128,2,50,0|8|0
208,80,226150,2,0,B|120:144,1,100,0|8
48,200,227454,2,0,B|48:320,2,100,0|8|0
144,192,229411,6,0,B|192:280,1,100,8|2
216,320,230389,1,0
264,320,230715,1,8
312,320,231041,5,0
312,320,231367,2,0,B|312:216,1,100,0|8
312,120,232671,2,0,B|416:120,1,100,0|8
440,160,233650,5,0
416,200,233976,2,0,B|312:200,1,100,0|8
216,200,235280,1,0
168,200,235606,5,0
136,160,235932,1,8
104,200,236258,1,0
72,240,236585,2,0,B|72:344,1,100,0|8
168,344,237889,1,0
216,344,238215,5,0
248,304,238541,1,8
280,344,238867,1,0
312,304,239193,2,0,B|312:200,1,100,0|8
256,120,240498,5,2
304,120,240824,1,2
336,80,241150,1,10
384,80,241476,1,0
408,120,241802,2,0,B|408:224,1,100,2|2
408,272,242780,1,0
360,272,243106,5,2
312,272,243432,1,2
272,248,243758,1,2
272,200,244085,1,0
248,160,244411,1,2
200,160,244737,1,4
256,192,245063,12,0,248324
