osu file format v12

[General]
AudioFilename: Shining Ark Opening Movie.mp3
AudioLeadIn: 0
PreviewTime: 73611
Countdown: 0
SampleSet: Soft
StackLeniency: 0.7
Mode: 0
LetterboxInBreaks: 0
WidescreenStoryboard: 0

[Editor]
DistanceSpacing: 1
BeatDivisor: 4
GridSize: 4
TimelineZoom: 1

[Metadata]
Title:Kiseki no Melodia
TitleUnicode:奇跡のメロディア
Artist:Mizuki Nana
ArtistUnicode:水樹奈々
Creator:jesse7419
Version:Easy
Source:Shining Ark
Tags:ertyukjh010 psp game シャイニング・アーク ROCKBOUND NEIGHBORS
BeatmapID:196973
BeatmapSetID:67935

[Difficulty]
HPDrainRate:2
CircleSize:3
OverallDifficulty:2
ApproachRate:3
SliderMultiplier:0.8
SliderTickRate:1

[Events]
//Background and Video events
Video,4120,"Shining Ark Opening Movie.avi"
0,0,"5HvcY1.jpg",0,0
//Break Periods
//Storyboard Layer 0 (Background)
//Storyboard Layer 1 (Fail)
//Storyboard Layer 2 (Pass)
//Storyboard Layer 3 (Foreground)
//Storyboard Sound Samples
//Background Colour Transformations
3,100,163,162,255

[TimingPoints]
4615.54545454545,300,4,1,1,40,1,0
4915,-100,4,2,1,40,0,0
6715,-100,4,1,1,40,0,0
9715,-100,4,2,1,40,0,0
10315,-100,4,1,1,40,0,0
10615,-100,4,2,1,40,0,0
11515,-100,4,1,1,40,0,0
15415,-100,4,1,1,50,0,0
16015,-100,4,1,1,30,0,0
16315,-100,4,1,1,40,0,0
16615,-100,4,1,1,50,0,0
16915,-100,4,1,1,60,0,0
17965,-100,4,2,1,60,0,0
19315,-100,4,1,1,40,0,0
19915,-100,4,1,1,50,0,0
31765,-100,4,1,1,60,0,0
32815,-100,4,2,1,40,0,0
41215,-100,4,1,1,40,0,0
41815,-100,4,2,1,40,0,0
48415,-100,4,1,1,40,0,0
51715,-100,4,1,1,50,0,0
52015,-100,4,1,1,40,0,0
61315,-100,4,1,1,50,0,0
61615,-100,4,1,1,40,0,0
67015,-100,4,1,1,50,0,0
72865,-100,4,1,1,40,0,0
73615,-100,4,1,1,60,0,0
74215,-100,4,1,1,40,0,0
74815,-100,4,1,1,50,0,0
75415,-100,4,1,1,60,0,1
100465,-100,4,1,1,60,0,0
100915,-100,4,2,1,40,0,0
101665,-100,4,2,1,60,0,0

[Colours]
Combo1 : 255,128,64
Combo2 : 128,255,0
Combo3 : 0,255,255
Combo4 : 255,128,128

[HitObjects]
344,312,4615,6,0,L|184:312,1,160,6|2,0:0|0:0,0:0:0:0:
104,176,5815,2,0,L|264:176,1,160,2|2,0:0|0:0,0:0:0:0:
344,160,6715,5,0,0:0:0:0:
400,104,7015,2,0,P|344:80|288:104,2,120,8|4|8,0:0|0:0|0:0,0:0:0:0:
422,180,8215,2,0,L|470:300,2,120,8|4|8,0:0|0:0|0:0,0:0:0:0:
344,160,9415,6,0,L|272:112,2,80,6|0|2,0:0|0:0|0:0,0:0:0:0:
365,237,10315,1,4,0:0:0:0:
422,180,10615,2,0,L|499:141,2,80,2|0|2,0:0|0:0|0:0,0:0:0:0:
344,160,11515,5,8,0:0:0:0:
288,104,11815,2,0,P|240:72|176:80,2,120,8|4|8,0:0|0:0|0:0,0:0:0:0:
280,184,13015,2,0,P|328:216|392:208,2,120,8|4|8,0:0|0:0|0:0,0:0:0:0:
208,144,14215,6,0,L|128:152,1,80,4|0,0:0|0:0,0:0:0:0:
112,232,14815,2,0,L|120:312,1,80,2|2,0:0|0:0,0:0:0:0:
200,328,15415,2,0,L|280:320,1,80
296,240,16015,2,0,L|288:160,1,80,2|2,0:0|0:0,0:0:0:0:
208,144,16615,6,0,L|128:120,1,80,2|2,0:0|0:0,0:0:0:0:
48,120,17215,1,2,0:0:0:0:
24,200,17515,1,2,0:0:0:0:
40,280,17815,2,0,B|48:328|88:352|136:344,1,120,2|0,0:0|0:0,0:0:0:0:
208,336,18565,2,0,L|296:320,1,80,0|2,0:0|0:0,0:0:0:0:
392,264,19315,6,0,L|392:184,1,80,8|0,0:0|0:0,0:0:0:0:
336,128,19915,1,8,0:0:0:0:
272,176,20215,2,0,P|224:204|160:192,1,120,4|0,0:0|0:0,0:0:0:0:
96,96,21115,2,0,P|40:144|48:224,1,160,4|0,0:0|0:0,0:0:0:0:
112,272,22015,1,0,0:0:0:0:
184,240,22315,1,0,0:0:0:0:
256,272,22615,6,0,B|368:256|400:160|400:160|472:272,1,320,4|0,0:0|0:0,0:0:0:0:
496,344,24115,1,0,0:0:0:0:
416,328,24415,2,0,P|376:328|336:336,1,80,8|0,0:0|0:0,0:0:0:0:
256,352,25015,6,0,P|183:324|168:250,1,160,4|0,0:0|0:0,0:0:0:0:
240,208,25915,2,0,P|264:136|211:76,1,160,4|0,0:0|0:0,0:0:0:0:
184,152,26815,1,8,0:0:0:0:
120,104,27115,1,0,0:0:0:0:
56,152,27415,2,0,P|32:208|48:264,2,120,4|0|4,0:0|0:0|0:0,0:0:0:0:
256,192,28615,12,4,31765,0:0:0:0:
384,176,32815,6,0,L|368:256,1,80,0|2,0:0|0:0,0:0:0:0:
304,304,33415,2,0,P|224:312|160:264,1,160,0|8,0:0|0:0,0:0:0:0:
120,200,34315,2,0,L|136:120,1,80,0|2,0:0|0:0,0:0:0:0:
288,72,35215,6,0,P|328:72|368:88,2,80,0|2|0,0:0|0:0|0:0,0:0:0:0:
240,136,36115,2,0,L|224:216,1,80,2|8,0:0|0:0,0:0:0:0:
208,296,36715,1,0,0:0:0:0:
136,336,37015,6,0,P|80:328|40:280,2,120,2|2|2,0:0|0:0|0:0,0:0:0:0:
120,256,38215,2,0,L|152:176,1,80,0|2,0:0|0:0,0:0:0:0:
208,128,38815,1,8,0:0:0:0:
240,200,39115,1,0,0:0:0:0:
304,248,39415,6,0,B|344:288|416:288|464:240|464:240|504:304,2,240,2|2|0,0:0|0:0|0:0,0:0:0:0:
240,200,41515,1,0,0:0:0:0:
160,216,41815,1,4,0:0:0:0:
24,128,42415,6,0,L|96:72,1,80,0|2,0:0|0:0,0:0:0:0:
160,40,43015,2,0,L|192:120,1,80,0|2,0:0|0:0,0:0:0:0:
256,160,43615,1,8,0:0:0:0:
322,114,43915,2,0,L|352:40,1,80,0|2,0:0|0:0,0:0:0:0:
391,195,44815,6,0,L|423:275,1,80,0|2,0:0|0:0,0:0:0:0:
392,344,45415,2,0,P|352:352|312:344,1,80,0|2,0:0|0:0,0:0:0:0:
240,312,46015,1,8,0:0:0:0:
88,360,46615,6,0,P|32:272|88:160,1,240,4|0,0:0|0:0,0:0:0:0:
160,192,47815,2,0,P|248:184|320:152,1,160,2|0,0:0|0:0,0:0:0:0:
386,124,48715,1,0,0:0:0:0:
342,55,49015,6,0,P|191:42|88:160,2,320,4|0|0,0:0|0:0|0:0,0:0:0:0:
386,124,51715,5,4,0:0:0:0:
330,180,52015,2,0,P|386:204|442:180,2,120,0|4|8,0:0|0:0|0:0,0:0:0:0:
294,108,53215,1,0,0:0:0:0:
232,160,53515,1,8,0:0:0:0:
184,96,53815,2,0,P|128:72|75:92,1,120,2|0,0:0|0:0,0:0:0:0:
32,160,54565,2,0,L|8:240,1,80,0|8,0:0|0:0,0:0:0:0:
192,320,55615,6,0,P|256:336|312:328,2,120,0|0|8,0:0|0:0|0:0,0:0:0:0:
176,240,56815,2,0,P|112:224|59:231,2,120,0|8|0,0:0|0:0|0:0,0:0:0:0:
256,256,58015,1,0,0:0:0:0:
328,224,58315,1,8,0:0:0:0:
392,272,58615,6,0,P|408:216|376:160,1,120,2|0,0:0|0:0,0:0:0:0:
312,120,59365,1,0,0:0:0:0:
250,170,59665,2,0,P|197:197|141:181,1,120,8|0,0:0|0:0,0:0:0:0:
64,160,60415,2,0,L|16:320,1,160,8|0,0:0|0:0,0:0:0:0:
88,352,61315,5,4,0:0:0:0:
160,320,61615,2,0,P|208:288|272:296,2,120,0|4|8,0:0|0:0|0:0,0:0:0:0:
96,272,62815,2,0,L|72:192,1,80,0|8,0:0|0:0,0:0:0:0:
104,120,63415,1,2,0:0:0:0:
176,160,63715,2,0,P|232:184|288:168,1,120,8|0,0:0|0:0,0:0:0:0:
352,120,64465,1,4,0:0:0:0:
488,264,65215,6,0,L|416:312,1,80
352,344,65815,2,0,P|272:360|192:344,1,160,4|0,0:0|0:0,0:0:0:0:
160,272,66715,1,8,0:0:0:0:
80,256,67015,2,0,P|64:176|80:96,1,160,4|0,0:0|0:0,0:0:0:0:
120,32,67915,1,8,0:0:0:0:
256,192,68215,12,0,72865,0:0:0:0:
184,248,73615,6,0,P|256:280|328:248,2,160,4|0|0,0:0|0:0|0:0,0:0:0:0:
48,168,75415,6,0,L|48:88,1,80,4|8,0:0|0:0,0:0:0:0:
120,56,76015,2,0,P|184:40|240:56,1,120,0|4,0:0|0:0,0:0:0:0:
296,104,76765,2,0,L|296:184,1,80
392,256,77515,5,8,0:0:0:0:
328,304,77815,2,0,P|256:336|176:312,1,160
152,240,78715,1,8,0:0:0:0:
72,240,79015,2,0,P|40:168|64:88,1,160
112,32,79915,1,8,0:0:0:0:
184,64,80215,6,0,B|232:120|304:96|304:96|320:168,1,200,4|0,0:0|0:0,0:0:0:0:
328,240,81265,1,4,0:0:0:0:
384,296,81565,1,0,0:0:0:0:
440,240,81865,2,0,L|488:128,1,120,0|8,0:0|0:0,0:0:0:0:
432,72,82615,6,0,P|384:40|312:40,1,120
262,89,83365,1,0,0:0:0:0:
192,48,83665,2,0,P|64:80|32:216,1,280,4|0,0:0|0:0,0:0:0:0:
80,272,85015,6,0,L|240:320,1,160,8|0,0:0|0:0,0:0:0:0:
312,336,85915,2,0,L|360:176,1,160,8|0,0:0|0:0,0:0:0:0:
376,104,86815,2,0,L|216:56,1,160,8|0,0:0|0:0,0:0:0:0:
144,56,87715,6,0,P|88:96|104:192,1,160,4|0,0:0|0:0,0:0:0:0:
160,136,88615,2,0,P|232:160|288:232,1,160,8|8,0:0|0:0,0:0:0:0:
312,300,89515,1,8,0:0:0:0:
392,292,89815,2,0,L|488:212,2,120,4|4|4,0:0|0:0|0:0,0:0:0:0:
368,136,91315,6,0,L|312:72,1,80,8|0,0:0|0:0,0:0:0:0:
240,48,91915,1,8,0:0:0:0:
164,76,92215,2,0,L|68:156,2,120,4|4|4,0:0|0:0|0:0,0:0:0:0:
440,344,94315,6,0,L|440:256,1,80,0|4,0:0|0:0,0:0:0:0:
400,192,94915,2,0,L|304:112,1,120,8|0,0:0|0:0,0:0:0:0:
232,144,95665,2,0,P|176:168|120:152,1,120,4|8,0:0|0:0,0:0:0:0:
88,80,96415,1,0,0:0:0:0:
160,40,96715,1,8,0:0:0:0:
240,56,97015,6,0,B|320:96|400:40|400:40|456:152,2,280,4|4|0,0:0|0:0|0:0,0:0:0:0:
200,128,99415,6,0,L|152:248,1,120,8|2,0:0|0:0,0:0:0:0:
232,256,100165,2,0,L|264:176,1,80,8|6,0:0|0:0,0:0:0:0:
320,76,100915,6,0,P|368:116|376:172,1,120,2|2,0:0|0:0,0:0:0:0:
352,248,101665,1,4,0:0:0:0:
256,192,101740,12,4,106465,0:0:0:0:
