osu file format v5

[General]
AudioFilename: Justice to Believe.mp3
AudioLeadIn: 0
PreviewTime: -1
Countdown: 2
SampleSet: Normal
StackLeniency: 0.7
Mode: 0
LetterboxInBreaks: 1
EditorBookmarks: 120640

[Metadata]
Title:Justice to Believe
Artist:Mizuki Nana
Creator:dipsy
Version:Mouse-Breaking
Source:
Tags:

[Difficulty]
HPDrainRate:6
CircleSize:5
OverallDifficulty:5
SliderMultiplier:1.5
SliderTickRate:1

[Events]
//Background and Video events
0,0,"THE MUSEUM_0000.jpg"
//Break Periods
2,12662,14460
2,66002,71031
2,93001,100602
2,117430,119460
//Storyboard Layer 0 (Background)
//Storyboard Layer 1 (Failing)
//Storyboard Layer 2 (Passing)
//Storyboard Layer 3 (Foreground)
//Storyboard Sound Samples
//Background Colour Transformations
3,100,163,162,255

[TimingPoints]
667,428.571428571429,4,2,0,100
15660,428.571428571429,4,1,0,100

[Colours]
Combo1 : 255,128,255
Combo2 : 255,128,0
Combo3 : 0,128,255
Combo4 : 255,255,0

[HitObjects]
121,123,1524,2,0,B|176:92|218:144,4,75
78,165,2595,2,0,B|46:221|40:247|48:283|78:317,1,150
127,310,3238,2,0,B|228:354|291:300,1,150
307,265,3881,1,0
331,248,3988,1,0
354,229,4095,2,2,B|416:168|419:80,1,150
359,80,4738,6,0,B|300:56|250:78,1,75
225,66,5167,2,0,B|132:60|73:112,3,150
56,157,6667,2,0,B|119:218|273:209,1,225
295,222,7417,1,2
312,245,7524,1,2
227,334,7962,5,0
286,342,8177,1,0
345,335,8391,1,0
401,315,8605,2,0,B|354:252|307:236|263:232,1,150
373,163,9452,2,0,B|298:100|240:64|191:68|147:68|108:85|-9:225,1,450
0,248,10845,1,0
15,273,10952,1,0
71,292,11167,1,0
130,287,11381,1,0
183,259,11595,2,0,B|255:224|343:269,1,150
387,281,12248,1,0
372,222,12462,1,0
260,189,15660,5,2
260,189,15767,1,2
260,189,15874,1,2
256,192,16088,12,0,18231
117,151,18874,2,0,B|152:120|208:165,1,75
175,208,19302,2,0,B|232:247|274:199,1,75
281,172,19731,2,0,B|331:164|371:206,6,75
279,111,21231,2,0,B|216:59|128:72,1,150
87,101,21874,1,0
56,152,22088,1,2
56,152,22195,1,2
56,152,22302,1,2
49,211,22517,1,4
256,192,22945,12,0,23587
158,112,24017,1,0
154,171,24231,2,0,B|218:174,4,37.5
154,231,24874,1,0
196,273,25088,1,0
247,303,25302,2,0,B|340:328|408:292,1,150
436,255,25945,1,0
441,195,26160,1,0
446,135,26374,2,0,B|400:47|332:24,1,150
339,88,27017,2,0,B|351:182|290:232,1,150
237,232,27660,1,2
237,232,27767,1,2
237,232,27874,1,2
177,237,28088,2,0,B|116:236|95:268,1,75
112,315,28517,2,0,B|149:352|200:360,1,75
224,320,28945,2,0,B|253:272|280:268,1,75
308,319,29374,2,0,B|348:353|395:339,1,75
404,289,29802,6,0,B|460:268|464:216,1,75
423,191,30231,1,2
423,191,30338,1,2
423,191,30445,1,2
399,135,30660,2,0,B|376:96|320:76,1,75
284,79,31088,2,0,B|238:79,4,37.5
253,130,31731,2,0,B|209:137|187:169,1,75
197,225,32160,2,0,B|162:268|220:296|280:304|317:287,1,150
329,247,32802,1,0
366,293,33017,1,0
413,257,33231,2,0,B|486:212|488:129,1,150
442,95,33874,2,0,B|360:55|271:78,1,150
256,192,34517,12,0,35374
247,308,35802,1,0
215,257,36017,1,0
274,255,36231,1,0
241,204,36445,1,0
184,182,36660,2,0,B|127:151|140:114,1,75
168,76,37088,2,0,B|206:47|252:63,1,75
297,68,37516,1,0
339,111,37731,2,0,B|395:110,6,37.5
388,220,38802,5,4
317,317,39231,5,4
196,315,39660,5,4
117,224,40088,5,4
193,170,40517,6,0,B|256:96|332:199,2,150
98,97,41802,6,0,B|130:64|164:49|200:44,1,112.5
224,38,42231,1,0
285,36,42445,2,0,B|364:39|425:92,1,150
443,145,43088,1,0
478,196,43302,1,0
447,247,43517,1,0
408,292,43731,1,0
378,292,43838,1,0
348,299,43945,2,0,B|315:327|276:307,1,75
258,241,44374,2,0,B|220:169,3,75
278,151,45231,5,0
305,99,45445,1,0
304,68,45552,2,0,B|264:33|210:36,1,75
207,44,45874,2,0,B|128:53|58:113,1,150
33,149,46517,1,0
30,209,46731,1,0
86,229,46945,1,0
145,227,47160,1,0
137,283,47267,2,0,B|184:302|217:283,1,75
215,257,47588,2,0,B|227:172|261:133|298:144|304:213|307:273,1,225
305,321,48338,6,0,B|349:334|389:324,1,75
377,296,48660,2,0,B|454:261|469:186|460:88,1,225
413,68,49517,1,0
353,62,49731,2,0,B|279:44|195:82,1,150
148,94,50374,2,0,B|72:132|38:219,1,150
38,259,51017,2,0,B|91:330|170:334,3,150
210,296,52517,2,0,B|258:250|293:308,10,75
188,239,54874,5,0
189,179,55088,1,0
155,129,55302,1,0
155,129,55410,1,0
155,129,55517,2,2,B|98:131,4,37.5
69,44,56374,1,0
128,44,56588,1,0
187,44,56802,1,0
247,47,57017,1,0
276,51,57124,2,0,B|354:90|382:143|389:203|382:267|362:313|293:326|235:325|199:327,1,412.5
159,327,58517,1,0
99,327,58731,1,0
39,325,58945,2,0,B|-17:226|24:94|234:62,1,375
273,69,60231,2,0,B|288:123|253:166,1,75
327,154,60660,2,0,B|361:213|369:255|341:279|311:296,1,150
301,342,61302,2,0,B|227:344|143:334|105:286|82:238|68:194|47:114,1,375
75,66,62588,6,0,B|142:27|228:43,1,150
225,71,63124,1,0
248,89,63231,2,0,B|377:90|437:136|447:269,1,300
398,297,64302,1,0
370,309,64410,1,0
281,334,64731,1,0
251,334,64838,1,0
222,325,64945,2,0,B|120:366|64:351,2,150
392,321,72231,5,0
346,281,72445,1,0
346,281,72552,1,0
347,280,72660,1,0
306,323,72874,1,0
259,285,73088,1,0
298,239,73302,1,0
238,231,73517,1,0
239,171,73731,1,0
210,162,73838,2,0,B|181:117|181:83|209:41,1,112.5
251,25,74374,2,0,B|288:61|355:47,6,75
331,113,76088,6,0,B|373:82|406:76|439:84,4,112.5
356,170,77588,1,0
416,172,77802,1,0
450,222,78017,1,0
414,270,78231,2,0,B|360:285|320:310|264:318|189:338|138:255|281:157,1,375
275,99,79517,5,0
314,54,79731,2,0,B|377:9|430:54|431:130,1,150
425,158,80374,2,0,B|492:211|484:300,1,150
428,309,81017,1,0
368,300,81231,2,0,B|305:296|272:294|237:310|219:347,3,150
108,320,82945,6,0,B|153:284|128:239,1,75
128,225,83267,2,0,B|102:192|97:141|120:126|129:119|173:95|205:99,1,187.5
258,72,84017,2,0,B|348:55|423:142,1,150
348,151,84660,1,2
271,243,85088,1,2
197,148,85517,1,4
195,148,85945,5,0
255,148,86160,1,0
255,148,86267,1,4
255,147,86374,1,0
315,148,86588,1,0
314,147,86802,1,0
373,157,87017,2,0,B|412:200|397:250,1,75
441,268,87445,1,0
441,266,87552,1,0
385,337,87874,2,0,B|304:362|227:336,1,150
177,329,88517,1,0
116,315,88731,1,0
116,315,88838,1,0
256,192,89588,12,4,92801
409,276,101802,1,2
354,293,102017,1,2
295,292,102231,1,2
237,288,102445,1,2
119,289,102874,2,0,B|97:245|113:211,2,75
121,350,103517,6,0,B|60:340|36:341|21:300|11:262,1,150
13,208,104160,2,0,B|12:149|17:110|66:60,1,150
118,71,104802,2,0,B|168:43|208:64,1,75
249,70,105231,2,0,B|294:81|325:88|381:87|398:67,1,150
405,130,105874,2,0,B|457:172|475:216|469:264,1,150
481,318,106517,1,0
423,330,106731,2,0,B|388:360|352:336,1,75
295,335,107160,1,0
295,215,107588,1,2
380,130,108017,1,2
275,71,108445,1,2
155,64,108874,5,0
95,66,109088,1,0
95,125,109302,1,0
155,121,109517,1,0
128,174,109731,2,0,B|131:228,6,37.5
188,171,110588,6,0,B|255:176|290:196,1,75
321,174,111017,2,0,B|372:185|366:239,1,75
426,232,111445,1,2
428,292,111660,1,2
368,288,111874,1,2
308,289,112088,2,2,B|240:347|210:216,1,150
168,183,112731,1,2
168,183,112838,1,2
168,183,112945,1,2
109,170,113160,2,2,B|62:143|33:173,2,75
138,117,113802,5,0
189,85,114017,1,0
248,85,114231,1,0
296,120,114445,1,0
306,179,114660,2,0,B|252:183,8,37.5
350,189,115731,1,0
327,244,115945,2,0,B|284:258|240:242,2,75
331,304,116588,2,0,B|333:345,6,37.5
269,261,120660,5,0
207,262,120874,1,0
164,220,121088,1,0
164,160,121302,1,0
206,116,121517,1,0
265,116,121731,1,0
307,158,121945,1,0
312,217,122160,1,0
364,188,122374,2,2,B|428:187,2,37.5
364,247,122802,2,2,B|428:246,2,37.5
338,301,123231,2,2,B|402:300,2,37.5
219,321,123874,6,0,B|184:338|134:319,2,75
213,291,124410,2,0,B|215:231|199:200,1,75
219,190,124731,1,0
244,135,124945,1,0
294,101,125160,1,0
278,43,125374,1,0
218,41,125588,1,0
191,94,125802,1,0
159,145,126017,1,0
149,173,126124,1,0
121,226,126338,1,0
106,252,126445,2,0,B|68:271|27:268|11:324|20:364|82:365|138:360|180:341|221:309,1,300
270,307,127517,6,0,B|321:339|354:325,1,75
369,323,127838,2,0,B|416:295|422:250,1,75
431,241,128160,1,0
456,186,128374,1,0
479,130,128588,1,0
425,103,128802,1,0
374,69,129017,2,0,B|339:35|302:43,1,75
252,66,129445,1,0
251,67,129552,1,0
194,87,129767,1,0
193,87,129874,1,2
188,146,130088,1,2
156,196,130302,1,2
216,196,130517,1,2
188,249,130731,5,0
191,308,130945,2,0,B|272:312|363:301|414:249,1,225
459,231,131802,2,0,B|459:139|433:47|379:23,1,225
326,33,132660,2,0,B|245:28|180:71,1,150
130,97,133302,1,0
130,97,133731,2,0,B|49:148|51:230,2,150
158,157,134802,1,0
213,263,135231,1,0
278,162,135660,1,0
307,161,135767,1,0
336,160,135874,6,0,B|387:113|371:74,2,75
379,201,136517,1,2
380,200,136731,1,2
438,210,136945,1,6
438,270,137160,6,0,B|398:304|364:271,2,75
438,270,137695,1,0
438,270,137910,1,0
438,270,138124,2,0,B|376:228|354:208|298:326,1,187.5
249,288,138874,1,0
253,345,139088,2,0,B|197:352|160:319,1,75
150,326,139410,2,0,B|59:302|20:218|6:160|24:91|61:36|132:33|174:64,1,412.5
160,113,140802,1,0
210,79,141017,1,0
230,22,141231,2,0,B|282:11|329:10|400:23|433:52|520:220,1,375
458,232,142517,2,0,B|394:231,2,37.5
438,288,142945,6,0,B|397:352|305:367,1,150
260,338,143588,1,0
261,336,143695,1,0
260,338,143802,2,0,B|167:319|131:288|207:235,1,150
221,208,144445,1,0
183,162,144660,2,0,B|137:119|119:85|118:43|127:13|176:5|227:35,1,225
270,37,145517,2,0,B|358:43|420:86|440:168,1,225
473,209,146374,2,0,B|445:282|370:330|288:326,1,225
267,326,147124,1,0
267,326,147231,1,0
207,319,147445,1,2
91,287,147874,1,0
145,260,148088,6,0,B|113:183|105:106|127:24,1,225
130,42,148838,1,0
130,42,148945,2,0,B|220:27|276:27,2,112.5
124,101,149802,2,0,B|87:138|60:175|56:216|59:260|87:302|160:344|205:348,2,300
173,66,151731,2,0,B|222:65,2,37.5
197,120,152160,1,0
227,171,152374,2,0,B|267:175,4,37.5
272,226,153017,1,0
278,166,153231,6,0,B|299:125|287:75,5,75
350,90,154517,6,0,B|414:89,4,37.5
387,136,155160,1,0
428,179,155374,1,0
386,222,155588,1,0
340,182,155802,1,0
279,179,156017,1,0
279,179,156124,2,0,B|256:128|251:89|198:131,1,112.5
149,141,156660,5,0
119,193,156874,1,0
178,192,157088,1,0
152,246,157302,1,2
150,247,157410,1,2
239,250,157731,1,2
236,309,157945,1,2
296,304,158160,1,2
296,305,158267,1,2
296,301,158374,6,0,B|271:272|267:227,3,75
320,204,159231,1,0
322,144,159445,2,0,B|386:143,2,37.5
320,83,159874,1,0
260,87,160088,1,0
221,133,160302,1,0
194,147,160410,1,0
168,163,160517,2,0,B|117:141|78:150,4,75
135,213,161588,5,0
135,272,161802,1,0
203,330,162124,1,0
204,240,162445,2,0,B|268:239,4,37.5
213,180,163088,1,0
211,120,163302,1,0
211,59,163517,1,2
211,59,163624,1,2
211,59,163731,1,2
270,58,163945,1,2
307,105,164160,1,2
365,143,164374,2,0,B|429:142,4,37.5
362,144,165017,1,0
366,203,165231,5,0
367,262,165445,1,0
340,275,165552,1,0
249,279,165874,2,0,B|229:226|242:189,1,75
232,145,166302,1,0
232,145,166410,2,0,B|211:104|175:90|136:128,1,112.5
81,126,166945,2,0,B|34:126,6,37.5
79,186,167802,1,2
79,246,168017,1,2
138,247,168231,5,0
197,247,168445,1,0
197,247,168552,1,0
197,247,168660,1,0
256,246,168874,1,0
284,298,169088,1,0
313,245,169302,1,0
284,192,169517,1,0
343,195,169731,1,0
342,195,169838,1,0
329,105,170160,6,0,B|279:64|256:46|228:42|194:45,1,150
158,92,170802,1,0
159,91,170910,1,0
159,93,171017,1,0
127,144,171231,1,2
127,203,171445,1,2
180,174,171660,1,2
181,233,171874,1,0
236,210,172088,5,0
236,209,172195,1,0
237,210,172302,1,0
272,258,172517,1,0
331,260,172731,2,0,B|395:259,2,37.5
356,205,173160,1,0
320,156,173374,1,0
260,159,173588,1,0
266,99,173802,2,0,B|330:98,8,37.5
232,48,174874,1,0
202,100,175088,1,2
202,100,175195,1,2
202,100,175302,1,2
182,157,175517,6,0,B|155:126|112:129,2,75
185,217,176160,1,0
185,217,176267,1,0
185,217,176374,2,0,B|179:276|180:311|210:332|266:330|305:307|331:284,1,225
380,309,177231,2,0,B|438:313|472:294|480:258|483:190,1,150
433,188,177874,1,0
397,140,178088,2,0,B|324:112|237:124,4,150
350,178,180017,1,0
352,237,180231,1,0
352,296,180445,1,0
350,296,180552,1,0
352,296,180660,2,0,B|334:345|291:364|240:362|192:352|117:320|64:273|64:230|76:199,1,375
81,149,181945,5,0
83,88,182160,1,0
137,113,182374,2,0,B|151:63|180:45|208:24|249:22,1,150
247,82,183017,1,0
250,141,183231,1,0
251,200,183445,1,0
251,260,183660,1,0
248,319,183874,1,0
248,319,183981,1,0
248,319,184088,1,0
256,192,184302,12,0,186231
