osu file format v9

[General]
AudioFilename: Innocent Starter_.mp3
AudioLeadIn: 0
PreviewTime: 60182
Countdown: 0
SampleSet: Soft
StackLeniency: 0.5
Mode: 0
LetterboxInBreaks: 1

[Editor]
DistanceSpacing: 0.94
BeatDivisor: 4
GridSize: 4

[Metadata]
Title:Innocent Starter
Artist:Mizuki Nana
Creator:terametis
Version:Hard
Source:Mahou Shoujo Lyrical Nanoha
Tags:Apricot Jupiter Collab

[Difficulty]
HPDrainRate:5
CircleSize:4
OverallDifficulty:6
ApproachRate:7
SliderMultiplier:1.7
SliderTickRate:1

[Events]
//Background and Video events
0,0,"iBG.jpg"
//Break Periods
2,95843,109289
//Storyboard Layer 0 (Background)
//Storyboard Layer 1 (Fail)
//Storyboard Layer 2 (Pass)
//Storyboard Layer 3 (Foreground)
//Storyboard Sound Samples
//Background Colour Transformations
3,100,163,162,255

[TimingPoints]
17462,454.545454545455,4,2,1,50,1,0
53598,-100,4,2,1,30,0,0
53825,-100,4,2,1,50,0,0
60189,-100,4,2,1,40,0,0
61098,-100,4,2,1,50,0,1
61552,-100,4,2,1,65,0,1
66552,-100,4,2,1,80,0,1
66666,-100,4,2,1,65,0,1
72007,-100,4,2,1,75,0,1
72462,-100,4,2,1,65,0,1
93598,-100,4,2,1,65,0,0
95643,-100,4,2,1,5,0,0
110189,-100,4,2,1,50,0,0
153825,-100,4,2,1,50,0,1
154052,-100,4,2,1,65,0,1
186552,-100,4,2,1,50,0,0
202007,454.545454545455,4,2,1,55,1,1
202461,-100,4,2,1,70,0,1
212916,-100,4,2,1,80,0,1
213370,-100,4,2,1,70,0,1
233825,-100,4,2,1,55,0,1
234052,-100,4,2,1,65,0,1
234734,-100,4,2,1,50,0,0
236552,-100,4,2,1,40,0,0
238370,-100,4,2,1,30,0,0
240188,-100,4,2,1,20,0,0
241097,-100,4,2,1,10,0,0
242007,-100,4,2,1,50,0,0

[Colours]
Combo1 : 255,255,255
Combo2 : 255,255,0

[HitObjects]
184,192,17461,6,0,B|212:152|256:140|300:152|328:192,1,170,2|0
256,232,18143,2,0,B|284:272|256:312,1,85,0|0
184,272,18598,1,0
184,192,18825,1,0
256,152,19052,1,0
256,232,19280,6,0,B|284:272|328:284|372:272|400:232,1,170,2|0
328,192,19962,2,0,B|352:152|328:108,1,85,0|0
256,152,20416,2,0,B|172:152,1,85,0|0
92,152,20871,1,0
132,84,21098,6,0,B|160:44|204:32|248:44|276:84,1,170,2|0
272,164,21780,1,0
272,244,22007,2,0,B|272:288|316:312,1,85,0|0
352,244,22462,1,0
352,164,22689,1,0
432,164,22916,6,0,B|472:192|484:236|472:280|432:308,1,170,2|0
392,236,23598,1,0
352,308,23825,2,0,B|184:308,1,170,0|0
104,308,24507,1,0
144,240,24734,5,2
356,140,25189,1,0
316,72,25416,1,0
276,140,25643,1,0
316,208,25871,1,0
396,208,26098,1,0
436,140,26325,1,0
356,140,26552,5,2
196,144,27007,1,0
156,212,27234,1,0
76,212,27462,1,0
116,144,27689,1,0
156,212,27916,1,0
116,280,28143,1,0
196,280,28371,6,0,B|224:320|268:332|312:320|340:280,1,170,2|0
340,200,29052,2,0,B|340:112,1,85
420,116,29507,2,0,B|460:144|472:188|460:232|420:260,1,170,0|0
340,260,30189,5,2
256,260,30416,2,0,B|156:260,1,85
92,256,30871,2,0,B|-16:180|200:120|84:40,1,255,0|8
256,40,32007,6,0,B|268:92|324:120|352:180,1,170,4|8
352,260,32689,2,0,B|352:352,1,85,0|0
432,256,33143,2,0,B|520:256,1,85,0|8
432,176,33598,1,0
352,176,33825,6,0,B|300:164|272:108|212:80,1,170,2|8
132,80,34507,1,0
172,148,34734,2,0,B|172:192|128:216,1,85,0|0
48,216,35189,2,0,B|20:256|48:296,1,85,8|0
128,296,35643,6,0,B|172:332|244:332|288:296,1,170,2|8
288,216,36325,1,0
288,136,36552,2,0,B|332:136|356:92,2,85,0|0|8
208,136,37234,1,0
128,136,37461,6,0,B|56:136|44:216,2,127.5,2|0|0
208,136,38371,2,0,B|208:48,1,85
288,144,38825,2,0,B|288:188|328:216,1,85,8|0
368,144,39280,6,0,B|408:172|420:216|408:260|368:288,1,170,2|8
288,288,39961,1,0
208,288,40189,2,0,B|124:288,1,85
208,208,40643,2,0,B|292:208,1,85,8|0
208,128,41098,6,0,B|164:92|92:92|48:128,1,170,2|8
48,208,41780,1,0
48,288,42007,2,0,B|48:332|92:356,1,85,0|0
128,288,42461,2,0,B|212:288,1,85,8|0
128,208,42916,6,0,B|92:164|92:92|128:48,1,170,2|8
208,52,43598,1,0
204,132,43825,2,0,B|288:132,1,85,0|0
368,132,44280,2,0,B|396:172|368:212,1,85,8|0
288,212,44734,6,0,B|288:296,2,85,2|0|8
288,132,45416,2,0,B|288:88|244:64,1,85,0|2
204,132,45871,2,0,B|120:132,2,85,8|8|0
288,132,46552,6,0,B|328:160|340:204|328:248|288:276,1,170,4|8
208,276,47234,1,0
128,276,47461,2,0,B|128:360,2,85,0|0|8
128,196,48143,1,0
128,116,48371,6,0,B|180:96|240:144|296:116,1,170,2|8
376,116,49052,1,0
456,116,49280,2,0,B|456:72|504:52,2,85,0|0|8
456,196,49961,1,0
456,276,50189,6,0,B|428:316|384:328|340:316|312:276,1,170,2|8
312,196,50871,1,0
312,116,51098,2,0,B|360:116|380:72,2,85,0|0|8
232,116,51780,1,0
152,116,52007,6,0,B|112:144|100:188|112:232|152:260,1,170,2|8
232,260,52689,1,0
192,188,52916,1,0
272,188,53143,2,0,B|316:188|340:144,1,85,0|8
272,112,53598,1,8
272,88,53711,1,8
272,64,53825,5,4
192,64,54052,1,0
112,64,54280,2,0,B|84:104|112:144,1,85,8|0
192,222,54734,2,0,B|220:184|192:144,1,85,0|0
112,223,55189,2,0,B|84:264|111:303,1,85,8|0
192,300,55643,5,2
232,232,55871,1,0
272,300,56098,2,0,B|312:280|312:232,1,85,8|0
312,152,56552,2,0,B|396:152,2,85,0|0|8
232,152,57234,1,0
152,152,57461,6,0,B|112:180|100:224|112:268|152:296,1,170,4|8
232,296,58143,1,0
256,296,58257,1,0
280,296,58371,1,2
360,296,58598,1,2
400,224,58825,2,0,B|448:224,2,42.5,8|0|8
320,224,59280,6,0,B|264:224|264:224|248:164|180:152,1,170,12|8
104,152,59961,1,0
24,152,60189,2,0,B|24:88,2,42.5,8|8|8
24,232,60643,1,8
28,256,60757,1,8
36,272,60871,1,0
56,284,60984,1,0
76,288,61098,6,0,B|128:308|188:260|244:288,1,170,4|8
316,316,61780,1,0
396,316,62007,2,0,B|396:376,2,42.5,0|8|0
396,236,62461,2,0,B|340:172,1,85,8|0
260,172,62916,6,4,B|260:80,2,85,2|0|8
220,240,63598,1,0
140,240,63825,2,0,B|140:304,2,42.5,0|8|0
92,176,64280,2,0,B|64:136|92:96,1,85,8|0
160,60,64734,5,4
228,96,64961,1,0
232,176,65189,2,0,B|316:176,1,85,8|0
396,176,65643,2,0,B|396:124,2,42.5,0|8|0
396,256,66098,2,0,B|396:304|356:324,1,85,8|0
276,324,66552,5,2
116,324,67007,1,8
116,164,67461,2,0,B|56:164,2,42.5,0|8|0
196,164,67916,1,8
220,164,68030,1,0
244,164,68143,1,0
268,164,68257,1,0
292,164,68371,6,0,B|332:192|344:236|332:280|292:308,1,170,4|8
212,308,69052,1,0
212,228,69280,1,0
212,204,69393,1,8
212,180,69507,1,0
212,100,69734,2,0,B|212:52|252:32,1,85,8|0
292,104,70189,6,0,B|343:123|403:75|460:104,1,170,2|8
416,172,70871,1,0
460,240,71098,1,0
460,264,71211,1,8
460,288,71325,1,0
392,332,71552,1,8
372,340,71666,1,0
348,344,71780,1,0
324,340,71893,1,0
304,332,72007,6,0,B|252:316|252:240|168:240,1,170,6|8
168,160,72689,1,0
200,88,72916,1,0
228,88,73030,1,8
256,88,73143,1,0
336,88,73371,2,0,B|336:36,2,42.5,8|0|0
384,148,73825,5,12
384,172,73939,1,0
384,196,74052,1,0
384,220,74166,1,8
384,244,74280,1,8
340,312,74507,2,0,B|312:352|268:364|224:352|196:312,1,170,6|8
152,244,75189,1,8
152,220,75302,1,8
152,196,75416,1,0
152,172,75530,1,0
152,148,75643,6,0,B|152:84|152:84|152:68|184:20|240:32,1,170,4|8
284,92,76325,1,0
364,92,76552,2,0,B|364:16,2,42.5,0|8|0
364,172,77007,2,0,B|308:235,1,85,8|0
228,236,77461,6,4,B|228:328,2,85,2|0|8
228,156,78143,1,0
228,76,78371,2,0,B|288:76,2,42.5,0|8|0
148,72,78825,2,0,B|92:135,1,85,8|0
88,216,79280,6,4,B|172:216,1,85,4|0
252,216,79734,2,0,B|252:264|292:284,1,85,8|0
336,216,80189,1,0
376,216,80302,1,8
416,216,80416,1,0
416,136,80643,2,0,B|359:72,1,85,8|0
280,72,81098,5,4
120,72,81552,1,8
120,232,82007,2,0,B|60:232,2,42.5,0|8|0
200,232,82461,1,12
228,232,82575,1,0
256,232,82689,1,0
284,232,82802,1,0
312,232,82916,6,0,B|351:204|363:160|351:116|311:88,1,170,4|8
232,88,83598,1,0
232,168,83825,1,0
232,196,83939,1,8
232,224,84052,1,0
232,304,84280,2,0,B|232:352|272:372,1,85,8|0
312,304,84734,6,0,B|400:304,1,85,4|0
312,224,85189,2,0,B|312:176|272:156,1,85,8|0
232,224,85643,2,0,B|104:224,2,127.5,4|8|8
272,224,86439,1,0
312,224,86552,6,0,B|351:197|363:153|351:109|312:81,1,170,4|8
232,80,87234,2,0,B|192:112|192:112|72:112,1,170,4|8
72,192,87916,2,0,B|190:192|190:192|230:224,1,170,8|4
280,288,88598,5,0
328,224,88825,1,8
408,224,89052,2,0,B|447:197|459:153|447:109|408:81,1,170,4|8
328,80,89734,2,0,B|243:80,1,85,8|0
240,160,90189,6,0,B|196:232|196:232|112:232,1,170,4|8
28,232,90871,2,0,B|56:308|56:308|144:308,1,170,0|0
224,308,91552,2,0,B|264:308|264:308|328:196,1,170,8|0
368,124,92234,6,0,B|452:124,2,85,0|8|0
288,124,92916,1,4
208,124,93143,2,0,B|208:68,2,42.5,8|8|0
208,204,93598,1,4
256,192,93712,12,0,95643
256,40,110189,5,4
256,40,110643,2,0,B|256:92|216:116,1,85,2|0
188,140,110984,2,0,B|152:204|188:260,1,127.5,2|0
248,204,111552,1,2
320,244,111780,2,0,B|412:244,1,85,0|2
405,244,112462,5,2
360,176,112689,1,0
296,224,112916,1,2
220,192,113143,2,0,B|168:192,1,42.5
136,192,113371,2,0,B|108:152|136:112,2,85,2|0|2
256,32,114280,5,0
256,192,114734,1,2
256,32,115189,1,0
256,112,115416,1,2
256,192,115643,2,0,B|176:240|88:192,2,170,0|2|0
256,112,116780,1,2
256,192,117007,2,0,B|336:240|424:192,1,170,0|2
256,272,117916,6,0,B|236:320|192:324,1,85,2|0
172,356,118257,2,0,B|160:288|92:256,1,127.5,2|0
172,356,118825,1,2
240,312,119052,2,0,B|328:312,1,85,0|2
420,184,119734,5,2
420,184,119962,1,0
360,128,120189,2,0,B|328:96|280:96,1,85,2|0
420,184,120643,2,0,B|452:216|500:216,1,85,2|0
360,128,121098,1,2
256,352,121552,5,0
256,192,122007,1,2
256,352,122462,1,0
256,272,122689,1,2
256,192,122916,2,0,B|176:144|88:192,2,170,0|2|0
256,272,124052,1,2
256,192,124280,2,0,B|336:144|424:192,1,170,0|4
256,112,125189,5,8
184,152,125416,2,0,B|140:152,2,42.5,0|0|0
256,192,125871,2,0,B|296:216|336:192,1,85,0|8
408,152,126325,1,0
480,192,126552,1,0
256,192,127007,5,8
176,192,127234,1,0
148,164,127348,1,0
124,132,127462,1,0
52,168,127689,1,0
108,228,127916,2,0,B|196:228,1,85,8|0
276,228,128371,2,0,B|324:148|276:64,1,170,0|8
216,116,129052,1,0
156,64,129280,6,0,B|64:64,1,85
92,144,129734,2,0,B|7:144,1,85,8|0
92,240,130189,2,0,B|8:240,1,85
156,320,130643,2,0,B|71:320,1,85,8|0
216,268,131098,1,0
216,268,131325,1,0
280,320,131552,2,0,B|326:238|278:158,1,170,8|0
120,192,132462,5,8
192,156,132689,2,0,B|236:156,1,42.5
276,156,132916,2,0,B|308:196|276:236,1,85
220,296,133371,1,8
277,233,133598,2,0,B|365:233,1,85
362,233,134280,5,8
290,269,134507,2,0,B|246:269,1,42.5
206,269,134734,2,0,B|174:229|206:189,1,85
262,129,135189,1,8
205,192,135416,2,0,B|117:192,1,85,0|0
256,92,136098,5,8
256,292,136552,1,0
256,92,137007,1,8
256,92,137234,1,0
216,168,137462,6,0,B|200:212|156:224,1,85
136,140,137916,1,8
56,292,138143,1,0
224,268,138371,2,0,B|312:268,1,85,0|8
464,200,138825,2,0,B|380:200,1,85,8|0
292,200,139280,6,0,B|224:152|144:248|40:192,2,255,4|2|8
368,240,140871,1,0
424,176,141098,2,0,B|456:140|500:140,2,85,0|0|8
368,240,141780,2,0,B|304:312|212:284,1,170
144,332,142462,1,8
144,332,142689,1,0
214,284,142916,2,0,B|220:192|132:140,1,170,2|8
116,220,143598,2,0,B|208:225|260:137,1,170,2|0
336,172,144280,1,8
336,172,144507,1,0
388,240,144734,6,0,B|424:276|416:320,1,85,0|0
336,172,145189,2,0,B|300:136|308:92,1,85,8|0
392,108,145643,1,2
392,108,145871,1,0
232,164,146098,1,0
232,164,146211,1,0
232,164,146325,1,4
188,236,146552,5,0
116,192,146780,2,0,B|28:192,1,85,0|8
188,236,147234,2,0,B|268:284|352:236,1,170
348,152,147916,1,8
348,68,148143,2,0,B|268:20|184:68,1,170
124,124,148825,2,0,B|92:160|48:160,2,85,8|0|0
196,168,149507,5,0
224,248,149734,1,8
140,228,149961,1,0
196,168,150189,2,0,B|240:120|308:112,1,127.5
348,108,150643,1,8
376,188,150871,1,0
352,224,150984,1,0
324,256,151098,2,0,B|296:296|248:296,1,85
168,296,151552,2,0,B|120:296,2,42.5,8|0|8
256,148,152007,5,4
256,148,152916,6,0,B|256:100,2,42.5,8|0|8
256,232,153371,1,8
224,260,153484,1,2
180,264,153598,1,0
140,244,153711,1,2
104,220,153825,6,0,B|68:188|24:196,1,85,4|0
44,280,154280,2,0,B|80:312|124:304,1,85,8|0
164,288,154621,1,2
200,264,154734,2,0,B|240:240|284:248,1,85,0|0
364,264,155189,2,0,B|408:272|448:252,1,85,8|0
380,96,155643,5,4
316,152,155871,1,0
280,132,155984,1,0
252,104,156098,1,10
180,144,156325,1,0
148,164,156439,1,0
116,180,156552,2,0,B|24:180,1,85,0|2
80,252,157007,2,0,B|172:252,1,85,8|0
240,296,157461,1,4
340,160,157689,5,2
356,200,157802,1,0
360,244,157916,2,0,B|360:292|324:320,1,85,8|0
276,248,158371,1,0
200,288,158598,2,0,B|156:288,2,42.5,2|0|8
276,248,159052,6,0,B|320:168|272:84,1,170,2|2
208,140,159734,1,8
128,112,159961,2,0,B|40:112,1,85,2|0
43,112,160302,1,0
43,112,160416,1,8
44,196,160643,1,8
48,240,160757,1,2
64,280,160871,1,0
100,304,160984,1,2
140,320,161098,6,0,B|228:352|320:308,1,170,4|8
256,244,161780,1,0
284,164,162007,2,0,B|284:116,2,42.5,0|8|0
200,144,162461,2,0,B|156:128|116:144,1,85,8|0
52,88,162916,1,4
16,164,163143,1,0
60,236,163371,2,0,B|104:316|200:320,1,170,8|0
256,256,164052,1,0
316,316,164280,1,8
316,316,164393,1,0
316,316,164507,1,0
384,264,164734,6,0,B|392:168|308:120,1,170,4|8
240,168,165416,2,0,B|156:168|96:168,1,127.5,4|0
68,168,165871,1,2
28,92,166098,1,8
108,244,166325,2,0,B|168:316|260:300,1,170,4|0
256,192,167007,1,8
404,140,167234,2,0,B|344:68|252:84,1,170,12|0
180,124,167916,1,8
148,152,168030,1,2
132,192,168143,1,0
132,236,168257,1,2
140,276,168371,6,0,B|156:324|204:328,1,85,4|0
220,244,168825,1,8
292,288,169052,1,2
292,288,169166,1,0
292,288,169280,2,0,B|316:248|292:208,1,85
220,244,169734,2,0,B|136:244,1,85,8|0
68,192,170189,1,0
192,80,170416,5,2
216,116,170530,1,0
228,156,170643,2,0,B|248:204|216:244,1,85,8|0
148,192,171098,5,0
256,300,171325,1,0
364,192,171552,1,8
256,84,171780,1,0
256,192,172007,5,0
316,132,172234,1,0
360,124,172348,1,0
404,132,172461,2,0,B|448:140|476:180,1,85,8|0
484,260,172916,1,0
316,220,173143,2,0,B|264:220,2,42.5,0|0|8
316,304,173598,6,0,B|236:348|152:300,1,170,2|2
188,224,174280,2,0,B|220:192|224:144,1,85,8|0
136,156,174734,1,0
136,156,174848,1,0
136,156,174961,1,8
72,212,175189,1,8
104,240,175302,1,2
148,240,175416,1,0
188,224,175530,1,2
216,192,175643,6,0,B|256:112|356:112,1,170,4|8
408,180,176325,1,0
380,260,176552,2,0,B|380:308,2,42.5,0|8|0
296,280,177007,2,0,B|252:296|212:280,1,85,8|0
256,208,177461,5,0
128,320,177689,1,0
60,164,177916,2,0,B|104:84|200:80,1,170,8|0
256,144,178598,1,0
328,100,178825,1,8
328,100,178939,1,0
328,100,179052,1,0
360,180,179280,6,0,B|408:260|360:344,1,170,4|8
152,204,179961,2,0,B|104:124|152:40,1,170,4|0
256,192,180643,1,4
256,192,181098,1,4
256,276,181325,6,0,B|256:360,2,85,0|8|4
256,108,182234,2,0,B|256:24,2,85,0|8|0
256,192,182916,6,0,B|176:240|92:192,1,170,4|8
256,192,183598,2,0,B|336:144|420:192,1,170,4|0
256,192,184280,1,4
256,192,184734,1,4
256,192,185189,6,0,B|256:280,2,85,2|0|0
256,112,185871,2,0,B|256:64,2,42.5,0|8|0
256,192,186325,1,0
256,272,186552,6,0,B|283:311|327:323|371:311|399:272,1,170,4|8
400,192,187234,1,0
400,112,187461,2,0,B|452:112,2,42.5,0|8|0
320,112,187916,2,0,B|320:64|280:44,1,85,8|0
240,112,188371,2,0,B|212:96|212:96|160:96,2,85,2|0|8
280,180,189052,1,0
280,260,189280,2,0,B|360:260,2,42.5,0|8|0
200,260,189734,2,0,B|200:308|160:328,1,85,8|0
116,260,190189,5,4
160,192,190416,1,0
240,192,190643,1,8
320,192,190871,1,0
400,192,191098,2,8,B|400:244,2,42.5,0|8|0
400,112,191552,2,0,B|441:91|441:43,1,85,8|0
360,44,192007,5,2
316,112,192234,2,0,B|316:160|276:180,1,85,0|8
196,180,192689,2,0,B|196:228|156:248,1,85,0|0
76,248,193143,1,0
92,328,193371,1,8
124,328,193484,1,0
156,328,193598,1,0
188,328,193711,1,0
220,328,193825,6,0,B|248:296|248:296|312:292|352:232,1,170,4|10
396,164,194507,1,0
352,100,194734,1,0
320,100,194848,1,8
288,100,194961,2,0,B|260:80|260:80|208:80,1,85,2|4
128,80,195416,2,0,B|128:24,2,42.5,0|8|4
128,240,196098,5,8
256,336,196552,1,0
256,336,196666,1,8
256,336,196780,1,0
336,336,197007,2,0,B|360:304|360:304|404:304,1,85,8|0
484,304,197461,6,0,B|524:220|488:140,1,170,4|8
412,160,198143,1,0
336,140,198371,1,0
336,140,198484,1,8
336,140,198598,1,0
356,216,198825,2,0,B|356:264|316:284,1,85,8|0
236,284,199280,6,0,B|140:284,1,85,2|0
116,208,199734,2,0,B|200:208,1,85,4|0
236,132,200189,2,0,B|152:132,1,85,4|0
116,60,200643,1,8
148,60,200757,1,8
180,60,200871,1,8
212,60,200984,1,8
404,64,202007,6,0,B|392:76|392:76|412:84|412:84|396:92|396:92|408:104|408:104|400:112|400:112|404:128|404:128|404:208,1,170,4|8
404,276,202688,1,0
404,276,202802,1,0
324,276,203029,1,8
324,276,203143,1,0
324,200,203370,2,0,B|324:152|284:132,1,85,8|0
204,132,203825,2,0,B|204:36,2,85,2|0|8
244,200,204506,2,0,B|288:200,1,42.5
204,268,204847,2,0,B|160:268,1,42.5
244,332,205188,2,0,B|332:332,1,85,8|0
376,264,205643,5,4
456,264,205870,1,0
376,264,206097,1,8
336,192,206325,2,0,B|280:192,1,42.5,0|0
416,192,206666,2,0,B|472:192,1,42.5,8|0
376,120,207006,1,8
296,120,207234,1,0
216,120,207461,5,4
380,300,207916,1,8
132,300,208370,1,0
132,300,208484,1,8
132,300,208597,1,0
132,220,208825,2,0,B|132:168,3,42.5,8|0|0|0
132,136,209279,6,0,B|160:96|204:84|248:96|276:136,1,170,4|8
272,216,209961,1,0
272,296,210188,2,0,B|208:296,2,42.5,0|8|0
352,296,210643,2,0,B|352:248|392:228,1,85,8|0
432,228,210984,1,0
472,228,211097,6,0,B|520:156|520:156|472:84,1,170,4|8
392,88,211779,1,0
312,88,212006,2,0,B|312:32,2,42.5,0|8|0
312,168,212461,1,8
312,208,212575,1,0
312,248,212688,1,0
312,288,212802,1,0
312,328,212916,6,0,B|284:368|240:380|196:368|168:328,1,170,6|8
240,288,213597,2,0,B|280:260|292:216|280:172|240:144,1,170,12|8
160,148,214279,2,0,B|160:68,2,42.5,8|0|0
160,228,214734,6,0,B|96:228,2,42.5,12|0|0
200,228,215075,1,0
240,228,215188,2,0,B|364:228,1,85,8|4
408,92,215870,1,0
328,92,216097,2,0,B|276:92,3,42.5,8|8|0|0
244,92,216552,6,0,B|192:92|192:92|132:92|116:168,1,170,4|8
116,248,217234,2,0,B|48:248,2,42.5
196,248,217688,1,0
276,248,217916,2,0,B|276:296|316:316,1,85,8|0
356,248,218370,5,4
436,248,218597,2,0,B|436:200|396:180,1,85,0|8
316,180,219052,2,0,B|316:132,1,42.5
236,180,219393,2,0,B|236:236,1,42.5
156,180,219734,2,0,B|156:132|116:112,1,85,8|0
76,180,220188,5,4
116,252,220416,1,0
196,252,220643,1,8
236,180,220870,2,0,B|236:132,1,42.5
320,180,221211,2,0,B|320:236,1,42.5
400,180,221552,1,8
436,252,221779,5,0
400,324,222006,1,4
256,252,222461,1,8
112,324,222916,2,0,B|112:376,2,42.5,0|8|0
112,244,223370,1,8
112,212,223484,1,4
112,180,223597,1,0
112,148,223711,1,8
112,116,223825,6,0,B|140:76|184:64|228:76|256:116,1,170,12|8
256,196,224506,2,0,B|284:236|328:248|372:236|400:196,1,170,0|0
400,116,225188,1,8
400,36,225416,1,0
320,36,225643,6,0,B|320:84|280:104,1,85,4|0
240,36,226097,2,0,B|152:36,1,85,12|0
76,36,226552,1,4
76,68,226666,1,0
76,100,226779,1,8
76,132,226893,1,8
76,164,227006,2,8,B|76:232,3,42.5
76,240,227461,6,0,B|104:280|148:292|192:280|220:240,1,170,12|8
220,152,228143,2,0,B|248:112|292:100|336:112|364:152,1,170,12|8
364,240,228825,1,8
256,352,229279,6,0,B|176:320|176:320|176:232,1,170,4|8
256,236,229961,2,0,B|340:208|336:100,1,170,4|8
260,72,230643,1,8
260,72,230870,1,0
180,52,231097,6,0,B|128:52|128:52|60:52|40:116,1,170,4|8
40,196,231779,1,0
120,196,232006,2,0,B|120:248,2,42.5,0|8|0
120,116,232461,1,8
152,116,232575,1,0
184,116,232688,1,0
216,116,232802,1,0
248,116,232916,6,0,B|248:68|288:48,1,85,2|0
328,116,233370,2,0,B|384:180,1,85,8|0
432,244,233825,2,0,B|432:292|392:312,1,85,4|8
360,312,234166,1,8
328,312,234279,1,8
296,312,234393,1,8
264,312,234506,1,8
232,312,234620,1,8
200,312,234734,1,4
256,192,234847,12,4,242006
