osu file format v13

[General]
AudioFilename: Innocent Starter (TV Size).mp3
AudioLeadIn: 1500
PreviewTime: 63424
Countdown: 0
SampleSet: Soft
StackLeniency: 0.7
Mode: 0
LetterboxInBreaks: 0
WidescreenStoryboard: 0

[Editor]
Bookmarks: 45794,46703,49658,49885,51476,51703,53294
DistanceSpacing: 1.2
BeatDivisor: 4
GridSize: 8
TimelineZoom: 1

[Metadata]
Title:Innocent Starter (TV Size)
TitleUnicode:Innocent Starter (TV Size)
Artist:Mizuki Nana
ArtistUnicode:Mizuki Nana
Creator:KuronumaSawako
Version:Hard
Source:Mahou Shoujo Lyrical Nanoha
Tags:takamichi nanoha testarossa fate seven arcs
BeatmapID:170508
BeatmapSetID:55670

[Difficulty]
HPDrainRate:5
CircleSize:4
OverallDifficulty:6
ApproachRate:7
SliderMultiplier:1.4
SliderTickRate:2

[Events]
//Background and Video events
0,0,"3714766-9471116273-29bb5.jpg",0,0
//Break Periods
//Storyboard Layer 0 (Background)
//Storyboard Layer 1 (Fail)
//Storyboard Layer 2 (Pass)
//Storyboard Layer 3 (Foreground)
//Storyboard Sound Samples
//Background Colour Transformations
3,100,163,162,255

[TimingPoints]
4088,454.545454545455,4,2,1,35,1,0
20451,-100,4,2,1,45,0,0
34997,-100,4,2,1,55,0,0
64088,-100,4,2,1,75,0,1
78519,-100,4,2,1,75,0,0
78633,-100,4,2,1,75,0,1
96815,-100,4,2,1,75,0,0
102724,-100,4,2,1,5,0,0

[Colours]
Combo1 : 254,1,77
Combo2 : 239,224,44

[HitObjects]
80,192,4088,6,0,B|112:264|200:264,1,140,2|8,0:0|0:0,0:0:0:0:
250,323,4769,2,0,B|306:267,1,70,2|0,0:0|0:0,0:0:0:0:
384,272,5224,2,0,B|400:200,1,70,0|8,0:0|0:0,0:0:0:0:
457,145,5678,1,2,0:0:0:0:
400,80,5906,2,0,B|296:32|192:72,1,210,2|2,0:0|0:0,0:0:0:0:
72,168,7042,1,2,0:0:0:0:
72,168,7269,2,0,B|48:240,1,70,8|0,0:0|0:0,0:0:0:0:
80,312,7724,6,0,B|144:352,1,70,4|0,0:0|0:0,0:0:0:0:
216,320,8178,1,8,0:0:0:0:
296,352,8406,2,0,B|344:280|304:200,1,140,2|0,0:0|0:0,0:0:0:0:
368,160,9088,2,0,B|408:160|432:120,1,70,8|0,0:0|0:0,0:0:0:0:
408,40,9542,2,0,B|448:16,4,35,2|0|2|0|8,0:0|0:0|0:0|0:0|0:0,0:0:0:0:
336,80,10224,2,0,B|288:112|224:80,1,105
192,64,10678,1,2,0:0:0:0:
192,64,10906,1,8,0:0:0:0:
120,104,11133,2,0,B|96:136|96:184,1,70,2|4,0:0|0:0,0:0:0:0:
144,240,11588,5,2,0:0:0:0:
216,272,11815,1,8,0:0:0:0:
288,240,12042,2,0,B|360:216|432:248,1,140,2|0,0:0|0:0,0:0:0:0:
488,184,12724,2,0,B|432:128,1,70,8|0,0:0|0:0,0:0:0:0:
368,88,13178,2,0,B|264:48|160:88,1,210,2|2,0:0|0:0,0:0:0:0:
264,320,14315,1,0,0:0:0:0:
264,320,14542,1,8,0:0:0:0:
264,320,14997,6,0,B|264:240,1,70,4|0,0:0|0:0,0:0:0:0:
264,166,15451,2,0,B|264:86,1,70,8|2,0:0|0:0,0:0:0:0:
200,40,15906,2,0,B|267:-3|332:48,1,140,0|8,0:0|0:0,0:0:0:0:
400,96,16588,1,2,0:0:0:0:
472,160,16815,6,0,B|448:224,1,70,4|0,0:0|0:0,0:0:0:0:
448,304,17269,2,0,B|384:344,1,70,8|0,0:0|0:0,0:0:0:0:
256,240,17951,1,2,0:0:0:0:
256,192,18178,12,0,19769,0:0:0:0:
256,80,20451,6,0,B|256:224,1,140,4|8,0:0|0:0,0:0:0:0:
256,304,21133,2,0,B|224:336,1,35,2|0,0:0|0:0,0:0:0:0:
104,328,21588,2,0,B|56:248,1,70,2|8,0:0|0:0,0:0:0:0:
67,184,22042,1,0,0:0:0:0:
120,120,22269,6,0,B|192:80|256:128,1,140,4|8,0:0|0:0,0:0:0:0:
320,176,22951,1,2,0:0:0:0:
320,176,23065,2,0,B|376:192|440:168,1,105,0|2,0:0|0:0,0:0:0:0:
488,216,23633,2,0,B|448:280,1,70,8|0,0:0|0:0,0:0:0:0:
391,334,24088,6,0,B|327:374|247:334,1,140,4|8,0:0|0:0,0:0:0:0:
176,344,24769,2,0,B|200:272|168:208,1,140,2|0,0:0|0:0,0:0:0:0:
120,136,25451,1,8,0:0:0:0:
120,136,25678,1,0,0:0:0:0:
168,72,25906,6,0,B|204:52|240:77,1,70,4|0,0:0|0:0,0:0:0:0:
312,112,26360,1,8,0:0:0:0:
392,80,26588,2,0,B|440:32|440:32|520:32,2,140,2|0|2,0:0|0:0|0:0,0:0:0:0:
376,160,27724,5,4,0:0:0:0:
280,296,28178,2,0,B|244:314|199:291,1,70,8|0,0:0|0:0,0:0:0:0:
176,272,28519,2,0,B|144:224|168:152,1,105,2|0,0:0|0:0,0:0:0:0:
184,88,29088,1,8,0:0:0:0:
184,88,29315,1,2,0:0:0:0:
256,40,29542,6,0,B|326:17|396:47,1,140,4|8,0:0|0:0,0:0:0:0:
464,88,30224,1,2,0:0:0:0:
464,88,30338,2,0,B|400:184,1,105,0|2,0:0|0:0,0:0:0:0:
405,259,30906,2,0,B|387:297|355:309,1,70,8|0,0:0|0:0,0:0:0:0:
328,232,31360,6,0,B|263:267|193:234,1,140,4|8,0:0|0:0,0:0:0:0:
136,296,32042,2,0,B|88:232|120:160,1,140,2|0,0:0|0:0,0:0:0:0:
152,88,32724,1,8,0:0:0:0:
152,88,32951,1,2,0:0:0:0:
224,40,33178,6,0,B|368:40,1,140,4|8,0:0|0:0,0:0:0:0:
408,112,33860,2,0,B|264:112,1,140,2|0,0:0|0:0,0:0:0:0:
224,187,34542,1,8,0:0:0:0:
164,127,34769,2,0,B|124:127,2,35,2|0|4,0:0|0:0|0:0,0:0:0:0:
320,184,35451,5,8,0:0:0:0:
384,128,35678,1,2,0:0:0:0:
384,128,35792,2,0,B|440:128|440:128|480:168,1,105,0|2,0:0|0:0,0:0:0:0:
408,216,36360,1,8,0:0:0:0:
344,272,36588,1,2,0:0:0:0:
272,320,36815,6,0,B|200:352|128:320,1,140,4|8,0:0|0:0,0:0:0:0:
64,280,37497,1,2,0:0:0:0:
64,280,37610,2,0,B|32:232|64:168,1,105,0|2,0:0|0:0,0:0:0:0:
56,96,38178,2,0,B|126:121,1,70,8|0,0:0|0:0,0:0:0:0:
200,96,38633,6,0,B|264:72|344:104,1,140,4|8,0:0|0:0,0:0:0:0:
416,136,39315,1,2,0:0:0:0:
416,136,39542,1,0,0:0:0:0:
480,192,39769,2,0,B|493:229|477:261,1,70,2|8,0:0|0:0,0:0:0:0:
408,312,40224,1,2,0:0:0:0:
328,344,40451,6,0,B|272:344|230:302,1,105,4|0,0:0|0:0,0:0:0:0:
232,264,40906,1,8,0:0:0:0:
168,208,41133,1,0,0:0:0:0:
168,208,41360,2,0,B|104:240|32:216,1,140,2|8,0:0|0:0,0:0:0:0:
32,123,42042,2,0,B|32:43,1,70,2|4,0:0|0:0,0:0:0:0:
192,112,42724,5,8,0:0:0:0:
248,176,42951,1,2,0:0:0:0:
248,176,43065,2,0,B|296:192|352:174,1,105,0|2,0:0|0:0,0:0:0:0:
424,208,43633,1,8,0:0:0:0:
360,256,43860,1,2,0:0:0:0:
280,264,44088,6,0,B|200:264|160:192,1,140,4|8,0:0|0:0,0:0:0:0:
128,120,44769,1,2,0:0:0:0:
128,120,44883,2,0,B|80:152|80:208,1,105,0|2,0:0|0:0,0:0:0:0:
112,288,45451,1,8,0:0:0:0:
192,272,45678,1,0,0:0:0:0:
264,320,45906,6,0,B|291:255|264:176,1,140,4|8,0:0|0:0,0:0:0:0:
216,112,46588,1,2,0:0:0:0:
216,112,46815,2,0,B|280:80|352:118,1,140,0|8,0:0|0:0,0:0:0:0:
405,275,47724,6,0,B|341:315|261:275,1,140,4|8,0:0|0:0,0:0:0:0:
224,208,48406,1,2,0:0:0:0:
144,240,48633,2,0,B|98:181|143:103,1,140,0|8,0:0|0:0,0:0:0:0:
200,48,49315,1,2,0:0:0:0:
264,104,49542,6,0,B|370:139|472:96,2,210,4|2|8,0:0|0:0|0:0,0:0:0:0:
184,136,51133,1,2,0:0:0:0:
152,216,51360,2,0,B|136:264|168:320|232:328|288:304|304:272,2,210,4|2|8,0:0|0:0|0:0,0:0:0:0:
96,152,52951,1,2,0:0:0:0:
155,92,53178,6,0,B|256:56|368:104,2,210,4|2|8,0:0|0:0|0:0,0:0:0:0:
80,64,54769,1,2,0:0:0:0:
16,120,54997,2,0,B|-16:232|32:328,2,210,4|2|8,0:0|0:0|0:0,0:0:0:0:
176,168,56815,6,0,B|216:184|248:160,2,70,4|0|8,0:0|0:0|0:0,0:0:0:0:
208,88,57497,1,0,0:0:0:0:
124,88,57724,2,0,B|75:145|100:224,1,140,2|8,0:0|0:0,0:0:0:0:
144,288,58406,1,2,0:0:0:0:
216,256,58633,2,0,B|256:240|296:264,2,70,4|0|8,0:0|0:0|0:0,0:0:0:0:
144,208,59315,2,0,B|112:144|144:64,1,140,2|0,0:0|0:0,0:0:0:0:
216,32,59997,5,8,0:0:0:0:
275,91,60224,1,2,0:0:0:0:
336,152,60451,2,0,B|504:152,2,140,4|8|2,0:0|0:0|0:0,0:0:0:0:
276,211,61588,1,0,0:0:0:0:
216,270,61815,2,0,B|160:270,2,35,8|8|8,0:0|0:0|0:0,0:0:0:0:
256,192,62269,12,0,63633,0:0:0:0:
256,88,64088,5,4,0:0:0:0:
137,206,64542,2,0,B|120:240|145:286,1,70,8|0,0:0|0:0,0:0:0:0:
160,312,64883,1,2,0:0:0:0:
286,312,65224,2,0,B|320:312|352:288,1,70,2|8,0:0|0:0,0:0:0:0:
408,224,65678,1,0,0:0:0:0:
348,164,65906,6,0,B|336:128|356:76,2,70,4|0|8,0:0|0:0|0:0,0:0:0:0:
288,223,66588,1,2,0:0:0:0:
288,223,66701,2,0,B|232:248|176:224,1,105,0|2,0:0|0:0,0:0:0:0:
126,287,67269,1,8,0:0:0:0:
66,227,67497,1,2,0:0:0:0:
66,143,67724,6,0,B|84:108|136:96,1,70,4|0,0:0|0:0,0:0:0:0:
200,80,68178,1,8,0:0:0:0:
272,128,68406,1,2,0:0:0:0:
272,128,68519,2,0,B|320:144|384:128,1,105,0|2,0:0|0:0,0:0:0:0:
448,168,69088,2,0,B|440:240,1,70,8|0,0:0|0:0,0:0:0:0:
400,312,69542,2,0,B|336:352|264:320,1,140,2|8,0:0|0:0,0:0:0:0:
192,280,70224,1,2,0:0:0:0:
192,280,70338,2,0,B|216:224|184:176,1,105,8|2,0:0|0:0,0:0:0:0:
136,112,70906,2,0,B|168:88|208:104,1,70,8|0,0:0|0:0,0:0:0:0:
264,160,71360,6,0,B|368:208|472:152,2,210,4|2|8,0:0|0:0|0:0,0:0:0:0:
264,75,72951,1,2,0:0:0:0:
184,40,73178,2,0,B|104:16|32:80,1,140,4|8,0:0|0:0,0:0:0:0:
51,148,73860,2,0,B|83:212|170:211,1,140,2|2,0:0|0:0,0:0:0:0:
248,208,74542,1,8,0:0:0:0:
320,256,74769,1,0,0:0:0:0:
296,336,74997,6,0,B|360:368|432:336,1,140,4|8,0:0|0:0,0:0:0:0:
480,272,75678,2,0,B|448:200|496:112,1,140,2|2,0:0|0:0,0:0:0:0:
440,64,76360,2,0,B|480:40,2,35,8|0|0,0:0|0:0|0:0,0:0:0:0:
408,136,76815,6,0,B|384:192|304:176,1,105,4|8,0:0|0:0,0:0:0:0:
280,168,77269,1,0,0:0:0:0:
280,168,77497,1,4,0:0:0:0:
192,336,77951,6,0,B|104:336,1,70,2|8,0:0|0:0,0:0:0:0:
64,296,78406,2,0,B|64:248,1,35,0|8,0:0|0:0,0:0:0:0:
64,218,78633,2,0,B|64:72,1,140,4|8,0:0|0:0,0:0:0:0:
144,96,79315,1,2,0:0:0:0:
144,96,79428,2,0,B|200:112|264:88,1,105,0|2,0:0|0:0,0:0:0:0:
328,72,79997,1,8,0:0:0:0:
392,128,80224,1,0,0:0:0:0:
312,152,80451,6,0,B|304:192|304:192|320:232,2,70,4|0|8,0:0|0:0|0:0,0:0:0:0:
248,96,81133,1,2,0:0:0:0:
248,96,81247,2,0,B|192:72|128:104,1,105,0|2,0:0|0:0,0:0:0:0:
64,72,81815,2,0,B|56:112|72:144,1,70,8|0,0:0|0:0,0:0:0:0:
144,176,82269,1,4,0:0:0:0:
112,256,82497,5,2,0:0:0:0:
112,256,82724,2,0,B|184:296|184:296,1,70,8|0,0:0|0:0,0:0:0:0:
208,304,83065,1,2,0:0:0:0:
312,232,83406,1,2,0:0:0:0:
368,280,83633,2,0,B|408:296|456:272,1,70,8|0,0:0|0:0,0:0:0:0:
496,240,84088,2,0,B|464:176,1,70,4|0,0:0|0:0,0:0:0:0:
496,96,84542,2,0,B|440:80|397:128,2,105,8|8|8,0:0|0:0|0:0,0:0:0:0:
472,176,85451,1,4,0:0:0:0:
472,176,85678,1,0,0:0:0:0:
472,260,85906,6,0,B|416:324|416:324|352:292|288:324,2,210,4|2|8,0:0|0:0|0:0,0:0:0:0:
472,176,87497,2,0,B|472:120,2,35,2|0|2,0:0|0:0|0:0,0:0:0:0:
400,224,87951,1,0,0:0:0:0:
459,283,88178,2,0,B|443:323|403:323,1,70,8|0,0:0|0:0,0:0:0:0:
336,280,88633,2,0,B|280:256|224:288,1,105,4|0,0:0|0:0,0:0:0:0:
200,304,89088,1,8,0:0:0:0:
128,264,89315,2,0,B|112:224,2,35,8|0|4,0:0|0:0|0:0,0:0:0:0:
256,160,89997,5,8,0:0:0:0:
256,160,90224,2,0,B|256:96|256:96|312:40,1,140,4|0,0:0|0:0,0:0:0:0:
309,42,90906,2,0,B|167:42,1,140,8|4,0:0|0:0,0:0:0:0:
88,40,91588,1,0,0:0:0:0:
24,96,91815,1,8,0:0:0:0:
24,179,92042,2,0,B|24:248|80:304,1,140,4|0,0:0|0:0,0:0:0:0:
144,352,92724,1,8,0:0:0:0:
224,312,92951,1,0,0:0:0:0:
304,344,93178,6,0,B|376:384|456:328,1,140,4|8,0:0|0:0,0:0:0:0:
437,255,93860,2,0,B|375:210|303:250,1,140,2|0,0:0|0:0,0:0:0:0:
232,296,94542,1,8,0:0:0:0:
104,192,94997,5,2,0:0:0:0:
44,251,95224,1,0,0:0:0:0:
104,192,95451,1,8,0:0:0:0:
104,108,95678,1,0,0:0:0:0:
163,48,95906,1,4,0:0:0:0:
163,48,96247,2,8,B|216:48,1,35
257,107,96588,6,0,B|309:107,2,35,8|8|4,0:0|0:0|0:0,0:0:0:0:
188,160,97042,2,0,B|176:196|192:228,1,70,0|8,0:0|0:0,0:0:0:0:
256,336,97610,1,8,0:0:0:0:
360,256,97951,1,2,0:0:0:0:
360,256,98178,2,0,B|400:264|416:312,2,70,8|0|4,0:0|0:0|0:0,0:0:0:0:
275,256,98860,1,0,0:0:0:0:
190,256,99088,2,0,B|158:232|158:184,2,70,8|0|4,0:0|0:0|0:0,0:0:0:0:
130,315,99769,6,8,B|95:315,2,35,8|8|8,0:0|0:0|0:0,0:0:0:0:
208,344,100224,2,0,B|280:344,1,70,0|4,0:0|0:0,0:0:0:0:
352,304,100678,5,0,0:0:0:0:
424,344,100906,1,8,0:0:0:0:
424,260,101133,2,0,B|456:196|416:116,1,140,4|8,0:0|0:0,0:0:0:0:
376,56,101815,1,8,0:0:0:0:
328,128,102042,6,0,B|256:160|176:128,1,140,4|4,0:0|0:0,0:0:0:0:
256,192,102724,12,0,107497,0:0:0:0:
