osu file format v9

[General]
AudioFilename: Innocent Starter OP.mp3
AudioLeadIn: 1500
PreviewTime: 59956
Countdown: 0
SampleSet: Soft
StackLeniency: 0.7
Mode: 0
LetterboxInBreaks: 0

[Editor]
DistanceSpacing: 0.8
BeatDivisor: 4
GridSize: 4

[Metadata]
Title:Innocent Starter (TV Size)
Artist:Mizuki Nana
Creator:Kawayi Rika
Version:Easy
Source:Mahou Shoujo Lyrical Nanoha
Tags:opening maho

[Difficulty]
HPDrainRate:2
CircleSize:3
OverallDifficulty:2
ApproachRate:3
SliderMultiplier:1.26
SliderTickRate:2

[Events]
//Background and Video events
Video,735,"Innocent Starter OP.avi"
0,0,"Easy BG.jpg"
//Break Periods
//Storyboard Layer 0 (Background)
//Storyboard Layer 1 (Fail)
//Storyboard Layer 2 (Pass)
//Storyboard Layer 3 (Foreground)
//Storyboard Sound Samples
//Background Colour Transformations
3,100,163,162,255

[TimingPoints]
752,454.545454545455,4,2,1,80,1,0
15183,-100,4,2,1,5,0,0
17115,-100,4,2,1,80,0,0
31661,-100,4,2,1,70,0,0
31888,-100,4,2,1,80,0,0
32911,-100,4,2,2,80,0,0
33138,-100,4,2,1,80,0,0
34729,-100,4,2,2,80,0,0
34956,-100,4,2,1,80,0,0
36547,-100,4,2,2,80,0,0
36774,-100,4,2,1,80,0,0
38365,-100,4,2,2,80,0,0
38592,-100,4,2,1,80,0,0
40183,-100,4,2,2,80,0,0
40411,-100,4,2,1,80,0,0
42002,-100,4,2,2,80,0,0
42229,-100,4,2,1,80,0,0
43820,-100,4,2,2,80,0,0
44047,-100,4,2,1,80,0,0
45411,-100,4,2,1,55,0,0
46092,-100,4,2,1,70,0,0
46320,-100,4,2,1,80,0,0
47456,-100,4,2,2,80,0,0
47683,-100,4,2,1,80,0,0
49274,-100,4,2,2,80,0,0
49502,-100,4,2,1,80,0,0
51092,-100,4,2,2,80,0,0
51320,-100,4,2,1,80,0,0
52911,-100,4,2,2,80,0,0
53138,-100,4,2,1,80,0,0
53479,-100,4,2,1,70,0,0
53592,-100,4,2,1,60,0,0
58365,-100,4,2,1,50,0,0
58933,-100,4,2,1,70,0,0
60752,-100,4,2,1,70,0,1
60865,-100,4,2,1,80,0,1
67911,-100,4,2,1,70,0,1
68138,-100,4,2,1,80,0,1
71547,-100,4,2,1,70,0,1
71774,-100,4,2,1,80,0,1
73365,-100,4,2,1,70,0,1
74729,-100,4,2,1,50,0,1
75183,-100,4,2,1,50,0,0
75297,-100,4,2,1,70,0,1
75411,-100,4,2,1,80,0,1
82456,-100,4,2,1,70,0,1
82683,-100,4,2,1,80,0,1
85183,-100,4,2,1,70,0,1
85411,-100,4,2,1,80,0,1
86092,-100,4,2,1,70,0,1
86320,-100,4,2,1,80,0,1
86774,-100,4,2,1,70,0,1
87002,-100,4,2,1,80,0,1
87911,-100,4,2,1,70,0,1
88138,-100,4,2,1,80,0,1
88592,-100,4,2,1,70,0,1
88820,-100,4,2,1,80,0,1
89729,-100,4,2,1,70,0,1
89956,-100,4,2,1,80,0,1
92911,-100,4,2,1,50,0,1
93479,-100,4,2,1,70,0,1
93592,-100,4,2,1,80,0,1
97115,-100,4,2,1,70,0,1
97229,-100,4,2,1,80,0,1
97683,-100,4,2,1,70,0,1
99388,-100,4,2,1,70,0,0
99502,-100,4,2,1,30,0,0
100752,-100,4,2,1,20,0,0
102115,-100,4,2,1,10,0,0
103479,-100,4,2,1,5,0,0

[Colours]
Combo1 : 250,31,31
Combo2 : 244,103,28
Combo3 : 242,204,53

[HitObjects]
156,256,752,2,0,B|188:340|324:340|356:256,1,252,0|2
180,164,2570,1,0
332,164,3252,1,2
256,32,3933,1,2
160,64,4388,6,0,B|96:80|40:144,1,126,0|2
44,228,5297,1,0
80,324,5752,1,2
180,324,6206,1,0
256,256,6661,2,0,B|256:192,1,63,2|0
356,192,7342,2,0,B|412:144,1,63,0|2
428,52,8024,6,0,B|368:20|296:32,1,126,0|2
206,30,8933,2,0,B|144:20|84:52,1,126,0|2
12,124,9842,2,0,B|92:168|132:272,1,189,0|2
256,352,11206,1,2
356,348,11661,6,0,B|424:348|484:288,1,126,0|2
468,200,12570,1,0
396,128,13024,2,0,B|332:104|304:36,1,126,2|0
204,43,13933,2,0,B|180:104|116:128,1,126,2|0
44,200,14842,1,2
256,192,15297,12,0,17115
256,192,17570,5,2
332,124,18024,2,0,B|384:88,2,63,0|0|2
404,192,18933,1,0
381,292,19388,6,0,B|256:308|130:292,1,252,2|2
108,192,20752,1,0
130,91,21206,2,0,B|256:76|381:91,1,252,2|2
452,20,22570,6,0,B|489:74|473:142,1,126,0|2
474,243,23479,2,0,B|489:309|452:364,1,126,0|2
356,336,24388,1,0
256,356,24842,6,0,B|112:348|36:224,1,252,2|2
136,192,26206,1,0
44,146,26661,2,0,B|112:36|256:28,1,252,2|2
344,76,28024,1,0
440,108,28479,6,0,B|468:92|484:60,2,63,2|0|0
368,176,29388,1,2
428,256,29842,2,0,B|368:296|292:252,1,126,0|2
203,260,30752,2,0,B|144:296|84:256,1,126,0|2
8,192,31661,1,4
12,92,32115,6,0,B|92:92|92:92|188:108|236:180,1,252,2|2
256,80,33479,1,0
276,180,33933,2,0,B|324:108|420:92|420:92|500:92,1,252,2|2
472,188,35297,2,0,B|424:236|416:300,1,126,0|2
320,328,36206,6,0,B|188:328,1,126,0|2
96,300,37115,2,0,B|88:236|40:188,1,126,0|2
88,100,38024,1,0
176,52,38479,1,2
256,112,38933,1,0
336,52,39388,6,0,B|464:52,1,126,2|0
424,144,40297,1,2
424,240,40751,1,0
462,332,41206,6,0,B|336:332,1,126,2|0
256,268,42115,1,2
176,332,42570,2,0,B|50:332,1,126,0|2
24,236,43479,5,0
0,136,43933,2,0,B|64:136|64:136|184:136|224:44,1,252,2|2
256,148,45297,1,0
296,56,45751,2,0,B|320:32|364:24,2,63,2|0|4
368,124,46661,6,0,B|452:160,1,63,2|0
444,300,47570,2,0,B|496:256,2,63,2|0|0
344,280,48479,2,0,B|220:320|84:280,1,252,2|2
52,192,49842,1,0
95,100,50297,2,0,B|220:64|344:104,1,252,2|2
396,192,51661,6,0,B|260:192,1,126,0|2
168,192,52570,1,0
68,192,53024,2,0,B|4:192,2,63,2|0|4
120,280,53933,6,0,B|148:340|208:368,1,126,8|0
304,368,54842,2,0,B|364:340|392:280,1,126,8|0
444,192,55751,2,0,B|520:192,2,63,8|0|0
356,140,56661,6,0,B|326:55|186:55|154:139,1,252,8|8
68,192,58024,1,0
72,292,58479,2,0,B|16:328,2,63,8|8|4
268,332,59842,2,0,B|396:344,1,126,2|0
440,256,60751,6,0,B|492:220|496:136,1,126,4|8
396,160,61661,2,0,B|401:97|340:39,1,126,0|8
256,88,62570,1,0
164,48,63024,2,0,B|76:152|108:292,1,252,8|8
196,328,64388,6,0,B|256:312|256:312|328:332,1,126,0|8
416,352,65297,2,0,B|488:376,2,63,0|0|8
488,284,66206,6,0,B|368:244,1,126,0|8
368,140,67115,2,0,B|488:100,2,126,0|8|4
280,92,68479,2,0,B|252:60|216:48,1,63,8|0
144,108,69161,2,0,B|103:94|66:101,1,63,0|8
104,196,69842,6,0,B|164:228|164:228|208:272,1,126,0|8
308,268,70751,2,0,B|349:226|349:226|409:194,2,126,0|8|4
288,368,72115,2,0,B|216:368,1,63,8|0
80,324,73024,1,8
20,240,73479,5,4
96,176,73933,2,0,B|32:128,1,63,8|4
132,84,74615,1,0
172,56,74842,2,0,B|220:16,2,63,8|8|4
256,112,75751,6,0,B|512:112,1,252,8|8
448,192,77115,1,0
508,272,77570,2,0,B|256:272,1,252,8|8
196,192,78933,1,0
104,236,79388,6,0,B|40:216|4:144,1,126,8|0
108,132,80297,2,0,B|141:74|220:55,1,126,8|0
305,58,81206,2,0,B|370:74|404:132,1,126,8|0
501,156,82115,2,0,B|472:216|408:236,1,126,8|4
348,316,83024,5,8
256,280,83479,2,0,B|256:200,2,63,0|0|8
164,316,84388,2,0,B|88:316|88:316|44:264,1,126,0|8
56,176,85297,2,0,B|56:44,1,126,4|8
156,52,86206,5,4
256,168,86888,1,4
356,52,87570,1,8
432,120,88024,6,0,B|452:96|456:60,2,63,4|0|8
432,220,88933,2,0,B|380:256|352:328,1,126,0|8
256,296,89842,2,0,B|256:228,2,63,4|0|8
156,318,90752,2,0,B|132:256|80:220,1,126,0|8
80,120,91661,6,0,B|60:96|56:60,2,63,0|0|8
160,56,92570,2,0,B|224:72|300:56,1,126,0|8
380,28,93479,5,4
380,128,93933,2,0,B|380:276|380:276|320:360,1,252,8|8
256,284,95297,1,0
192,360,95752,2,0,B|132:276|132:276|132:128,1,252,8|8
226,88,97115,6,0,B|294:88,1,63,4|0
320,184,97797,2,0,B|256:168|256:168|196:184,1,126,4|4
256,264,98706,1,4
287,359,99161,2,0,B|251:367|215:355,1,63,4|4
256,192,99502,12,0,103479
