osu file format v14

[General]
AudioFilename: Mizuki Nana - Exterminate.mp3
AudioLeadIn: 0
PreviewTime: -1
Countdown: 0
SampleSet: Normal
StackLeniency: 0.7
Mode: 0
LetterboxInBreaks: 1
WidescreenStoryboard: 1

[Editor]
DistanceSpacing: 0.5
BeatDivisor: 4
GridSize: 4
TimelineZoom: 1

[Metadata]
Title:Exterminate
TitleUnicode:Exterminate
Artist:Mizuki Nana
ArtistUnicode:水樹奈々
Creator:qq470521923
Version:Normal
Source:戦姫绝唱シンフォギアGX
Tags:opening kazanari tsubasa 戦姫绝唱シンフォギアGX
BeatmapID:776038
BeatmapSetID:351822

[Difficulty]
HPDrainRate:4
CircleSize:4
OverallDifficulty:4
ApproachRate:4
SliderMultiplier:1.4
SliderTickRate:1

[Events]
//Background and Video events
0,0,"yande.re 327662 armor ass gun headphones kazanari.jpg",0,0
//Break Periods
2,25561,36282
2,100044,106627
2,152457,159558
//Storyboard Layer 0 (Background)
//Storyboard Layer 1 (Fail)
//Storyboard Layer 2 (Pass)
//Storyboard Layer 3 (Foreground)
//Storyboard Sound Samples

[TimingPoints]
19844,344.827586206897,4,3,2,70,1,0
20533,-100,4,1,7,70,0,0
37602,-100,4,3,2,100,0,0
46050,-100,4,1,2,100,0,0
46395,-100,4,3,2,100,0,0
46740,-66.6666666666667,4,1,2,100,0,0
46999,-100,4,3,2,100,0,0
48809,-100,4,1,2,70,0,0
54326,-100,4,1,2,100,0,0
55188,-100,4,3,2,70,0,0
55533,-100,4,1,2,100,0,0
56568,-100,4,3,2,70,0,0
56912,-100,4,1,2,70,0,0
57085,-100,4,1,2,70,0,0
63119,-66.6666666666667,4,1,2,70,0,0
63292,-100,4,1,2,70,0,0
75016,-100,4,3,2,100,0,0
75361,-100,4,3,2,70,0,0
75533,-100,4,3,2,100,0,0
76050,-100,4,3,2,70,0,0
76223,-100,4,3,2,100,0,0
76395,-100,4,1,2,83,0,0
77430,-100,4,1,2,70,0,0
77775,-100,4,1,3,70,0,1
77775,-100,4,1,7,70,0,1
84671,-50,4,1,7,70,0,1
85016,-100,4,1,7,100,0,1
85361,-100,4,1,7,100,0,1
85361,-100,4,1,7,100,0,1
88637,-100,4,1,7,70,0,0
107947,-100,4,3,2,70,0,0
108119,-100,4,1,4,70,0,0
108809,-100,4,3,2,70,0,0
110878,-100,4,1,5,70,0,0
111568,-100,4,3,2,70,0,0
120533,-100,4,3,2,100,0,0
125878,-100,4,1,2,90,0,0
126740,-100,4,3,2,100,0,0
127257,-100,4,1,2,90,0,0
127775,-100,4,3,2,100,0,0
128637,-100,4,1,2,90,0,0
129499,-100,4,3,2,100,0,0
130533,-100,4,1,2,80,0,0
134671,-100,4,3,2,100,0,0
134844,-100,4,1,2,80,0,0
135361,-100,4,3,2,100,0,0
135533,-100,4,1,2,80,0,0
137085,-100,4,1,7,70,0,1
146740,-100,4,2,3,70,0,0
160908,344.827586206897,4,2,3,70,1,0
171425,344.827586206897,4,2,3,70,1,0
171568,-100,4,3,3,100,0,0
200533,-100,4,1,3,55,0,0
201395,-100,4,1,3,60,0,0
203292,-100,4,1,7,70,0,1
214154,-100,4,1,7,70,0,0
216942,-100,4,1,7,70,0,0
219528,-100,4,1,7,70,0,0

[Colours]
Combo1 : 255,192,0
Combo2 : 128,128,255
Combo3 : 18,124,255
Combo4 : 242,24,57

[HitObjects]
200,96,19844,5,4,0:0:0:0:
300,272,20188,1,0,0:0:0:0:
64,248,20533,2,4,B|113:205|128:196|159:201|188:216|188:221,1,140
420,48,21223,6,0,B|387:96|351:102|323:109|282:111|283:110,1,140,4|0,0:0|0:0,0:0:0:0:
440,296,21912,2,4,B|410:272|392:244|389:204|413:169|415:170,1,140
256,296,22602,5,4,0:0:0:0:
160,216,22947,1,0,0:0:0:0:
58,130,23292,2,4,B|108:106|136:107|203:107|208:111,1,140
372,352,23981,1,0,0:0:0:0:
160,152,24326,1,0,0:0:0:0:
116,332,24671,1,0,0:0:0:0:
380,240,25016,1,0,0:0:0:0:
277,89,25361,1,0,0:0:0:0:
114,158,37602,6,0,B|143:119|168:99|163:107,1,70,0|4,0:0|0:0,0:0:0:0:
129,289,38119,5,0,0:0:0:0:
331,218,38464,1,4,0:0:0:0:
392,120,38809,1,0,0:0:0:0:
88,141,39154,2,0,B|9:87|17:93,2,70,4|0|0,0:0|0:0|0:0,0:0:0:0:
228,256,39844,2,0,P|308:203|313:201,2,70,4|0|0,0:0|0:0|0:0,0:0:0:0:
98,99,40533,5,4,0:0:0:0:
248,200,40878,1,0,0:0:0:0:
311,145,41223,1,4,0:0:0:0:
350,231,41568,1,0,0:0:0:0:
176,80,41912,2,0,B|192:144|204:152|244:200,1,140
327,30,42602,1,0,0:0:0:0:
180,80,42947,1,0,0:0:0:0:
80,190,43292,6,0,B|132:222|158:223|187:224|216:221|217:219,1,140
180,56,43981,1,0,0:0:0:0:
223,197,44326,1,0,0:0:0:0:
112,300,44671,1,0,0:0:0:0:
324,323,45016,1,0,0:0:0:0:
224,270,45361,1,0,0:0:0:0:
0,76,45706,5,0,0:0:0:0:
24,136,46050,2,0,B|49:194|103:205|126:209|142:210,1,140
140,216,46740,2,0,B|188:200|204:180|216:148|224:112|204:68,1,175
272,294,47430,2,0,B|323:331|358:330|355:330,2,70,4|0|0,0:0|0:0|0:0,0:0:0:0:
157,43,48119,1,0,0:0:0:0:
258,157,48464,1,0,0:0:0:0:
160,240,48809,6,0,B|215:266|231:267|260:268|305:268,1,140,4|0,0:0|0:0,0:0:0:0:
224,180,49499,1,0,0:0:0:0:
120,97,49844,1,0,0:0:0:0:
433,205,50188,2,0,B|451:166|450:129|450:134,2,70,4|0|0,0:0|0:0|0:0,0:0:0:0:
447,33,50878,1,0,0:0:0:0:
356,176,51223,1,0,0:0:0:0:
88,48,51568,6,0,B|62:101|52:116|52:149|74:193|83:200,2,140
88,48,52602,1,0,0:0:0:0:
163,163,52947,2,0,P|233:198|246:200,2,70,4|0|0,0:0|0:0|0:0,0:0:0:0:
20,184,53637,1,0,0:0:0:0:
292,72,53981,1,0,0:0:0:0:
112,68,54326,5,0,0:0:0:0:
176,144,54585,1,0,0:0:0:0:
240,212,55016,1,0,0:0:0:0:
413,65,55706,1,0,0:0:0:0:
344,136,55964,1,0,0:0:0:0:
276,200,56395,1,0,0:0:0:0:
254,64,57085,5,0,0:0:0:0:
188,140,57430,1,0,0:0:0:0:
284,176,57775,1,0,0:0:0:0:
184,248,58033,5,0,0:0:0:0:
254,64,58464,1,0,0:0:0:0:
256,192,58550,12,0,59499,0:0:0:0:
228,120,59844,5,0,0:0:0:0:
348,171,60188,1,0,0:0:0:0:
244,264,60533,1,0,0:0:0:0:
342,327,60878,1,0,0:0:0:0:
82,75,61223,5,4,0:0:0:0:
172,66,61568,1,0,0:0:0:0:
235,65,61912,2,0,B|281:52|306:52|341:54|374:65,1,140
348,272,62602,2,0,B|303:302|283:313|278:311,2,70
408,232,63119,1,0,0:0:0:0:
472,184,63292,1,0,0:0:0:0:
140,93,63981,6,0,B|200:108|232:112|248:128|268:148,2,140,4|0|0,0:0|0:0|0:0,0:0:0:0:
240,336,65016,1,0,0:0:0:0:
172,268,65361,1,0,0:0:0:0:
301,273,65706,1,0,0:0:0:0:
241,89,66050,1,0,0:0:0:0:
360,40,66395,6,0,L|468:152,1,140
320,208,67085,1,0,0:0:0:0:
440,252,67430,1,0,0:0:0:0:
44,68,67947,2,0,B|84:56|104:48|140:48|176:52|200:56|220:64|256:80,1,210
236,87,68809,2,0,B|259:126|279:156|275:190|270:221,1,140,4|0,0:0|0:0,0:0:0:0:
228,308,69499,1,0,0:0:0:0:
113,218,69844,1,0,0:0:0:0:
336,178,70188,1,0,0:0:0:0:
416,273,70533,5,0,0:0:0:0:
416,273,70706,2,0,B|368:296|316:296|288:288|260:284|232:272|212:264,1,210
445,122,71568,1,0,0:0:0:0:
249,104,71999,1,0,0:0:0:0:
257,267,72257,1,0,0:0:0:0:
256,192,72344,12,0,75016,0:0:0:0:
170,91,75188,5,0,0:0:0:0:
170,91,75361,1,0,0:0:0:0:
159,235,75706,1,0,0:0:0:0:
358,174,76050,1,0,0:0:0:0:
169,82,76395,1,0,0:0:0:0:
309,217,76740,1,0,0:0:0:0:
277,37,77085,1,0,0:0:0:0:
85,88,77430,5,0,0:0:0:0:
120,228,77775,1,0,0:0:0:0:
220,92,78119,1,0,0:0:0:0:
360,104,78464,2,0,B|392:168|400:208|396:240,1,140
175,73,79154,1,0,0:0:0:0:
150,228,79499,1,0,0:0:0:0:
280,88,79844,2,0,B|336:56|352:52|380:52|404:48|436:48,1,140
325,166,80533,5,0,0:0:0:0:
288,196,80792,1,0,0:0:0:0:
168,208,81223,1,0,0:0:0:0:
141,158,81481,1,0,0:0:0:0:
140,280,81912,5,0,0:0:0:0:
118,239,82171,1,0,0:0:0:0:
308,132,82430,1,0,0:0:0:0:
280,112,82602,1,0,0:0:0:0:
105,77,82947,5,0,0:0:0:0:
152,100,83119,1,0,0:0:0:0:
200,144,83292,2,0,L|296:260,1,140
384,172,83981,2,0,B|414:209|453:218|457:223,2,70
376,356,84671,1,0,0:0:0:0:
248,208,85016,2,0,P|212:276|148:300,1,140
367,106,85706,2,0,L|340:197,1,70
168,244,86223,5,0,0:0:0:0:
141,213,86395,1,0,0:0:0:0:
63,311,86740,1,0,0:0:0:0:
156,152,87085,1,0,0:0:0:0:
246,45,87430,2,0,B|243:83|243:85|247:104|249:112|248:125|247:129|247:140|247:150|247:158|247:167|247:177|247:189|247:198|247:208|246:213|246:220|246:228|246:239|247:250|248:259|248:267|249:275|248:283|246:297|246:304|245:310|246:323|246:335|247:341|247:349|249:357|245:338,1,280
112,96,88637,6,0,B|96:136|96:168|96:200|96:228|96:252|104:268|120:292|128:304,1,210
240,164,89412,1,0,0:0:0:0:
426,96,89844,5,0,0:0:0:0:
232,352,90188,1,0,0:0:0:0:
312,304,90533,1,0,0:0:0:0:
367,221,90878,2,0,B|327:232|273:239|226:232,1,140
118,72,91395,6,0,B|86:135|94:182|105:212|118:245|124:279,1,210
228,260,92257,1,0,0:0:0:0:
397,72,92775,2,0,B|356:58|312:51|299:51|270:53|240:53|225:54|218:55|198:64|191:73,1,210
257,195,93637,1,0,0:0:0:0:
152,69,94326,5,0,0:0:0:0:
345,98,94844,1,0,0:0:0:0:
360,148,95016,5,0,0:0:0:0:
218,170,95533,1,0,0:0:0:0:
248,196,95706,1,0,0:0:0:0:
112,112,96223,1,0,0:0:0:0:
137,81,96395,5,0,0:0:0:0:
276,208,96912,1,0,0:0:0:0:
233,168,97085,1,0,0:0:0:0:
256,192,97171,12,0,99844,0:0:0:0:
252,184,107947,5,0,0:0:0:0:
213,148,108119,5,4,0:0:0:0:
368,96,108464,1,0,0:0:0:0:
184,264,108809,5,4,0:0:0:0:
256,28,109154,1,8,0:0:0:0:
452,115,109499,6,0,B|433:157|421:182|401:197|384:216|341:236|320:253|280:258,1,210
304,304,110188,1,0,0:0:0:0:
55,133,110706,6,0,L|123:92,1,70
104,280,111223,1,0,0:0:0:0:
220,120,111568,1,0,0:0:0:0:
284,304,111912,1,0,0:0:0:0:
328,80,112257,6,0,L|420:208,1,140
277,194,112947,1,0,0:0:0:0:
35,49,113292,1,0,0:0:0:0:
18,192,113637,6,0,B|45:232|77:240|107:249|141:255|161:254,1,140
196,144,114326,1,0,0:0:0:0:
336,148,114844,1,0,0:0:0:0:
385,268,115188,1,0,0:0:0:0:
189,273,115533,1,0,0:0:0:0:
21,63,116050,5,0,0:0:0:0:
80,80,116223,1,0,0:0:0:0:
128,104,116395,2,0,L|256:172,1,140
224,292,117085,1,0,0:0:0:0:
189,118,117344,1,0,0:0:0:0:
322,59,117775,1,0,0:0:0:0:
256,192,117861,12,0,118809,0:0:0:0:
10,112,119154,5,0,0:0:0:0:
187,179,119499,1,0,0:0:0:0:
189,45,119844,1,0,0:0:0:0:
236,111,120188,1,0,0:0:0:0:
263,239,120533,5,4,0:0:0:0:
371,117,120878,1,0,0:0:0:0:
258,104,121223,2,0,P|205:136|198:226,1,140,4|0,0:0|0:0,0:0:0:0:
88,80,121912,1,0,0:0:0:0:
84,238,122257,1,0,0:0:0:0:
403,155,122602,2,0,B|380:193|355:219|335:241|293:258,1,140,4|0,0:0|0:0,0:0:0:0:
340,52,123292,5,0,0:0:0:0:
223,173,123637,1,0,0:0:0:0:
142,308,123981,2,0,B|99:284|97:255|91:228|94:212|111:185,1,140,4|0,0:0|0:0,0:0:0:0:
134,65,124671,1,4,0:0:0:0:
136,237,125016,1,0,0:0:0:0:
374,218,125361,2,0,L|470:187,2,70
376,224,125878,6,0,B|344:264|320:288|296:296|264:304|232:304|196:304|160:304,1,210
264,106,126740,1,0,0:0:0:0:
400,160,127257,6,0,B|364:200|340:212|332:216|312:228|296:232|276:240|264:244|252:248|232:248|208:256,1,210
108,320,128119,1,0,0:0:0:0:
272,72,128637,6,0,B|252:104|244:116|232:136|212:152|192:164|180:172|172:176|156:188|144:192|132:200|112:208,1,210
272,280,129499,1,0,0:0:0:0:
476,112,130016,2,0,B|452:160|424:180|400:192|384:196|368:204|352:208|344:212|304:220,1,210
16,184,130878,1,0,0:0:0:0:
121,275,131137,1,0,0:0:0:0:
290,112,131395,1,0,0:0:0:0:
274,253,131568,1,0,0:0:0:0:
256,192,131654,12,0,134326,0:0:0:0:
255,153,134671,5,0,0:0:0:0:
151,109,135016,1,0,0:0:0:0:
133,171,135361,1,0,0:0:0:0:
372,100,135706,5,0,0:0:0:0:
377,236,136050,1,0,0:0:0:0:
374,358,136395,1,0,0:0:0:0:
198,156,136740,1,0,0:0:0:0:
125,124,137085,6,0,L|64:72,2,70
272,92,137775,2,0,L|204:142,2,70
194,41,138464,1,0,0:0:0:0:
294,190,138809,1,0,0:0:0:0:
360,47,139154,1,0,0:0:0:0:
88,300,139499,1,0,0:0:0:0:
66,150,139844,1,0,0:0:0:0:
368,280,140361,1,0,0:0:0:0:
317,255,140533,1,0,0:0:0:0:
165,289,141050,1,0,0:0:0:0:
192,248,141223,5,0,0:0:0:0:
196,132,141740,1,0,0:0:0:0:
241,108,141912,1,0,0:0:0:0:
410,113,142257,1,0,0:0:0:0:
403,137,142602,2,0,P|382:171|355:200,2,70
176,197,143292,2,0,P|166:237|166:268,2,70
303,149,143981,1,0,0:0:0:0:
192,67,144326,1,0,0:0:0:0:
456,60,144671,2,0,B|443:118|431:137|412:165|386:184,1,140
412,251,145188,6,0,B|357:281|332:283|297:284|260:282,1,140
130,157,145706,1,0,0:0:0:0:
196,298,146050,1,0,0:0:0:0:
111,213,146395,1,0,0:0:0:0:
285,91,146740,1,0,0:0:0:0:
256,192,146826,12,0,152257,0:0:0:0:
238,203,160878,5,0,0:0:0:0:
142,77,161223,1,0,0:0:0:0:
123,205,161912,2,0,B|168:176|187:172|218:168|226:168|256:172|273:175|272:180,1,140
325,255,162602,2,0,B|291:283|258:292|198:296|172:296,1,140
264,125,163292,1,0,0:0:0:0:
187,201,163981,1,0,0:0:0:0:
322,258,164412,1,0,0:0:0:0:
341,99,164671,1,0,0:0:0:0:
187,201,165361,1,0,0:0:0:0:
492,95,166050,1,0,0:0:0:0:
418,187,166395,5,0,0:0:0:0:
385,271,166740,1,0,0:0:0:0:
187,201,167430,1,0,0:0:0:0:
320,96,167804,1,0,0:0:0:0:
196,32,168149,1,0,0:0:0:0:
56,67,168464,1,0,0:0:0:0:
32,167,168809,2,0,B|52:210|91:229|110:251|147:266|182:271|208:276|239:276|280:270,1,280
358,116,169930,1,0,0:0:0:0:
332,160,170188,1,0,0:0:0:0:
187,201,170878,1,0,0:0:0:0:
256,196,171395,5,0,0:0:0:0:
324,141,171568,2,0,P|363:165|385:200,4,70
192,280,172804,1,0,0:0:0:0:
184,204,172976,2,0,P|225:186|244:162,4,70
260,107,174326,5,0,0:0:0:0:
211,306,174844,1,0,0:0:0:0:
20,182,175188,1,0,0:0:0:0:
110,49,175619,1,0,0:0:0:0:
331,276,176395,1,0,0:0:0:0:
283,132,177085,5,0,0:0:0:0:
275,301,177430,1,0,0:0:0:0:
128,288,177775,1,0,0:0:0:0:
392,100,178464,1,0,0:0:0:0:
76,56,179154,1,0,0:0:0:0:
184,205,179671,1,0,0:0:0:0:
256,192,179844,12,0,182602,0:0:0:0:
97,160,182947,6,0,B|130:200|164:211|200:221|233:229|265:232|288:233,1,210
416,251,183809,2,0,B|447:232|466:195|463:154|463:126,1,140
388,124,184326,1,0,0:0:0:0:
177,42,184671,1,0,0:0:0:0:
141,176,185188,1,0,0:0:0:0:
371,72,185706,6,0,B|389:103|393:134|393:151|380:181|366:219|344:250|315:288,1,210
226,137,186568,2,0,B|191:166|183:203|178:241|179:273,1,140
244,292,187114,1,0,0:0:0:0:
412,244,187459,1,0,0:0:0:0:
124,88,187804,1,0,0:0:0:0:
365,85,188119,1,0,0:0:0:0:
233,223,188464,1,0,0:0:0:0:
300,324,188809,5,0,0:0:0:0:
126,120,189154,1,0,0:0:0:0:
89,300,189499,2,0,L|165:241,2,70
338,317,190188,2,0,L|263:255,2,70
394,126,190878,5,0,0:0:0:0:
407,266,191223,1,0,0:0:0:0:
335,44,191568,1,0,0:0:0:0:
448,171,191912,2,0,P|470:214|462:250,1,70
476,284,192257,5,0,0:0:0:0:
51,228,192602,1,0,0:0:0:0:
43,328,192947,2,0,P|79:370|122:377,1,70
160,384,193292,1,0,0:0:0:0:
135,49,193637,6,0,B|113:80|110:137|114:168|119:192,1,140
206,198,194326,2,0,B|256:213|290:214|337:215|356:213,1,140
356,152,195045,2,0,B|392:112|408:84|408:56|408:24,1,140
18,68,195706,2,0,B|35:108|61:129|78:148|92:159|121:174,1,140
272,159,196395,1,0,0:0:0:0:
256,192,196481,12,0,199154,0:0:0:0:
254,138,199528,5,0,0:0:0:0:
299,204,199873,1,0,0:0:0:0:
192,137,200218,1,0,0:0:0:0:
372,226,200533,5,0,0:0:0:0:
217,309,200878,1,0,0:0:0:0:
64,205,201223,1,0,0:0:0:0:
195,232,201568,1,0,0:0:0:0:
82,128,201912,1,0,0:0:0:0:
76,180,202257,1,0,0:0:0:0:
178,202,202602,1,0,0:0:0:0:
284,144,202947,1,0,0:0:0:0:
439,171,203321,6,0,L|352:284,1,140
197,43,203981,2,0,P|236:33|283:46,2,70
17,100,204671,5,0,0:0:0:0:
126,90,205016,1,0,0:0:0:0:
218,83,205361,2,0,P|256:121|264:159,2,70
445,94,206050,5,0,0:0:0:0:
368,156,206568,1,0,0:0:0:0:
406,124,206740,1,0,0:0:0:0:
168,60,207257,1,0,0:0:0:0:
200,96,207430,5,0,0:0:0:0:
64,240,207947,1,0,0:0:0:0:
37,203,208119,2,0,B|6:161|13:138|23:108,2,70
460,174,208809,2,0,P|450:213|430:237,2,70
171,116,209528,2,0,P|140:137|88:124,2,70
32,273,210188,1,0,0:0:0:0:
202,49,210533,1,0,0:0:0:0:
48,174,210878,1,0,0:0:0:0:
103,87,211223,1,0,0:0:0:0:
142,67,211395,2,0,B|176:51|212:49|256:44|281:47,1,140
288,116,211912,5,0,0:0:0:0:
296,266,212257,1,0,0:0:0:0:
148,307,212602,1,0,0:0:0:0:
372,330,212947,2,0,B|419:318|441:289|452:261|457:228,1,140
325,39,213637,1,0,0:0:0:0:
244,128,213981,1,0,0:0:0:0:
284,152,214183,1,0,0:0:0:0:
244,264,214614,5,0,0:0:0:0:
370,248,215016,2,0,P|393:212|455:113,1,140
82,67,215735,2,0,P|84:108|102:143,2,70
200,72,216425,1,0,0:0:0:0:
408,168,217114,6,0,L|304:72,1,140
140,80,217804,2,0,L|40:184,1,140
288,292,218493,2,0,P|176:324|144:316,1,140
168,52,219183,2,0,B|216:40|272:40|320:56,1,140
361,153,219844,5,0,0:0:0:0:
236,104,220361,1,0,0:0:0:0:
265,61,220533,1,0,0:0:0:0:
123,212,221050,1,0,0:0:0:0:
168,240,221223,1,0,0:0:0:0:
260,152,221740,5,0,0:0:0:0:
219,114,221912,1,0,0:0:0:0:
208,32,222430,1,0,0:0:0:0:
257,38,222602,1,0,0:0:0:0:
256,192,222688,12,0,227430,0:0:0:0:
256,192,228119,12,0,229499,0:0:0:0:
169,154,231050,5,0,0:0:0:0:
216,180,231223,1,0,0:0:0:0:
283,213,231568,1,0,0:0:0:0:
418,297,231912,1,0,0:0:0:0:
419,96,232257,1,0,0:0:0:0:
168,188,232602,5,0,0:0:0:0:
243,255,232947,5,0,0:0:0:0:
316,188,233292,5,0,0:0:0:0:
240,124,233637,5,0,0:0:0:0:
168,188,233981,5,0,0:0:0:0:
243,255,234326,5,0,0:0:0:0:
316,188,234671,5,0,0:0:0:0:
240,124,235016,5,0,0:0:0:0:
82,268,235361,2,0,P|135:288|150:283,2,70
264,296,236050,1,0,0:0:0:0:
316,320,236223,1,0,0:0:0:0:
