osu file format v14

[General]
AudioFilename: Mizuki Nana - Exterminate.mp3
AudioLeadIn: 0
PreviewTime: -1
Countdown: 0
SampleSet: Normal
StackLeniency: 0.7
Mode: 0
LetterboxInBreaks: 1
WidescreenStoryboard: 0

[Editor]
DistanceSpacing: 0.5
BeatDivisor: 4
GridSize: 4
TimelineZoom: 1

[Metadata]
Title:Exterminate
TitleUnicode:Exterminate
Artist:Mizuki Nana
ArtistUnicode:水樹奈々
Creator:qq470521923
Version:Insane
Source:戦姫绝唱シンフォギアGX
Tags:opening kazanari tsubasa 戦姫绝唱シンフォギアGX
BeatmapID:775345
BeatmapSetID:351822

[Difficulty]
HPDrainRate:7
CircleSize:4
OverallDifficulty:7
ApproachRate:9.3
SliderMultiplier:1.4
SliderTickRate:1

[Events]
//Background and Video events
0,0,"yande.re 327662 armor ass gun headphones kazanari.jpg",0,0
//Break Periods
2,25561,37048
2,100044,107393
2,149699,160354
//Storyboard Layer 0 (Background)
//Storyboard Layer 1 (Fail)
//Storyboard Layer 2 (Pass)
//Storyboard Layer 3 (Foreground)
//Storyboard Sound Samples

[TimingPoints]
19844,344.827586206897,4,3,2,40,1,0
20533,-100,4,1,7,40,0,0
37602,-100,4,3,2,70,0,0
46050,-100,4,1,2,70,0,0
46395,-100,4,3,2,70,0,0
46740,-66.6666666666667,4,1,2,70,0,0
46999,-100,4,3,2,70,0,0
48464,-100,4,3,2,80,0,0
48809,-100,4,1,2,40,0,0
51568,-80,4,1,2,40,0,0
52775,-100,4,1,2,40,0,0
54326,-100,4,1,2,70,0,0
55188,-66.6666666666667,4,3,2,40,0,0
55533,-100,4,1,2,70,0,0
56568,-66.6666666666667,4,3,2,40,0,0
56912,-100,4,1,2,40,0,0
57085,-100,4,1,2,40,0,0
57775,-66.6666666666667,4,1,2,40,0,0
58464,-66.6666666666667,4,1,2,5,0,0
59499,-100,4,1,2,40,0,0
63119,-66.6666666666667,4,1,2,40,0,0
63292,-100,4,1,2,40,0,0
75016,-100,4,3,2,70,0,0
75361,-100,4,3,2,40,0,0
75533,-100,4,3,2,70,0,0
76050,-100,4,3,2,40,0,0
76223,-100,4,3,2,70,0,0
76395,-100,4,1,2,40,0,0
77430,-100,4,1,2,40,0,0
77775,-100,4,1,7,40,0,1
77775,-100,4,1,3,40,0,1
84671,-50,4,1,7,40,0,1
85016,-50,4,1,7,70,0,1
85361,-100,4,1,7,70,0,1
85361,-100,4,1,7,70,0,1
88637,-100,4,1,7,40,0,0
95878,-66.6666666666667,4,1,7,40,0,0
97085,-100,4,1,7,40,0,0
107947,-100,4,3,2,40,0,0
108119,-100,4,1,4,40,0,0
108809,-100,4,3,2,40,0,0
110878,-100,4,1,5,40,0,0
111568,-100,4,3,2,40,0,0
113637,-66.6666666666667,4,3,2,40,0,0
120533,-100,4,3,2,70,0,0
121223,-66.6666666666667,4,3,2,70,0,0
121395,-100,4,3,2,70,0,0
123981,-66.6666666666667,4,3,2,70,0,0
124326,-100,4,3,2,70,0,0
125878,-100,4,1,2,60,0,0
126740,-100,4,3,2,70,0,0
127257,-100,4,1,2,60,0,0
127775,-100,4,3,2,70,0,0
128637,-100,4,1,2,60,0,0
129154,-100,4,1,2,60,0,0
129499,-100,4,3,2,70,0,0
130533,-100,4,1,2,50,0,0
134671,-100,4,3,2,70,0,0
134844,-100,4,1,2,50,0,0
135361,-100,4,3,2,70,0,0
135533,-100,4,1,2,50,0,0
137085,-100,4,1,7,40,0,1
146740,-100,4,2,3,40,0,0
160908,344.827586206897,4,2,3,40,1,0
161252,-66.6666666666667,4,2,3,40,0,0
163321,-200,4,2,3,40,0,0
171425,344.827586206897,4,2,3,40,1,0
171568,-100,4,3,3,70,0,0
200533,-100,4,1,3,55,0,0
201395,-100,4,1,3,60,0,0
203292,-100,4,1,7,40,0,1
214154,-100,4,1,7,40,0,0
216942,-66.6666666666667,4,1,7,40,0,0
219528,-100,4,1,7,40,0,0
229528,-80,4,1,7,40,0,0
231080,-100,4,1,7,40,0,0

[Colours]
Combo1 : 255,192,0
Combo2 : 128,128,255
Combo3 : 18,124,255
Combo4 : 242,24,57

[HitObjects]
69,98,19844,5,4,0:0:0:0:
112,152,20188,1,0,0:0:0:0:
112,152,20361,1,0,0:0:0:0:
112,152,20533,2,4,B|161:109|176:100|207:105|236:120|236:125,1,140
429,238,21050,6,0,B|408:286|372:292|344:299|303:301|304:300,1,140,4|0,0:0|0:0,0:0:0:0:
312,299,21568,1,0,0:0:0:0:
312,299,21740,1,0,0:0:0:0:
315,305,21912,2,4,B|285:281|267:253|264:213|288:178|290:179,1,140
79,304,22602,5,4,0:0:0:0:
58,130,22947,1,0,0:0:0:0:
58,130,23119,1,0,0:0:0:0:
58,130,23292,2,4,B|108:106|136:107|203:107|208:111,1,140
393,146,23809,5,0,0:0:0:0:
372,352,24154,1,0,0:0:0:0:
196,283,24326,1,0,0:0:0:0:
374,283,24499,1,0,0:0:0:0:
196,283,24671,1,0,0:0:0:0:
263,140,24844,1,0,0:0:0:0:
367,272,25016,1,0,0:0:0:0:
188,223,25188,1,0,0:0:0:0:
277,89,25361,1,0,0:0:0:0:
114,158,37602,6,0,B|143:119|168:99|163:107,2,70,0|4|0,0:0|0:0|0:0,0:0:0:0:
129,289,38119,5,0,0:0:0:0:
214,191,38292,1,0,0:0:0:0:
331,218,38464,1,4,0:0:0:0:
280,108,38637,1,0,0:0:0:0:
392,120,38809,1,0,0:0:0:0:
186,75,38981,1,4,0:0:0:0:
88,141,39154,2,0,B|9:87|17:93,1,70,4|0,0:0|0:0,0:0:0:0:
23,187,39499,2,0,L|98:250,1,70,0|4,0:0|0:0,0:0:0:0:
221,268,39844,2,0,P|301:215|306:213,1,70,4|0,0:0|0:0,0:0:0:0:
277,226,40188,2,0,P|358:279|359:281,1,70
98,99,40533,5,4,0:0:0:0:
240,84,40706,1,0,0:0:0:0:
248,200,40878,1,0,0:0:0:0:
123,229,41050,1,0,0:0:0:0:
311,145,41223,1,4,0:0:0:0:
265,318,41395,1,0,0:0:0:0:
350,231,41568,1,0,0:0:0:0:
466,231,41740,1,0,0:0:0:0:
463,81,41912,2,4,B|404:44|362:38|320:35|319:34,1,140
327,27,42430,1,0,0:0:0:0:
327,30,42516,1,0,0:0:0:0:
327,30,42602,1,0,0:0:0:0:
304,140,42775,1,0,0:0:0:0:
220,60,42947,2,0,B|184:44|132:52|132:56,1,70
80,190,43292,6,0,B|132:222|158:223|187:224|216:221|217:219,1,140
215,74,43809,2,0,B|174:55|139:52|99:56|74:61,1,140
80,192,44326,1,0,0:0:0:0:
223,197,44499,1,0,0:0:0:0:
216,342,44671,1,4,0:0:0:0:
80,306,44844,1,0,0:0:0:0:
285,149,45016,1,0,0:0:0:0:
324,323,45188,1,0,0:0:0:0:
407,128,45361,1,4,0:0:0:0:
224,270,45533,1,0,0:0:0:0:
17,27,45706,5,0,0:0:0:0:
127,85,45878,1,0,0:0:0:0:
24,136,46050,2,0,B|49:194|103:205|126:209|142:210,1,140
99,44,46568,1,0,0:0:0:0:
140,216,46740,2,0,B|188:200|204:180|216:148|224:112|204:68,1,175
385,125,47257,1,0,0:0:0:0:
272,294,47430,2,0,B|323:331|358:330|355:330,1,70,4|0,0:0|0:0,0:0:0:0:
401,215,47775,2,0,P|374:179|337:176,1,70
157,43,48119,1,0,0:0:0:0:
349,57,48292,1,0,0:0:0:0:
258,157,48464,1,0,0:0:0:0:
167,245,48550,1,0,0:0:0:0:
167,245,48637,1,0,0:0:0:0:
167,245,48723,1,0,0:0:0:0:
167,245,48809,6,0,P|208:264|232:268,1,70,4|0,0:0|0:0,0:0:0:0:
364,328,49154,1,0,0:0:0:0:
128,176,49326,1,0,0:0:0:0:
315,92,49499,2,0,P|257:49|247:47,1,70,0|4,0:0|0:0,0:0:0:0:
88,280,49844,1,0,0:0:0:0:
120,97,50016,1,0,0:0:0:0:
320,144,50188,2,0,B|338:105|337:68|337:73,2,70,4|0|0,0:0|0:0|0:0,0:0:0:0:
412,96,50706,2,0,B|381:140|385:175|385:170,2,70,0|4|0,0:0|0:0|0:0,0:0:0:0:
447,33,51223,1,0,0:0:0:0:
184,136,51395,1,0,0:0:0:0:
284,204,51568,6,0,P|256:252|244:312,1,87.5
120,340,51912,1,0,0:0:0:0:
364,268,52085,1,0,0:0:0:0:
104,100,52257,2,0,P|164:64|208:52,1,87.5
372,64,52602,1,0,0:0:0:0:
312,264,52775,1,0,0:0:0:0:
163,163,52947,2,0,P|233:198|246:200,1,70,4|0,0:0|0:0,0:0:0:0:
327,159,53292,2,0,B|384:195|410:198|410:168,1,70
157,281,53637,2,0,B|208:302|239:308|239:310,1,70,4|0,0:0|0:0,0:0:0:0:
326,281,53981,2,0,P|367:300|396:302,1,70
112,68,54326,5,0,0:0:0:0:
368,88,54585,1,0,0:0:0:0:
285,225,54844,1,0,0:0:0:0:
136,148,55016,2,0,P|96:236|96:240,1,70
176,244,55361,2,0,B|216:188|256:160|268:144,1,105.000004005432
413,65,55706,1,0,0:0:0:0:
68,48,55964,1,0,0:0:0:0:
209,226,56223,1,0,0:0:0:0:
72,264,56395,1,0,0:0:0:0:
76,72,56568,2,0,P|56:132|64:184,2,105.000004005432
276,80,57085,6,0,B|324:112|376:144|376:144|292:188,1,210.000008010865
132,308,57775,2,0,B|208:328|256:336|276:336|324:336|356:336|372:332|396:328|452:308,1,315.000012016297
448,176,58464,2,0,P|392:208|336:208,2,105.000004005432,4|0|0,0:0|0:0|0:0,0:0:0:0:
188,104,58981,2,0,P|152:152|160:192,2,105.000004005432,4|0|0,0:0|0:0|0:0,0:0:0:0:
292,256,59499,1,4,0:0:0:0:
174,67,59844,5,0,0:0:0:0:
348,171,60188,1,0,0:0:0:0:
172,265,60533,1,0,0:0:0:0:
342,327,60878,1,0,0:0:0:0:
82,75,61223,5,4,0:0:0:0:
120,188,61395,1,0,0:0:0:0:
172,66,61568,1,0,0:0:0:0:
194,183,61740,1,0,0:0:0:0:
268,72,61912,2,0,B|324:60|348:64|360:64,2,70,4|0|0,0:0|0:0|0:0,0:0:0:0:
423,219,62430,5,0,0:0:0:0:
412,216,62516,1,0,0:0:0:0:
423,219,62602,1,4,0:0:0:0:
423,219,62775,2,0,B|378:249|358:260|353:258,1,70
363,255,63119,2,0,B|320:292|288:288|252:288|248:296,1,105,0|4,0:0|0:0,0:0:0:0:
44,148,63464,1,0,0:0:0:0:
160,292,63637,1,0,0:0:0:0:
304,96,63809,1,0,0:0:0:0:
140,93,63981,6,0,B|200:108|232:112|248:128|268:148,2,140,4|0|0,0:0|0:0|0:0,0:0:0:0:
191,199,64844,1,0,0:0:0:0:
256,91,65016,1,0,0:0:0:0:
332,177,65188,5,0,0:0:0:0:
332,177,65275,1,0,0:0:0:0:
332,177,65361,1,4,0:0:0:0:
172,268,65533,1,0,0:0:0:0:
238,87,65706,1,0,0:0:0:0:
301,273,65878,1,0,0:0:0:0:
133,169,66050,1,0,0:0:0:0:
241,89,66223,1,0,0:0:0:0:
332,168,66395,1,0,0:0:0:0:
236,191,66568,5,4,0:0:0:0:
453,75,66912,1,0,0:0:0:0:
455,119,67085,1,0,0:0:0:0:
451,158,67257,1,0,0:0:0:0:
447,193,67430,2,0,B|407:217|377:222|356:217|337:213|311:208,1,140
95,85,67947,6,4,B|129:67|166:64|196:65|240:82,1,140
230,78,68464,1,0,0:0:0:0:
230,78,68637,1,0,0:0:0:0:
236,87,68809,2,0,B|259:126|279:156|275:190|270:221,1,140,4|0,0:0|0:0,0:0:0:0:
218,248,69326,5,0,0:0:0:0:
118,120,69499,1,0,0:0:0:0:
274,133,69671,1,0,0:0:0:0:
250,288,69844,1,0,0:0:0:0:
113,218,70016,1,0,0:0:0:0:
336,178,70188,1,0,0:0:0:0:
416,273,70533,5,0,0:0:0:0:
416,273,70706,2,0,B|373:293|341:294|300:280|270:270,1,140
280,273,71223,2,0,B|328:232|364:237|400:244|413:250|418:251,1,140
445,122,71826,1,0,0:0:0:0:
249,104,72085,1,0,0:0:0:0:
257,267,72257,1,0,0:0:0:0:
256,192,72344,12,0,75016,0:0:0:0:
170,91,75188,5,0,0:0:0:0:
170,91,75361,1,0,0:0:0:0:
271,150,75533,1,0,0:0:0:0:
159,235,75706,1,0,0:0:0:0:
277,287,75878,1,0,0:0:0:0:
358,174,76050,1,0,0:0:0:0:
197,243,76223,1,0,0:0:0:0:
169,82,76395,1,0,0:0:0:0:
361,44,76568,1,0,0:0:0:0:
309,217,76740,1,0,0:0:0:0:
184,151,76912,1,0,0:0:0:0:
277,37,77085,1,0,0:0:0:0:
85,88,77430,5,0,0:0:0:0:
85,88,77602,1,0,0:0:0:0:
84,95,77775,2,0,L|161:93,1,70
160,172,78119,2,0,L|70:174,1,70
341,111,78464,2,0,L|343:196,1,70
418,188,78809,2,0,L|418:100,1,70
175,73,79154,1,0,0:0:0:0:
315,226,79326,1,0,0:0:0:0:
150,228,79499,1,0,0:0:0:0:
348,85,79671,1,0,0:0:0:0:
200,86,79844,6,0,B|239:62|260:59|268:57|281:55|303:55|316:55|333:56|334:57,1,140
217,230,80361,1,0,0:0:0:0:
325,166,80533,5,0,0:0:0:0:
123,146,80792,1,0,0:0:0:0:
319,305,81050,1,0,0:0:0:0:
306,296,81137,1,0,0:0:0:0:
318,291,81223,1,0,0:0:0:0:
141,158,81481,1,0,0:0:0:0:
176,343,81740,1,0,0:0:0:0:
176,343,81826,1,0,0:0:0:0:
179,338,81912,5,0,0:0:0:0:
118,239,82171,1,0,0:0:0:0:
290,116,82430,1,0,0:0:0:0:
290,116,82516,1,0,0:0:0:0:
286,122,82602,1,0,0:0:0:0:
105,77,82947,5,0,0:0:0:0:
105,77,83033,1,0,0:0:0:0:
105,77,83119,1,0,0:0:0:0:
105,77,83206,1,0,0:0:0:0:
94,67,83292,2,0,P|135:73|171:83,1,70
271,0,83637,1,0,0:0:0:0:
319,150,83809,1,0,0:0:0:0:
144,260,83981,2,0,B|174:297|213:306|217:311,1,70
387,325,84326,1,0,0:0:0:0:
447,177,84499,1,0,0:0:0:0:
84,224,84671,6,0,B|104:184|128:168|176:148|192:140|196:144,1,140
248,208,85016,2,0,P|212:276|148:300,1,140
380,47,85361,1,0,0:0:0:0:
377,61,85447,1,0,0:0:0:0:
374,80,85533,1,0,0:0:0:0:
370,95,85619,1,0,0:0:0:0:
367,106,85706,2,0,L|340:197,1,70
317,356,86223,5,0,0:0:0:0:
141,213,86395,1,0,0:0:0:0:
292,275,86568,1,0,0:0:0:0:
63,311,86740,1,0,0:0:0:0:
253,151,87085,1,0,0:0:0:0:
246,45,87430,2,0,B|243:83|243:85|247:104|249:112|248:125|247:129|247:140|247:150|247:158|247:167|247:177|247:189|247:198|247:208|246:213|246:220|246:228|246:239|247:250|248:259|248:267|249:275|248:283|246:297|246:304|245:310|246:323|246:335|247:341|247:349|249:357|245:338,1,280
246,324,88292,1,0,0:0:0:0:
246,324,88464,1,0,0:0:0:0:
90,72,88637,6,0,B|66:106|65:139|71:183|88:206,1,140
153,90,89154,2,0,P|136:133|150:175,1,70
213,161,89499,2,0,P|207:117|228:93,1,70
426,96,89844,5,0,0:0:0:0:
426,96,90016,2,0,B|433:140|414:169|399:206|359:213,1,140
366,211,90533,1,0,0:0:0:0:
366,211,90706,1,0,0:0:0:0:
367,221,90878,2,0,B|327:232|273:239|226:232,1,140
118,72,91395,6,0,B|86:135|94:182|105:212|118:245|124:279,1,210
126,273,92257,1,0,0:0:0:0:
246,147,92430,1,0,0:0:0:0:
329,281,92602,1,0,0:0:0:0:
397,72,92775,2,0,B|356:58|312:51|299:51|270:53|240:53|225:54|218:55|198:64|191:73,1,210
257,195,93637,1,0,0:0:0:0:
380,164,93809,2,0,P|396:212|416:232,2,70
152,69,94326,5,4,0:0:0:0:
161,203,94585,1,0,0:0:0:0:
345,98,94844,1,0,0:0:0:0:
349,232,95016,5,4,0:0:0:0:
178,331,95275,1,0,0:0:0:0:
218,170,95533,1,0,0:0:0:0:
273,82,95706,1,4,0:0:0:0:
96,80,95878,2,0,P|104:124|140:192,2,105
244,252,96395,2,0,P|184:288|156:320,1,105.000004005432
312,212,96740,2,0,B|352:168|392:132|432:112|484:96,1,210.000008010865,0|4,0:0|0:0,0:0:0:0:
256,192,97171,12,0,99844,0:0:0:0:
76,53,107947,5,0,0:0:0:0:
228,144,108119,5,4,0:0:0:0:
312,180,108292,1,0,0:0:0:0:
384,232,108464,1,0,0:0:0:0:
456,292,108637,1,0,0:0:0:0:
76,264,108809,5,4,0:0:0:0:
98,179,108981,1,0,0:0:0:0:
148,112,109154,1,8,0:0:0:0:
212,64,109326,1,0,0:0:0:0:
452,115,109499,6,0,B|433:157|421:182|401:197|384:216|341:236|320:253|280:258,1,210
300,267,110102,1,0,0:0:0:0:
300,285,110188,1,0,0:0:0:0:
197,145,110361,1,0,0:0:0:0:
340,5,110533,1,0,0:0:0:0:
114,18,110706,1,0,0:0:0:0:
55,133,110878,6,0,L|123:92,1,70
152,165,111223,2,0,L|72:213,1,70
90,278,111568,2,2,L|164:231,1,70,0|2,0:0|0:0,0:0:0:0:
185,313,111912,2,0,L|117:358,1,70
292,26,112257,1,0,0:0:0:0:
393,180,112430,1,0,0:0:0:0:
155,151,112602,1,0,0:0:0:0:
325,319,112775,1,0,0:0:0:0:
277,194,112947,1,0,0:0:0:0:
247,95,113119,2,0,P|202:70|165:74,1,70
35,49,113464,1,0,0:0:0:0:
52,196,113637,6,0,P|88:236|152:260,1,105,4|0,0:0|0:0,0:0:0:0:
328,260,113981,1,0,0:0:0:0:
208,180,114154,2,0,P|260:136|316:120,1,105.000004005432,4|0,0:0|0:0,0:0:0:0:
456,300,114499,1,0,0:0:0:0:
393,122,114671,1,0,0:0:0:0:
262,278,114844,1,0,0:0:0:0:
419,129,115016,1,4,0:0:0:0:
385,268,115188,1,0,0:0:0:0:
286,158,115361,1,0,0:0:0:0:
189,273,115533,1,0,0:0:0:0:
178,74,115706,1,4,0:0:0:0:
21,63,115878,5,0,0:0:0:0:
25,66,115964,1,0,0:0:0:0:
26,67,116050,2,0,L|21:155,1,70,4|0,0:0|0:0,0:0:0:0:
322,59,116395,1,0,0:0:0:0:
200,152,116568,2,0,P|128:144|96:176,2,105.000004005432
294,236,117085,1,0,0:0:0:0:
368,160,117257,2,0,P|432:152|500:172,2,105.000004005432
322,59,117775,1,0,0:0:0:0:
256,192,117861,12,0,118809,0:0:0:0:
10,112,119154,5,0,0:0:0:0:
10,112,119326,1,0,0:0:0:0:
187,179,119499,1,0,0:0:0:0:
191,183,119671,1,0,0:0:0:0:
189,45,119844,1,0,0:0:0:0:
213,63,119930,1,0,0:0:0:0:
223,83,120016,1,0,0:0:0:0:
236,111,120102,1,0,0:0:0:0:
237,136,120188,1,0,0:0:0:0:
234,163,120275,1,0,0:0:0:0:
241,191,120361,1,0,0:0:0:0:
254,219,120447,1,0,0:0:0:0:
263,239,120533,5,4,0:0:0:0:
419,292,120706,1,0,0:0:0:0:
371,117,120878,1,0,0:0:0:0:
314,280,121050,1,0,0:0:0:0:
224,124,121223,2,0,P|184:144|152:200,2,105
69,66,121740,5,0,0:0:0:0:
88,80,121826,1,0,0:0:0:0:
107,98,121912,1,4,0:0:0:0:
243,180,122085,1,0,0:0:0:0:
84,238,122257,1,0,0:0:0:0:
212,34,122430,1,0,0:0:0:0:
260,176,122602,2,0,P|200:188|168:208,2,70
320,54,123119,5,0,0:0:0:0:
345,55,123206,1,0,0:0:0:0:
368,58,123292,1,4,0:0:0:0:
413,229,123464,1,0,0:0:0:0:
223,173,123637,1,0,0:0:0:0:
301,317,123809,1,0,0:0:0:0:
120,272,123981,2,0,P|80:216|68:160,2,105.000004005432
85,62,124499,1,0,0:0:0:0:
106,64,124585,1,0,0:0:0:0:
134,65,124671,1,4,0:0:0:0:
273,143,124844,1,0,0:0:0:0:
136,237,125016,1,0,0:0:0:0:
288,299,125188,1,0,0:0:0:0:
374,218,125361,2,0,L|470:187,2,70
70,57,125878,6,0,B|42:103|39:130|41:176|50:206,1,140
140,80,126395,2,0,P|116:148|120:168,1,70
100,264,126740,1,0,0:0:0:0:
264,106,126912,1,0,0:0:0:0:
275,298,127085,1,0,0:0:0:0:
427,143,127257,6,0,B|405:169|369:190|330:207|300:211,1,140
148,122,127775,1,0,0:0:0:0:
120,288,127947,1,0,0:0:0:0:
285,222,128119,1,0,0:0:0:0:
76,101,128292,1,0,0:0:0:0:
264,83,128464,1,0,0:0:0:0:
105,161,128637,6,0,L|36:283,1,140
208,160,129154,2,0,P|232:116|256:100,1,70
196,288,129499,1,0,0:0:0:0:
352,208,129671,1,0,0:0:0:0:
292,79,129844,1,0,0:0:0:0:
491,116,130016,2,0,B|489:162|471:180|433:208|395:225,1,140
243,203,130533,1,0,0:0:0:0:
116,85,130706,1,0,0:0:0:0:
16,184,130878,1,0,0:0:0:0:
121,275,131137,1,0,0:0:0:0:
290,112,131395,1,0,0:0:0:0:
274,253,131568,1,0,0:0:0:0:
256,192,131654,12,0,134326,0:0:0:0:
191,130,134499,5,0,0:0:0:0:
255,153,134671,1,0,0:0:0:0:
199,197,134844,1,0,0:0:0:0:
151,109,135016,1,0,0:0:0:0:
293,112,135188,1,0,0:0:0:0:
133,171,135361,1,0,0:0:0:0:
227,72,135533,1,0,0:0:0:0:
372,100,135706,5,0,0:0:0:0:
128,264,135878,1,0,0:0:0:0:
227,72,136050,1,0,0:0:0:0:
312,264,136223,1,0,0:0:0:0:
108,124,136395,1,0,0:0:0:0:
292,24,136568,1,0,0:0:0:0:
198,156,136740,1,0,0:0:0:0:
100,283,136912,1,0,0:0:0:0:
125,124,137085,6,0,L|64:72,1,70
307,130,137430,2,0,L|381:66,1,70
123,262,137775,2,0,L|55:312,1,70
311,272,138119,2,0,L|372:320,1,70
194,41,138464,1,0,0:0:0:0:
113,187,138637,1,0,0:0:0:0:
294,190,138809,1,0,0:0:0:0:
213,42,138981,1,0,0:0:0:0:
360,47,139154,1,0,0:0:0:0:
239,192,139326,1,0,0:0:0:0:
88,300,139499,1,0,0:0:0:0:
61,150,139671,1,0,0:0:0:0:
66,150,139757,1,0,0:0:0:0:
66,150,139844,1,0,0:0:0:0:
217,81,140102,5,0,0:0:0:0:
171,227,140361,1,0,0:0:0:0:
317,255,140533,1,0,0:0:0:0:
202,108,140792,1,0,0:0:0:0:
165,289,141050,1,0,0:0:0:0:
286,109,141223,5,0,0:0:0:0:
135,126,141481,1,0,0:0:0:0:
241,266,141740,1,0,0:0:0:0:
241,108,141912,1,0,0:0:0:0:
403,34,142085,5,0,0:0:0:0:
406,53,142171,1,0,0:0:0:0:
412,77,142257,1,0,0:0:0:0:
413,98,142344,1,0,0:0:0:0:
410,113,142430,1,0,0:0:0:0:
406,127,142516,1,0,0:0:0:0:
403,137,142602,2,0,P|382:171|355:200,1,70
176,197,142947,2,0,P|139:177|119:142,1,70
176,197,143292,2,0,P|166:237|166:268,1,70
136,49,143637,2,0,P|103:73|103:112,1,70
303,149,143981,1,0,0:0:0:0:
108,270,144154,1,0,0:0:0:0:
192,67,144326,1,0,0:0:0:0:
314,284,144499,1,0,0:0:0:0:
478,131,144671,2,0,B|465:189|453:208|434:236|408:255,1,140
412,251,145188,6,0,B|357:281|332:283|297:284|260:282,1,140
130,157,145706,1,0,0:0:0:0:
334,124,145878,1,0,0:0:0:0:
196,298,146050,1,0,0:0:0:0:
112,216,146223,1,0,0:0:0:0:
112,216,146309,1,0,0:0:0:0:
111,213,146395,1,0,0:0:0:0:
320,264,146568,1,0,0:0:0:0:
285,91,146740,1,0,0:0:0:0:
256,192,146826,12,0,149499,0:0:0:0:
96,80,160908,6,0,L|176:104,1,70
164,184,161252,2,0,L|36:244,1,105.000004005432
64,304,161597,2,0,L|188:352,1,105.000004005432
280,60,161942,6,0,B|344:68|376:96|384:124,1,105.000004005432
68,72,162287,2,0,P|116:124|116:168,1,105.000004005432
240,160,162632,2,0,P|300:200|324:248,1,105.000004005432
180,312,162976,2,0,P|240:356|308:376,1,105.000004005432
144,96,163321,6,0,B|172:80|200:76|220:72|232:72|256:80|280:84|300:88|324:92|332:100|352:116|376:120|392:136|412:148,1,280
100,148,165045,6,0,B|124:136|156:132|184:132|196:132|208:136|224:136|248:140|256:144|276:144|292:152|316:160,1,210
108,112,166425,1,0,0:0:0:0:
192,232,166770,1,0,0:0:0:0:
288,104,167114,1,0,0:0:0:0:
332,248,167459,1,0,0:0:0:0:
168,104,167804,1,0,0:0:0:0:
404,104,168149,1,0,0:0:0:0:
260,316,168494,1,0,0:0:0:0:
104,232,168839,6,0,B|128:212|156:200|160:200|196:192|216:188|260:184|288:184|304:184|320:192|340:192|356:196|384:208,1,280
104,92,170908,5,0,0:0:0:0:
283,153,171395,5,0,0:0:0:0:
303,147,171481,1,0,0:0:0:0:
324,141,171568,2,0,P|363:165|385:200,1,70
383,257,171912,2,0,P|355:291|316:317,1,70
280,341,172257,2,0,B|229:342|194:327|169:310|145:288,1,140
124,214,172775,1,0,0:0:0:0:
158,211,172861,1,0,0:0:0:0:
187,201,172947,2,0,P|228:183|247:159,1,70
388,25,173292,1,0,0:0:0:0:
395,270,173464,1,0,0:0:0:0:
512,136,173637,1,0,0:0:0:0:
260,107,174326,5,0,0:0:0:0:
316,347,174671,1,0,0:0:0:0:
211,306,174844,1,0,0:0:0:0:
20,182,175188,1,0,0:0:0:0:
110,49,175619,1,0,0:0:0:0:
331,276,176395,1,0,0:0:0:0:
283,132,177085,5,0,0:0:0:0:
275,301,177430,1,0,0:0:0:0:
187,201,177775,1,0,0:0:0:0:
64,81,178119,1,0,0:0:0:0:
187,201,178464,1,0,0:0:0:0:
55,294,178809,1,0,0:0:0:0:
187,201,179154,1,0,0:0:0:0:
288,314,179499,1,0,0:0:0:0:
184,205,179671,1,0,0:0:0:0:
256,192,179844,12,0,182602,0:0:0:0:
97,160,182947,6,0,B|130:200|164:211|200:221|233:229|265:232|288:233,1,210
416,251,183809,2,0,B|447:232|466:195|463:154|463:126,1,140
361,32,184326,1,0,0:0:0:0:
177,42,184671,1,0,0:0:0:0:
140,106,184930,1,0,0:0:0:0:
141,176,185188,1,0,0:0:0:0:
371,72,185706,6,0,B|389:103|393:134|393:151|380:181|366:219|344:250|315:288,1,210
226,137,186568,2,0,B|191:166|183:203|178:241|179:273,1,140
186,262,187085,1,0,0:0:0:0:
56,77,187257,1,0,0:0:0:0:
56,77,187344,1,0,0:0:0:0:
56,77,187430,2,0,L|55:151,2,70
317,82,187947,5,0,0:0:0:0:
340,83,188033,1,0,0:0:0:0:
365,85,188119,1,0,0:0:0:0:
425,188,188292,1,0,0:0:0:0:
233,223,188464,1,0,0:0:0:0:
148,69,188637,1,0,0:0:0:0:
89,300,188809,5,0,0:0:0:0:
322,317,188981,1,0,0:0:0:0:
126,120,189154,1,0,0:0:0:0:
289,325,189326,1,0,0:0:0:0:
89,300,189499,2,0,L|165:241,1,70
318,117,189844,2,0,L|244:179,1,70
338,317,190188,2,0,L|263:255,1,70
88,116,190533,2,0,L|158:185,1,70
394,126,190878,5,0,0:0:0:0:
222,55,191050,1,0,0:0:0:0:
407,266,191223,1,0,0:0:0:0:
136,223,191395,1,0,0:0:0:0:
335,44,191568,1,0,0:0:0:0:
394,105,191740,1,0,0:0:0:0:
448,171,191912,2,0,P|470:214|462:250,1,70
50,58,192257,5,0,0:0:0:0:
154,142,192430,1,0,0:0:0:0:
51,228,192602,1,0,0:0:0:0:
158,286,192775,1,0,0:0:0:0:
43,328,192947,2,0,P|79:370|122:377,1,70
304,335,193292,1,0,0:0:0:0:
343,174,193464,1,0,0:0:0:0:
135,49,193637,6,0,B|113:80|110:137|114:168|119:192,1,140
212,196,194154,1,0,0:0:0:0:
212,196,194240,1,0,0:0:0:0:
206,198,194326,2,0,B|256:213|290:214|337:215|356:213,1,140
359,146,194844,1,0,0:0:0:0:
359,146,194930,1,0,0:0:0:0:
356,138,195016,2,0,B|380:107|380:75|363:46|352:35|327:18,1,140
11,34,195533,1,0,0:0:0:0:
14,52,195619,1,0,0:0:0:0:
18,68,195706,2,0,B|35:108|61:129|78:148|92:159|121:174,1,140
272,159,196395,1,0,0:0:0:0:
256,192,196481,12,0,199154,0:0:0:0:
254,138,199326,5,0,0:0:0:0:
200,195,199499,1,4,0:0:0:0:
299,204,199671,1,0,0:0:0:0:
246,252,199844,1,0,0:0:0:0:
192,137,200016,1,0,0:0:0:0:
188,257,200188,1,4,0:0:0:0:
320,142,200361,1,0,0:0:0:0:
372,226,200533,5,0,0:0:0:0:
305,285,200706,1,0,0:0:0:0:
217,309,200878,1,0,0:0:0:0:
131,270,201050,1,0,0:0:0:0:
64,205,201223,1,0,0:0:0:0:
237,40,201395,5,0,0:0:0:0:
195,232,201568,1,0,0:0:0:0:
304,37,201740,1,0,0:0:0:0:
82,128,201912,1,0,0:0:0:0:
349,138,202085,1,0,0:0:0:0:
76,180,202257,1,0,0:0:0:0:
197,43,202430,1,0,0:0:0:0:
178,202,202602,1,0,0:0:0:0:
335,56,202775,1,0,0:0:0:0:
439,171,202947,1,0,0:0:0:0:
439,177,203119,5,0,0:0:0:0:
439,187,203292,2,0,P|425:229|401:257,1,70
112,241,203637,2,0,B|84:211|97:162|105:155,1,70
197,43,203981,2,0,P|236:33|283:46,1,70
305,331,204326,2,0,P|264:342|215:327,1,70
17,100,204671,5,0,0:0:0:0:
51,287,204844,1,0,0:0:0:0:
126,90,205016,1,0,0:0:0:0:
153,290,205188,1,0,0:0:0:0:
218,83,205361,2,0,P|256:121|264:159,1,70
333,133,205706,2,0,P|317:95|335:57,1,70
445,94,206050,5,0,0:0:0:0:
322,266,206309,1,0,0:0:0:0:
191,120,206568,1,0,0:0:0:0:
406,124,206740,1,0,0:0:0:0:
215,245,206999,1,0,0:0:0:0:
168,60,207257,1,0,0:0:0:0:
359,72,207430,5,0,0:0:0:0:
264,188,207688,1,0,0:0:0:0:
140,239,207947,1,0,0:0:0:0:
37,203,208119,2,0,B|6:161|13:138|23:108,1,70
460,174,208464,5,0,0:0:0:0:
460,174,208637,1,0,0:0:0:0:
460,174,208809,2,0,P|450:213|430:237,1,70
362,222,209154,2,0,P|394:197|398:161,1,70
99,76,209499,2,0,P|132:59|165:75,1,70
171,116,209844,2,0,P|140:137|88:124,1,70
32,273,210188,1,0,0:0:0:0:
231,271,210361,1,0,0:0:0:0:
202,49,210533,1,0,0:0:0:0:
360,262,210706,1,0,0:0:0:0:
48,174,210878,1,0,0:0:0:0:
67,130,211050,1,0,0:0:0:0:
103,87,211223,1,0,0:0:0:0:
142,67,211395,2,0,B|176:51|212:49|256:44|281:47,1,140
300,135,211912,5,0,0:0:0:0:
186,193,212085,1,0,0:0:0:0:
296,266,212257,1,0,0:0:0:0:
148,307,212602,1,0,0:0:0:0:
372,330,212947,2,0,B|419:318|441:289|452:261|457:228,1,140
325,39,213637,1,0,0:0:0:0:
304,57,213723,1,0,0:0:0:0:
283,80,213809,1,0,0:0:0:0:
265,99,213895,1,0,0:0:0:0:
251,118,213981,1,0,0:0:0:0:
241,140,214068,1,0,0:0:0:0:
231,162,214154,2,0,B|216:208|210:244|308:242,1,140
301,242,214671,6,0,B|382:257|380:244|379:244,1,70
370,248,215016,2,0,P|393:212|455:113,1,140
82,67,215533,1,0,0:0:0:0:
82,67,215706,1,0,0:0:0:0:
82,67,215878,2,0,P|84:108|102:143,1,70
175,137,216223,2,0,P|147:103|151:63,1,70
230,73,216568,1,0,0:0:0:0:
221,243,216740,1,0,0:0:0:0:
320,84,216942,6,0,L|400:188,1,105.000004005432
380,252,217287,2,0,L|296:332,1,105.000004005432
152,320,217631,2,0,L|76:232,1,105.000004005432
64,160,217976,2,0,L|136:80,1,105.000004005432
352,96,218321,6,0,P|368:160|344:216,1,105.000004005432
276,284,218666,2,0,P|208:296|136:272,1,105.000004005432
104,224,219011,2,0,P|80:156|96:104,1,105.000004005432
168,56,219356,2,0,P|232:36|288:48,1,105.000004005432
361,153,219844,5,0,0:0:0:0:
234,280,220102,1,0,0:0:0:0:
146,141,220361,1,0,0:0:0:0:
265,61,220533,1,0,0:0:0:0:
325,247,220792,1,0,0:0:0:0:
123,212,221050,1,0,0:0:0:0:
324,52,221223,1,0,0:0:0:0:
64,136,221425,1,0,0:0:0:0:
64,136,221511,1,0,0:0:0:0:
64,136,221597,1,0,0:0:0:0:
156,289,221740,5,0,0:0:0:0:
219,114,221912,1,0,0:0:0:0:
359,237,222171,1,0,0:0:0:0:
137,143,222430,1,0,0:0:0:0:
257,38,222602,1,0,0:0:0:0:
256,192,222718,12,0,226597,0:0:0:0:
180,92,226769,5,4,0:0:0:0:
260,316,226942,1,0,0:0:0:0:
296,156,227114,1,0,0:0:0:0:
48,172,227287,1,0,0:0:0:0:
292,224,227459,1,4,0:0:0:0:
124,292,227631,1,0,0:0:0:0:
332,64,227804,1,0,0:0:0:0:
204,200,227976,1,0,0:0:0:0:
432,148,228149,6,0,P|412:204|392:232,1,70,4|0,0:0|0:0,0:0:0:0:
264,112,228493,1,0,0:0:0:0:
296,312,228666,1,0,0:0:0:0:
156,236,228838,2,0,P|168:192|192:164,1,70,4|0,0:0|0:0,0:0:0:0:
128,28,229183,1,0,0:0:0:0:
24,184,229356,1,0,0:0:0:0:
188,96,229528,2,0,P|232:80|296:72,1,87.5,4|0,0:0|0:0,0:0:0:0:
304,148,229873,2,0,P|252:168|200:176,1,87.5
60,320,230218,2,0,L|108:344,2,43.75,4|0|0,0:0|0:0|0:0,0:0:0:0:
60,320,230562,2,0,P|40:264|48:228,1,87.5
169,154,231050,5,0,0:0:0:0:
80,220,231223,1,0,0:0:0:0:
171,290,231395,1,0,0:0:0:0:
283,213,231568,1,0,0:0:0:0:
418,297,231912,1,0,0:0:0:0:
419,96,232257,1,0,0:0:0:0:
113,109,232602,5,4,0:0:0:0:
243,255,232947,5,4,0:0:0:0:
379,137,233292,5,4,0:0:0:0:
254,43,233637,5,4,0:0:0:0:
99,149,233981,5,4,0:0:0:0:
364,171,234326,5,4,0:0:0:0:
247,44,234671,5,4,0:0:0:0:
82,268,235016,5,0,0:0:0:0:
82,268,235102,1,0,0:0:0:0:
77,264,235188,1,0,0:0:0:0:
82,268,235361,2,0,P|135:288|150:283,1,70
199,187,235706,2,0,P|238:182|268:195,1,70
361,310,236050,1,0,0:0:0:0:
404,87,236223,1,0,0:0:0:0:
