osu file format v9

[General]
AudioFilename: Eternal Blaze.mp3
AudioLeadIn: 1000
PreviewTime: 67234
Countdown: 0
SampleSet: Normal
StackLeniency: 0.3
Mode: 0
LetterboxInBreaks: 1

[Editor]
Bookmarks: 111560
DistanceSpacing: 0.71
BeatDivisor: 4
GridSize: 16

[Metadata]
Title:Eternal Blaze
Artist:Mizuki Nana
Creator:eveless
Version:Insane
Source:Mahou Shoujo Lyrical Nanoha A's
Tags:Fate Testarossa Harlaown Alace kioukiou

[Difficulty]
HPDrainRate:8
CircleSize:4
OverallDifficulty:7
ApproachRate:8
SliderMultiplier:1.9
SliderTickRate:1

[Events]
//Background and Video events
0,0,"fate.jpg"
//Break Periods
2,12740,21169
2,104183,110588
//Storyboard Layer 0 (Background)
//Storyboard Layer 1 (Fail)
//Storyboard Layer 2 (Pass)
//Storyboard Layer 3 (Foreground)
//Storyboard Sound Samples
//Background Colour Transformations
3,100,0,0,0

[TimingPoints]
1220,566.037735849057,4,1,1,30,1,0
9144,-100,4,1,1,0,0,0
15725,387.096774193548,4,1,1,35,1,0
21918,-100,4,1,2,60,0,0
28112,-100,4,1,1,60,0,0
68370,-100,4,1,1,80,0,1
103983,-100,4,1,1,0,0,0
110176,-100,4,1,1,60,0,0
121015,-100,4,1,1,70,0,0
150628,-100,4,1,1,0,0,0
150821,-100,4,1,1,70,0,0
151983,-100,4,1,1,70,0,1
152370,-100,4,1,1,80,0,1
179854,-66.6666666666667,4,1,2,60,0,0

[Colours]
Combo1 : 216,143,239
Combo2 : 114,174,224
Combo3 : 248,230,158
Combo4 : 255,53,53

[HitObjects]
64,192,1220,2,0,B|128:144|192:144|256:176,1,190,0|0
292,272,2352,1,0
368,304,2635,1,0
432,256,2918,2,0,B|460:196|427:141,1,95,0|0
368,112,3484,6,0,B|272:144|176:96,1,190
120,39,4333,1,0
217,23,4616,2,0,B|249:81|252:174|213:218,1,190,0|0
150,251,5465,1,0
64,273,5748,6,0,B|173:268|256:338,1,190
264,230,6597,2,0,B|374:232|436:333,1,190
432,210,7446,2,0,B|394:126|438:23,2,190
342,177,8861,1,0
256,192,9144,12,0,10276
256,192,10418,12,0,12540
80,192,21919,5,4
134,126,22112,1,0
224,122,22306,1,0
278,188,22499,1,0
275,359,22887,1,0
352,320,23080,1,0
432,336,23274,1,0
496,384,23467,6,0,B|496:272|416:192,1,190
486,155,24048,1,0
446,89,24241,1,0
446,89,24338,1,0
371,104,24532,1,0
371,104,24628,1,0
307,62,24822,1,0
240,96,25016,6,0,B|128:64,2,95,4|0|0
256,208,25596,2,0,B|160:144,2,95
224,320,26177,2,0,B|160:224,2,95
304,304,26758,1,0
304,304,26854,1,0
304,304,26951,1,0
368,352,27145,1,0
432,288,27338,5,0
416,192,27532,1,0
336,112,27725,1,0
208,128,27919,1,0
176,240,28112,6,0,B|64:336,2,142.5,4|8|0
240,320,28887,2,0,B|320:304|320:304|352:240,1,142.5,0|0
359,213,29274,1,8
448,181,29467,1,0
320,128,29661,6,0,B|240:112|176:176,2,142.5,0|8|0
416,96,30435,1,0
416,96,30532,1,0
416,96,30628,1,0
432,276,30822,2,0,B|448:180,1,95,8|0
344,314,31209,6,0,B|272:288|192:352,1,142.5
209,339,31596,1,8
160,256,31790,1,0
64,272,31983,2,0,B|96:192|96:192|64:128,1,142.5
50,109,32370,1,8
128,48,32564,1,0
224,80,32758,6,0,B|208:160|304:192,2,142.5,0|8|0
240,48,33435,1,0
352,64,33628,1,0
352,64,33725,1,0
464,32,33919,1,8
464,32,34016,1,0
464,32,34112,1,8
464,32,34209,1,8
464,32,34306,6,0,B|496:128,1,95
432,256,34693,2,0,B|400:144,1,95,8|0
256,304,35274,1,0
256,304,35370,1,0
256,304,35467,1,8
256,208,35661,1,0
106,164,35854,6,0,B|80:256,1,95
17,122,36241,2,0,B|48:32,1,95,8|0
256,80,36822,1,0
256,176,37016,1,8
256,176,37112,1,0
256,176,37209,1,0
352,37,37403,6,0,B|400:117|400:117|336:213,1,190,0|8
256,176,37983,1,0
160,347,38177,2,0,B|112:267|112:267|176:171,1,190,0|8
256,176,38758,1,0
304,256,38951,6,0,B|368:272,1,47.5
416,208,39241,2,0,B|464:192,1,47.5,0|8
474,103,39532,1,8
384,41,39725,2,0,B|344:79,7,47.5,0|0|0|0|8|0|8|0
304,64,40499,6,0,B|224:48|160:128,1,142.5
160,144,40887,1,8
151,259,41080,2,0,B|83:182,1,95
216,322,41661,1,8
216,322,41758,2,0,B|312:338|360:290,1,142.5
400,224,42241,1,0
400,224,42338,1,8
352,144,42532,1,0
352,144,42628,1,8
256,128,42822,2,0,B|208:96,4,47.5,0|0|0|0|8
198,203,43403,1,0
96,240,43596,6,0,B|80:192|112:128|112:128|48:96,1,142.5
60,88,43983,1,8
163,43,44177,1,0
354,84,44370,2,0,B|320:112|248:98,1,95
394,197,44758,2,0,B|428:169|500:183,1,95,8|0
288,256,45145,6,0,B|224:288|144:256,1,142.5
117,238,45532,1,8
181,309,45725,1,0
80,326,45919,2,0,B|32:310,4,47.5,0|0|0|0|8
32,176,46499,1,0
176,112,46693,6,0,B|336:112,1,142.5,4|0
320,144,47080,2,0,B|416:144,1,95,8|0
224,208,47467,2,0,B|128:208,1,95
368,256,47854,2,0,B|480:256,1,95,8|0
256,320,48241,6,0,B|192:352|144:336,1,95
67,248,48628,1,8
143,175,48822,1,0
118,69,49016,2,0,B|150:21,1,47.5
236,103,49306,2,0,B|284:87,1,47.5,0|8
339,175,49596,1,0
352,288,49790,6,0,B|448:320,1,95,4|0
256,320,50177,2,0,B|160:288,1,95,8|4
167,289,50758,1,0
223,98,50951,2,0,B|159:178,1,95,4|8
352,288,51532,2,0,B|419:200,1,95,8|4
272,208,52112,1,0
272,208,52209,1,0
272,208,52306,1,0
272,208,52403,1,0
272,208,52499,1,8
272,208,52596,1,0
272,208,52693,1,8
272,208,52790,1,0
272,208,52887,6,0,B|208:288|96:288,1,190,0|8
350,144,53661,2,0,B|382:96|462:96,2,95,0|0|8
78,146,54241,2,0,B|174:82|286:130,1,190,4|0
368,240,54822,1,8
144,304,55209,2,0,B|96:336,3,47.5
96,288,55596,2,0,B|32:304,3,47.5,8|0|8|0
44,256,55983,6,0,B|156:240|236:304,1,190,0|4
449,139,56758,2,0,B|400:160|407:218,2,95,0|0|8
320,240,57338,2,0,B|256:160|144:176,1,190
208,272,57919,2,0,B|224:160|336:128,1,190,8|0
400,112,58499,1,0
400,112,58596,1,0
400,112,58693,1,8
480,128,58887,1,8
480,128,58983,1,0
480,128,59080,6,0,B|448:240|336:256,1,190,4|8
351,253,59661,1,0
256,96,60048,2,0,B|256:48,2,47.5,0|0|8
256,192,60435,1,8
160,253,60628,6,0,B|64:240|32:160,1,142.5,4|0
22,152,61016,1,8
144,144,61209,2,0,B|64:192|64:272,1,142.5
64,288,61596,1,0
184,292,61790,2,0,B|248:276,2,47.5,8|0|8
288,352,62177,6,0,B|400:352|464:240,1,190,0|8
448,265,62758,1,0
288,192,63145,1,0
385,187,63338,1,8
432,112,63532,1,0
432,112,63725,6,0,B|384:96|320:96,1,95
311,96,64016,1,0
284,98,64112,1,8
288,192,64306,1,0
192,208,64499,2,0,B|128:240|32:208,2,142.5,0|8|8
256,304,65274,6,0,B|256:368,8,47.5,0|0|0|8|0|0|8|0|0
256,208,66241,1,4
208,128,66435,1,8
304,128,66628,1,4
256,192,67209,12,0,68177
192,224,68370,5,4
320,80,68758,1,8
400,256,69145,1,0
272,320,69435,1,0
272,320,69532,2,0,B|224:352|144:320,1,95,8|0
18,278,69919,2,0,B|66:246|146:278,1,95
297,334,70306,2,0,B|249:366|169:334,1,95,8|0
46,245,70693,2,0,B|94:213|174:245,1,95
163,224,70983,1,0
191,200,71080,2,0,B|246:191|278:159,1,95,8|8
400,160,71467,6,0,B|352:64,1,95
384,256,71854,2,0,B|272:240,1,95,8|0
432,336,72241,2,0,B|368:368|288:352,1,142.5
263,344,72629,1,8
161,322,72822,1,0
64,352,73016,6,0,B|32:240|48:240,2,95,0|0|8
160,288,73596,1,0
188,282,73693,1,0
215,272,73790,1,0
239,256,73887,1,0
259,235,73983,1,0
259,206,74080,1,0
279,185,74177,1,8
307,177,74274,1,0
335,170,74370,1,8
363,170,74467,1,0
399,169,74564,6,0,B|464:112|444:28,1,142.5
432,16,74951,1,8
305,54,75145,1,0
208,144,75338,2,0,B|160:64|32:64,1,190,0|8
89,172,75919,1,0
80,288,76112,6,0,B|176:288|224:368,1,142.5
224,368,76499,1,8
337,298,76693,1,0
448,368,76887,2,0,B|416:272|464:160,1,190,0|8
512,96,77467,1,0
233,104,77661,6,0,B|377:56,1,142.5
406,54,78048,1,8
336,128,78241,1,0
240,288,78435,2,0,B|336:224,1,95,0|4
136,114,78822,2,0,B|95:201,1,95,8|0
71,57,79403,6,0,B|22:155,1,95,0|8
175,234,79790,2,0,B|265:173,1,95,8|0
288,304,80177,1,8
319,292,80274,1,0
352,292,80370,1,8
384,300,80467,1,0
407,323,80564,1,0
440,323,80661,1,0
469,305,80758,6,0,B|501:225|453:161,1,142.5,4|0
441,146,81145,1,8
256,112,81338,2,0,B|288:160|368:160,1,95
160,192,81725,2,0,B|112:160|48:176,1,95,0|8
16,256,82112,1,0
16,256,82209,1,0
16,256,82306,6,0,B|48:304|32:352,1,95
192,336,82693,2,0,B|208:272|272:256,1,95,8|0
352,144,83080,2,0,B|416:192|384:272,1,142.5
368,304,83467,1,8
464,336,83661,1,0
464,336,83758,1,0
464,336,83854,6,0,B|400:320|320:368,1,142.5
312,326,84241,2,0,B|248:326|216:262,1,95,8|0
176,208,84629,1,0
178,93,84822,1,0
199,103,84919,1,0
206,125,85016,1,8
304,128,85209,1,0
368,224,85403,6,0,B|432:128,1,95
480,64,85790,1,8
480,64,85983,1,0
370,33,86177,2,0,B|320:32,4,47.5,0|8|0|0|8
304,128,86758,1,0
176,112,86951,5,4
0,256,87338,2,0,B|32:240|48:208|48:208|80:208,1,95,8|4
336,368,87919,2,0,B|288:368|288:368|240:304,2,95,4|8|0
432,368,88499,2,0,B|384:272|384:272|448:176,1,190,4|8
480,128,89080,1,4
256,48,89467,2,0,B|288:96,5,47.5,4|0|8|0|8|8
240,96,90048,6,0,B|272:176|240:240,1,142.5,4|0
224,261,90435,1,8
147,327,90629,1,0
48,336,90822,2,0,B|-10:236,1,95,8|0
96,153,91209,2,0,B|77:209,3,47.5,8|0|8|8
128,176,91596,6,0,B|160:112|240:96|320:128,1,190,4|8
368,160,92177,1,0
366,243,92370,1,0
288,263,92564,1,0
236,194,92758,1,8
211,207,92854,1,0
194,229,92951,1,0
186,256,93048,1,8
192,285,93145,6,0,B|102:330|5:291,1,190,4|8
32,208,93725,2,0,B|0:128|48:48,1,142.5
64,112,94112,2,0,B|96:64|160:64,2,95,0|8|0
144,160,94693,1,0
288,80,94983,1,0
288,80,95080,1,8
263,191,95274,1,0
288,336,95564,2,0,B|352:304,1,47.5,8|0
352,352,95758,2,0,B|400:336,1,47.5,0|8
419,374,95951,2,0,B|467:363,1,47.5,0|8
496,272,96241,5,4
288,160,96532,1,4
256,368,96822,1,0
208,368,97016,5,4
304,192,97306,1,4
471,309,97596,1,0
439,332,97790,5,4
128,288,98370,1,0
48,336,98564,2,0,B|32:224|144:192,1,190
256,192,99338,12,0,103983
160,128,111338,6,0,B|112:176,3,47.5
192,96,111725,5,4
350,160,112016,1,0
206,252,112306,1,0
408,251,112499,2,0,B|368:272|312:251,1,95
160,176,112887,2,0,B|200:155|256:176,1,95,8|0
350,160,113274,5,0
160,176,113564,1,0
267,334,113854,1,0
173,277,114048,6,0,B|125:309,2,47.5,0|0|0
256,240,114435,1,8
339,274,114629,1,0
339,275,114822,6,0,B|416:224|403:147,2,142.5
320,176,115596,1,0
256,48,115887,1,0
256,48,115983,1,8
230,140,116177,1,0
128,128,116370,6,0,B|112:192|192:256,1,142.5
411,290,116951,2,0,B|405:237|352:203,1,95
288,272,117338,1,0
288,272,117435,1,0
288,272,117532,1,8
220,339,117725,1,8
220,339,117822,1,8
220,339,117919,6,0,B|64:336,1,142.5
38,336,118306,1,8
160,224,118499,2,0,B|368:224,1,190
95,120,119080,2,0,B|-17:120,1,95,8|8
192,48,119467,6,0,B|352:48,1,142.5
368,48,119854,1,8
496,128,120048,1,0
496,128,120145,1,0
496,128,120241,2,0,B|384:128,1,95
192,176,120629,2,0,B|320:176,1,95,8|0
112,256,121016,6,0,B|32:176|64:64,1,190,4|8
400,128,121790,2,0,B|464:176|448:256,2,142.5,4|4|4
320,192,122564,5,0
320,192,122661,1,0
273,276,122854,1,0
274,276,122951,1,8
181,254,123145,1,0
123,330,123338,2,0,B|59:346,4,47.5,0|0|0|0|8
219,351,123919,1,0
368,288,124112,6,0,B|416:224|384:144,1,142.5,4|0
360,125,124499,1,8
448,80,124693,1,0
288,64,124887,2,0,B|240:64|192:96,1,95
80,208,125274,2,0,B|128:208|176:176,1,95,8|0
32,336,125661,6,0,B|96:304|176:352,1,142.5,0|0
190,365,126048,1,8
241,222,126241,2,0,B|295:206|341:225,1,95
357,229,126532,1,0
378,239,126629,2,0,B|439:256|497:245,2,95,0|8|0
512,144,127209,5,0
380,94,127499,1,8
240,130,127790,1,0
187,210,127983,2,0,B|112:240|34:210,1,142.5
26,194,128370,1,8
80,272,128564,1,0
246,300,128758,6,0,B|160:288|112:368,1,142.5
106,382,129145,1,8
24,327,129338,1,0
79,227,129532,2,0,B|127:179,4,47.5,0|0|0|0|8
210,205,130112,1,0
335,248,130306,6,0,B|431:216|479:120,1,190,4|8
433,40,130887,1,0
389,125,131080,2,0,B|436:206|400:322,1,190,0|8
311,334,131661,1,0
208,336,131854,6,0,B|224:288,1,47.5
128,288,132145,2,0,B|128:224,1,47.5,0|8
32,272,132435,1,0
15,365,132629,6,0,B|-13:235|67:171,1,190,0|8
135,142,133209,1,0
192,32,133403,6,0,B|272:112|224:224,1,190,4|8
322,259,133983,1,0
469,334,134177,2,0,B|423:301|423:237,1,95,0|8
446,145,134564,1,8
384,48,134758,6,0,B|340:150|200:134,1,190,4|0
272,32,135338,2,0,B|368:128|288:240,1,190,8|0
208,256,135919,2,0,B|176:304,1,47.5,0|8
160,272,136112,2,0,B|112:320,1,47.5,8|0
112,272,136306,2,0,B|64:304,1,47.5
64,256,136499,5,0
224,112,136887,1,4
64,112,137177,1,0
64,112,137274,1,0
144,48,137467,1,0
224,112,137661,1,8
351,151,137854,2,0,B|319:103|335:55,1,95,4|0
463,215,138241,6,0,B|479:279|431:327,1,95,0|8
348,271,138629,1,0
348,271,138725,1,0
348,271,138822,2,0,B|304:304|256:288,1,95
160,240,139209,1,8
130,240,139306,1,0
109,260,139403,1,8
112,288,139499,1,8
128,304,139596,6,0,B|80:304|32:288|16:208,1,142.5,0|8
16,192,139983,2,0,B|16:96|96:64|160:80,1,190
220,109,140564,1,0
281,203,140758,2,0,B|281:123|345:107,1,95,8|4
474,285,141338,2,0,B|474:349|410:365,1,95,0|8
384,277,141725,1,0
346,199,141919,2,0,B|401:167|447:214,1,95
319,330,142306,1,8
272,256,142499,1,8
272,256,142596,1,8
272,256,142693,6,0,B|176:240|144:320,1,142.5,4|0
192,320,143080,2,0,B|164:270|112:272,1,95,8|0
203,150,143564,1,0
234,127,143661,2,0,B|286:115|350:129,2,95,0|8|0
96,160,144241,6,0,B|64:80|160:16,1,142.5,4|0
171,19,144629,2,0,B|215:-7|273:35,1,95,8|4
464,176,145209,1,0
449,171,145306,1,0
434,171,145403,1,8
420,176,145499,1,0
409,186,145596,1,8
402,199,145693,1,8
400,208,145790,6,0,B|304:256|208:224,1,190,4|8
124,196,146370,1,0
124,196,146467,1,0
124,196,146564,1,0
81,109,146758,1,0
0,0,146951,2,0,B|49:-3|98:34,1,95,8|0
247,126,147338,6,0,B|195:118|167:78,1,95
340,136,147725,2,0,B|420:116|480:160,1,142.5,8|0
487,175,148112,1,0
443,96,148306,1,0
468,7,148499,1,8
375,29,148693,2,0,B|320:16|269:54,1,95,0|4
208,192,149177,5,8
320,320,149467,1,8
320,320,149564,2,0,B|400:304|400:304|464:336,1,142.5,0|8
494,251,150048,1,0
416,192,150241,2,0,B|320:176|320:176|224:224,1,190,8|0
256,192,150822,12,4,151983
224,192,152370,5,8
224,97,152564,1,0
291,29,152758,2,0,B|373:27|416:112,1,142.5
415,124,153145,1,8
456,38,153338,1,0
477,209,153532,6,0,B|493:305,1,95
391,353,153919,2,0,B|391:258,1,95,8|0
288,224,154306,2,0,B|272:368,1,142.5
270,384,154693,1,8
176,352,154887,1,8
80,368,155080,6,0,B|48:256|80:176,1,190,0|8
252,191,155661,1,0
432,16,155854,2,0,B|464:128|432:208,1,190,0|8
252,191,156435,1,0
256,96,156629,5,0
339,144,156822,1,0
384,224,157016,2,0,B|384:304|288:352,1,142.5,8|0
284,312,157403,2,0,B|227:329|167:289,3,95,0|0|8|0
166,288,158080,1,0
144,272,158177,6,0,B|128:352|16:352,1,142.5,4|0
5,344,158564,1,8
30,220,158758,2,0,B|46:171|110:156,2,95
192,192,159338,2,0,B|272:192|320:112,1,142.5,8|0
320,80,159725,6,0,B|304:128|352:176,1,95
365,167,160016,1,0
386,170,160112,2,0,B|459:179|478:242,2,95,8|0|0
287,249,160693,2,0,B|271:297,1,47.5
217,277,160887,2,0,B|182:324,1,47.5,8|0
137,292,161080,2,0,B|85:321,1,47.5
50,334,161274,6,0,B|-16:336|-48:240|12:209,1,142.5
0,232,161661,1,8
68,151,161854,1,0
177,199,162048,1,0
160,317,162241,1,0
256,112,162435,6,0,B|368:64,1,95,8|4
160,320,163016,2,0,B|80:272,2,95,0|8|4
320,261,163693,2,0,B|384:245,3,47.5,0|0|0|8
399,230,164080,1,0
425,203,164177,1,8
436,166,164274,1,0
418,132,164370,6,0,B|384:96|384:96|304:112,1,95,4|0
313,116,164661,1,0
286,125,164758,2,0,B|240:144|189:96,1,95,8|0
110,242,165145,2,0,B|152:194|89:118|20:164,1,142.5
51,150,165532,1,8
28,229,165725,1,0
95,324,165919,6,0,B|145:364|207:332,1,95
340,340,166306,2,0,B|357:277|300:244,1,95,8|0
272,116,166693,2,0,B|338:163|422:126,1,142.5
436,120,167080,1,8
472,26,167274,1,8
329,10,167467,6,0,B|217:10|169:74,1,142.5
178,68,167854,1,8
69,56,168048,1,0
107,156,168241,2,0,B|137:198|109:258,1,95
96,352,168629,2,0,B|133:334|208:352,1,95,8|0
374,320,169016,6,0,B|317:305|300:242,1,95
414,136,169403,2,0,B|435:190|402:227,1,95,8|0
272,127,169790,1,0
272,126,169887,1,0
272,126,169983,1,0
272,126,170080,1,0
272,126,170177,1,8
272,127,170274,1,0
272,127,170370,1,8
272,127,170467,1,0
272,127,170564,6,0,B|208:96|112:128,1,142.5,4|0
104,136,170951,1,8
209,66,171145,1,4
408,248,171532,1,0
303,318,171725,1,8
408,248,171919,1,0
464,368,172112,6,0,B|476:314|544:304,1,95,4|0
379,372,172499,1,8
303,318,172693,2,0,B|224:288|160:320,1,142.5,4|0
138,330,173080,1,4
261,163,173370,2,0,B|244:110,2,47.5,0|8|8
305,138,173661,6,0,B|320:48|432:48,1,142.5,12|0
386,85,174048,2,0,B|452:68|505:98,1,95,8|0
420,253,174435,1,0
420,253,174532,1,8
420,253,174629,1,0
275,300,174822,1,8
275,300,174919,1,0
275,300,175016,1,0
275,300,175112,1,0
275,300,175209,6,0,B|192:256|80:320,1,190,0|4
15,249,175790,1,0
77,157,175983,1,0
206,183,176177,1,0
359,212,176370,1,0
359,212,176467,1,0
359,211,176564,1,0
359,212,176661,1,0
359,212,176758,6,0,B|464:176|464:32,1,190,4|8
462,66,177338,1,0
321,83,177629,1,0
321,83,177725,1,0
263,170,177919,1,8
359,211,178112,1,0
151,288,178306,6,0,B|248:279|300:320,1,142.5
288,312,178693,1,8
417,316,178887,1,0
466,140,179177,2,0,B|444:193,3,47.5,0|0|0|8
430,115,179564,2,0,B|448:67,2,47.5,0|8|0
416,48,179854,6,0,B|288:64|304:224,1,213.749993629754,4|0
256,352,180435,1,0
336,320,180629,6,0,B|304:240|224:240|224:144,1,213.749993629754,4|0
256,32,181209,1,0
256,32,181403,6,0,B|224:64|256:176,1,142.499995753169
256,192,181983,12,4,182951
