osu file format v9

[General]
AudioFilename: Eternal Blaze.mp3
AudioLeadIn: 1000
PreviewTime: 67234
Countdown: 0
SampleSet: Soft
StackLeniency: 0.3
Mode: 0
LetterboxInBreaks: 1

[Editor]
Bookmarks: 1250,15755,99367,111560
DistanceSpacing: 0.9
BeatDivisor: 4
GridSize: 4

[Metadata]
Title:Eternal Blaze
Artist:Mizuki Nana
Creator:eveless
Version:Alakiou
Source:Mahou Shoujo Lyrical Nanoha A's
Tags:Fate Testarossa Harlaown Alace kioukiou

[Difficulty]
HPDrainRate:5
CircleSize:4
OverallDifficulty:5
ApproachRate:7
SliderMultiplier:1.6
SliderTickRate:0.5

[Events]
//Background and Video events
0,0,"fate.jpg"
//Break Periods
2,12740,14825
2,102635,110632
//Storyboard Layer 0 (Background)
//Storyboard Layer 1 (Fail)
//Storyboard Layer 2 (Pass)
//Storyboard Layer 3 (Foreground)
//Storyboard Sound Samples
//Background Colour Transformations
3,100,0,0,0

[TimingPoints]
1220,566.037735849057,4,2,1,30,1,0
9144,-100,4,2,1,0,0,0
10559,-100,4,2,1,0,0,0
15725,387.096774193548,4,1,1,35,1,0
21724,-100,4,1,1,50,0,0
27918,-100,4,1,1,60,0,0
68370,-100,4,1,1,75,0,0
92176,-100,4,2,1,75,0,0
96241,-100,4,1,1,75,0,0
98176,-100,4,2,1,75,0,0
111337,-100,4,1,1,60,0,0
111724,-100,4,2,0,60,0,0
111821,-100,4,1,1,60,0,0
117628,-100,4,1,1,79,0,0
148789,-100,4,2,0,80,0,0
149757,-100,4,2,0,45,0,0
149950,-100,4,2,0,61,0,0
150144,-100,4,2,0,74,0,0
150337,-100,4,2,0,45,0,0
150531,-100,4,2,0,26,0,0
150724,-100,4,2,0,44,0,0
150918,-100,4,2,0,52,0,0
151015,-100,4,2,0,60,0,0
151112,-100,4,2,0,69,0,0
151305,-100,4,2,0,74,0,0
151402,-100,4,2,0,79,0,0
151499,-100,4,1,1,70,0,0
151692,-100,4,1,1,75,0,0
151789,-100,4,1,1,80,0,0
151886,-100,4,1,1,85,0,0
151983,-100,4,1,1,89,0,0
175112,-100,4,2,0,89,0,0
175692,-100,4,2,0,60,0,0
175886,-100,4,2,0,70,0,0
176079,-100,4,2,0,80,0,0
176273,-100,4,1,1,89,0,0
179854,-100,4,2,0,89,0,0
182950,-100,4,2,0,50,0,0
186047,-100,4,2,0,31,0,0

[Colours]
Combo1 : 216,143,239
Combo2 : 114,174,224
Combo3 : 248,230,158
Combo4 : 255,53,53

[HitObjects]
48,96,1220,2,0,B|128:48|224:48,1,160,0|2
256,96,2069,1,0
312,48,2352,2,0,B|384:48|464:96,1,160,0|2
448,168,3201,2,0,B|416:264,1,80
352,232,3767,2,0,B|304:320,1,80,0|2
240,288,4333,2,0,B|160:360,1,80
80,48,5465,5,0
80,48,5748,1,2
32,184,6314,1,0
32,184,6597,1,0
32,184,6880,2,0,B|192:184,1,160,2|0
200,112,7729,1,0
264,144,8012,1,2
264,216,8295,1,0
202,252,8578,1,0
256,192,8720,12,0,10276
256,192,10559,12,2,12540
80,112,15725,6,0,B|144:64|248:64,1,160,0|8
304,64,16306,1,0
424,144,16693,1,0
376,200,16887,2,0,B|312:248|208:248,1,160,8|0
152,248,17467,1,0
152,248,17564,1,0
152,248,17661,2,0,B|152:144,2,80,8|0|0
152,320,18241,1,0
224,320,18435,2,0,B|296:352|381:318,1,160,8|0
384,176,19209,5,8
384,104,19403,1,0
240,96,19790,1,0
240,24,19983,1,8
112,88,20370,1,0
112,160,20564,1,0
112,160,20661,1,0
112,160,20758,1,8
112,232,20951,1,0
112,232,21048,1,0
112,232,21145,2,0,B|112:312,2,80,0|0|8
256,288,21919,6,0,B|312:344|416:320,1,160,4|8
472,288,22499,1,0
480,144,22887,1,0
424,96,23080,2,0,B|368:40|264:64,1,160,8|0
200,64,23661,1,0
136,32,23854,1,8
72,64,24048,1,0
136,192,24435,1,0
136,192,24628,1,8
64,320,25016,5,0
128,352,25209,1,0
192,320,25403,1,8
256,192,25790,1,0
256,192,25983,1,0
448,64,26370,1,0
384,32,26564,1,0
320,64,26758,1,0
384,104,26951,1,8
384,176,27145,1,0
384,176,27241,1,0
384,176,27338,2,0,B|384:264,2,80,0|0|8
80,272,28112,6,0,B|144:304|240:320,1,160,4|8
304,320,28693,1,0
376,312,28887,2,0,B|472:280,2,80,0|0|8
424,176,29661,1,0
312,80,30048,1,8
360,136,30241,1,0
336,160,30338,1,0
312,184,30435,2,0,B|248:248,2,80,0|0|8
56,32,31209,6,0,B|-8:112|68:191,1,160,0|8
128,176,31790,1,0
192,144,31983,1,0
192,144,32080,1,0
192,216,32274,1,0
192,216,32370,1,8
256,184,32564,1,0
328,184,32758,2,0,B|400:200|424:280,2,120
328,256,33532,1,0
280,312,33725,1,0
208,336,33919,1,8
104,240,34306,6,0,B|56:248|32:296,2,80,0|0|8
176,240,34887,1,0
176,240,34983,2,0,B|304:240,1,120
296,168,35467,2,0,B|400:168,1,80,8|0
376,96,35854,5,0
304,80,36048,1,0
232,96,36241,1,8
160,96,36435,1,0
160,96,36532,1,0
160,96,36628,2,0,B|80:96,2,80,0|0|8
80,272,37403,6,0,B|80:384,1,80
160,240,37790,2,0,B|160:336,1,80,8|0
240,352,38177,2,0,B|240:256,1,80
320,240,38564,2,0,B|320:320,1,80,8|0
400,272,38951,2,0,B|400:368,2,80,0|0|8
400,192,39532,1,0
400,192,39725,2,0,B|456:160|464:64,2,120
328,136,40499,6,0,B|296:184,1,40,4|0
224,112,40790,2,0,B|224:176,1,40,0|8
144,144,41080,2,0,B|64:144,2,80
144,224,41661,2,0,B|176:320|288:320,1,160,8|0
400,256,42435,1,8
440,192,42628,1,0
400,128,42822,1,0
368,192,43016,1,0
368,192,43112,1,0
368,192,43209,2,0,B|288:192,1,80,8|0
216,184,43596,6,0,B|120:168|112:56,1,160,0|8
48,40,44177,1,0
32,112,44370,2,0,B|64:144|48:200,1,80
112,224,44758,1,8
440,192,45145,2,0,B|456:272|424:320,2,120
368,192,45919,1,0
296,192,46112,1,0
224,192,46306,2,0,B|56:192,1,160,8|4
256,40,47080,5,8
448,40,47467,1,0
448,232,47854,1,8
256,232,48241,1,0
160,232,48435,1,0
160,136,48628,1,8
256,136,48822,1,0
256,328,49209,5,0
256,328,49403,1,8
328,328,49596,1,0
328,328,49693,1,0
328,328,49790,2,0,B|360:368|416:360,2,80,4|0|8
328,256,50370,2,0,B|328:96,1,160
400,96,50951,1,8
360,32,51145,1,0
288,32,51338,1,0
256,96,51532,1,0
288,160,51725,2,0,B|288:224,1,40,8|0
360,160,52016,2,0,B|360:224,1,40
320,336,52499,2,0,B|320:384,3,40,0|0|0|0
176,264,53274,6,0,B|96:216|128:104,1,160,4|0
128,56,53854,2,0,B|216:32,1,80,0|8
256,88,54241,1,0
304,32,54435,2,0,B|392:56,1,80
384,128,54822,2,0,B|410:218|330:266,1,160,8|0
256,264,55403,1,0
256,336,55596,2,0,B|256:376,3,40,8|0|0|0
80,336,56370,5,4
64,192,56758,1,0
96,128,56951,2,0,B|144:56,2,80,0|8|0
224,192,57725,1,0
224,264,57919,1,8
352,200,58306,1,0
368,128,58499,1,0
384,56,58693,1,8
480,248,59080,6,0,B|432:336|360:360,1,160,4|8
296,360,59661,2,0,B|192:360,1,80
152,320,60048,2,8,B|48:320,1,80
32,136,60628,6,0,B|80:48|152:24,1,160,0|8
216,24,61209,2,0,B|320:24,1,80
360,64,61596,2,0,B|464:64,1,80,0|8
480,192,62177,5,4
344,248,62564,1,8
320,320,62758,1,0
168,136,63145,1,0
192,64,63338,1,8
32,192,63725,1,0
16,264,63919,1,0
32,336,64112,1,8
256,328,64499,6,0,B|320:360|384:320,2,120
256,328,65274,2,0,B|192:296|128:336,2,120
256,184,66241,1,0
256,112,66435,1,0
256,40,66628,1,0
256,192,67209,12,4,68370
72,80,68758,5,8
112,264,69145,1,0
288,336,69532,1,8
376,304,69725,1,0
440,232,69919,2,0,B|480:208|480:152,1,80
384,152,70306,2,0,B|376:192|336:224,1,80,8|0
296,136,70693,2,0,B|328:112|336:56,1,80
240,64,71080,5,0
224,64,71177,1,0
208,64,71274,1,0
192,64,71370,1,0
176,64,71467,2,0,B|144:152|56:160,1,160,0|8
32,248,72048,1,0
128,272,72241,2,0,B|160:184|248:176,1,160,0|8
344,176,72822,1,0
440,176,73016,2,0,B|520:176,2,80,0|0|8
392,256,73596,1,0
328,328,73790,1,0
296,360,73887,1,8
208,328,74080,1,0
176,360,74177,1,8
80,360,74370,5,0
80,360,74467,1,0
80,360,74564,2,0,B|24:288|88:208,1,160,4|8
180,213,75145,1,0
180,213,75338,2,0,B|13:212,2,160,0|8|0
280,216,76306,5,0
376,216,76499,2,0,B|432:144|368:64,1,160,8|0
276,69,77080,1,0
276,69,77274,2,0,B|443:68,2,160,8|0|8
179,69,78241,1,0
83,69,78435,2,0,B|3:69,2,80,0|0|8
128,152,79016,6,0,B|64:232|136:304,1,160
224,296,79596,1,8
320,296,79790,1,0
480,192,80177,1,0
384,192,80370,1,8
288,192,80564,5,0
288,192,80661,1,0
288,192,80758,2,0,B|216:192|120:192,1,160,4|8
128,288,81338,1,0
48,240,81532,1,0
48,144,81725,1,0
128,96,81919,2,0,B|200:64,1,80,8|0
288,104,82306,2,0,B|360:72,1,80
360,168,82693,2,0,B|288:200,1,80,8|0
200,160,83080,2,0,B|128:192,1,80
48,240,83467,5,0
56,248,83564,1,0
64,256,83661,1,0
72,264,83758,1,0
80,272,83854,2,0,B|248:272,1,160,0|8
336,280,84435,1,0
432,272,84629,2,0,B|456:224|424:184,1,80
336,184,85016,1,8
240,168,85209,2,0,B|216:120|248:80,1,80
336,80,85596,1,0
432,96,85790,2,0,B|456:144|424:184,1,80,8|0
336,184,86177,1,0
336,184,86274,1,8
336,280,86467,1,0
336,280,86564,2,0,B|336:376,2,80,8|0|0
64,336,87338,5,0
160,336,87532,1,0
448,240,87919,1,0
352,240,88112,1,0
64,144,88499,1,0
160,144,88693,1,0
448,48,89080,1,0
352,48,89274,1,0
256,48,89467,2,0,B|256:8,2,40
112,296,90048,5,4
256,320,90338,1,0
400,296,90629,1,0
320,240,90822,5,0
256,112,91112,1,0
184,240,91403,1,0
256,320,91596,5,0
256,112,91983,1,4
160,112,92177,5,0
208,32,92370,1,0
304,32,92564,1,0
352,112,92758,1,0
352,120,92854,1,0
352,128,92951,1,0
352,136,93048,1,0
352,144,93145,2,0,B|376:224|344:304,1,160,0|8
256,336,93725,5,0
64,240,94112,1,0
160,240,94306,1,8
256,48,94693,1,0
448,144,95080,1,8
352,144,95274,1,0
256,144,95467,1,0
256,144,95564,1,8
256,240,95758,1,0
256,240,95854,1,8
256,336,96048,5,0
256,336,96145,1,0
256,336,96241,2,0,B|104:336,2,120,4|0|0
256,336,97016,2,0,B|400:336,2,120
256,240,97790,2,0,B|256:64,1,160
168,40,98370,1,0
80,80,98564,2,0,B|80:248,2,160
256,192,99532,12,0,102435
196,164,111532,5,0
196,164,111629,1,0
196,164,111725,2,0,B|128:176|88:116,2,120,4|0|0
236,236,112499,2,0,B|328:236|388:300,1,160,0|8
484,196,113274,1,0
256,60,113854,1,0
28,196,114435,1,8
96,240,114629,5,0
96,240,114725,1,0
96,240,114822,2,0,B|112:300|152:360,2,120
164,196,115596,2,0,B|120:120|56:60,1,160,0|8
140,40,116177,1,0
216,16,116370,1,0
476,192,116951,1,0
216,368,117532,1,8
156,316,117725,5,0
156,316,117822,1,0
156,316,117919,2,0,B|120:280|68:304,1,80
40,228,118306,2,0,B|88:228|120:184,1,80,8|0
140,168,118596,1,0
212,132,118790,1,0
188,100,118887,2,0,B|164:60|116:60,1,80,0|8
264,200,119467,6,0,B|340:172,1,80
340,252,119854,2,0,B|264:280,1,80,8|0
228,268,120145,1,0
196,340,120338,1,0
159,352,120435,2,0,B|83:324,1,80,0|8
48,248,120822,5,0
48,248,121016,1,4
84,48,121403,1,0
48,248,121790,1,4
152,192,122080,1,0
144,312,122370,1,0
224,320,122564,1,4
304,308,122758,1,0
380,280,122951,1,0
508,240,123145,6,0,B|428:220|376:152,1,160,0|0
304,120,123725,1,0
372,76,123919,1,0
300,40,124112,6,0,B|260:24|212:36|200:80,1,120,4|0
172,104,124499,2,0,B|124:112|112:64,1,80,8|0
24,120,124887,2,0,B|104:152|156:224,1,160,0|8
304,328,125661,2,0,B|244:312|216:252,1,120
240,220,126048,2,0,B|288:196|328:180,1,80,8|0
440,200,126435,2,0,B|392:224|352:240,2,80,0|8|8
408,120,127016,5,0
408,120,127112,1,0
408,120,127209,2,0,B|360:72|292:92,1,120
264,108,127596,2,0,B|232:120|188:80,1,80,8|0
116,136,127983,2,0,B|204:160|248:228,1,160,0|8
296,288,128564,1,0
312,368,128758,1,0
372,316,128951,1,0
372,316,129048,1,0
372,316,129145,2,0,B|452:316,2,80,8|0|0
392,224,129725,1,8
416,132,129919,1,8
312,160,130112,5,0
248,208,130306,2,0,B|180:284|100:256,1,160,4|8
28,240,130887,1,0
84,184,131080,1,0
144,132,131274,1,0
144,132,131370,1,0
144,132,131467,2,0,B|224:132,1,80,8|0
296,68,131854,6,0,B|324:108|376:100,1,80
476,200,132241,2,0,B|448:160|396:168,1,80,8|0
168,352,132822,1,8
244,324,133016,1,8
184,272,133209,5,0
184,272,133306,1,0
184,272,133403,2,0,B|136:208|60:168,1,160,0|8
24,240,133983,1,0
108,48,134370,1,0
304,120,134758,1,0
220,312,135145,1,0
220,312,135338,5,0
220,312,135725,1,0
220,312,136112,2,0,B|272:312,3,40
476,216,136887,6,0,B|416:164|380:80,1,160,4|0
316,144,137467,2,0,B|368:212,1,80,0|8
308,280,137854,2,0,B|275:203|215:151,1,160
144,188,138435,1,8
32,344,138822,1,0
108,316,139016,1,8
180,284,139209,2,0,B|220:268,3,40,8|0|0|0
28,168,139983,6,0,B|68:104|136:40,1,160,4|0
212,80,140564,1,0
300,80,140758,1,8
381,45,140951,2,0,B|444:104|484:168,1,160
420,216,141532,2,0,B|380:279|317:338,1,160,8|0
252,292,142112,1,8
244,372,142306,1,8
176,328,142499,5,0
176,328,142596,1,0
176,328,142693,2,0,B|96:336|36:260,1,160,0|8
64,188,143274,2,0,B|144:180|204:256,1,160,0|8
276,220,143854,1,8
272,300,144048,1,0
272,300,144145,1,0
272,300,144241,2,0,B|352:308|412:232,1,160,0|8
384,160,144822,2,0,B|304:152|244:228,1,160,0|8
184,176,145403,1,8
168,172,145499,1,0
152,168,145596,1,0
136,164,145693,1,0
120,160,145790,5,0
68,344,146177,1,8
120,160,146564,1,0
68,344,146951,1,8
148,304,147145,1,0
236,316,147338,1,0
316,276,147532,1,0
316,276,147629,1,0
316,276,147725,2,0,B|392:256,1,80,8|8
472,204,148112,5,0
340,148,148403,1,0
208,92,148693,1,0
296,52,148887,5,4
237,202,149177,1,4
182,351,149467,1,4
26,194,149854,5,2
99,225,150048,1,2
172,256,150241,2,0,B|250:298,2,80,2|2|2
232,168,150822,6,0,B|188:180,2,40,2|2|2
276,100,151209,2,0,B|287:55,2,40,2|2|2
308,172,151596,1,0
312,180,151693,1,0
316,188,151790,1,0
320,196,151887,1,0
324,204,151983,5,4
172,320,152370,1,8
148,128,152758,1,0
324,204,153145,1,8
324,204,153338,1,0
376,336,153532,2,0,B|384:248,1,80
432,124,153919,2,0,B|440:212,1,80,8|0
376,336,154306,1,0
376,336,154693,1,8
44,192,155080,5,0
220,80,155467,1,8
228,288,155854,1,0
44,192,156241,1,8
76,112,156435,1,0
100,28,156629,2,0,B|16:28,2,80,0|0|8
160,92,157209,2,0,B|232:52|320:64,1,160,0|8
396,100,157790,5,8
404,128,157887,1,0
408,156,157983,1,0
408,184,158080,1,0
400,212,158177,2,0,B|388:260|332:280|300:236,1,120,4|0
280,252,158564,2,0,B|204:280,1,80,8|0
148,220,158951,2,0,B|224:168|300:172,1,160,0|8
297,171,159532,1,0
252,52,159725,6,0,B|328:60|356:116,1,120
380,100,160112,2,0,B|428:32,1,80,8|0
452,132,160499,2,0,B|360:268,1,160,0|8
300,360,161080,1,0
200,312,161274,5,0
64,264,161564,1,0
172,168,161854,1,0
256,120,162048,1,0
352,120,162241,1,0
432,68,162435,1,0
432,164,162629,6,0,B|364:220|332:296,1,160
332,376,163209,1,8
256,332,163403,2,0,B|188:292|100:300,1,160,0|8
16,292,163983,1,8
24,276,164080,1,0
32,264,164177,1,0
40,252,164274,1,0
48,240,164370,5,0
140,72,164758,1,8
48,240,165145,1,0
140,72,165532,2,0,B|196:140,1,80,8|0
296,40,165919,2,0,B|265:122,1,80
400,164,166306,2,0,B|313:178,1,80,8|0
200,272,166693,2,0,B|364:244,1,160,0|8
440,276,167274,1,8
372,332,167467,5,0
196,352,167854,1,8
24,308,168241,2,0,B|80:264|76:204,1,120
112,180,168629,2,0,B|92:144|116:100,1,80,8|0
188,148,169016,2,0,B|208:184|184:228,2,80,0|0|8
272,120,169596,2,0,B|400:88,2,120,0|8|8
188,148,170370,1,0
252,208,170564,6,0,B|196:232|156:296,1,120
124,304,170951,2,0,B|68:248,1,80,8|0
64,72,171532,1,0
152,72,171725,1,8
232,112,171919,1,0
284,184,172112,2,0,B|372:184,2,80,0|0|8
296,272,172693,2,0,B|128:272,1,160,0|8
32,272,173274,1,8
76,52,173661,5,0
228,92,173951,1,0
380,136,174241,1,0
320,52,174435,5,0
243,207,174725,1,0
172,369,175016,1,0
172,369,175209,1,4
320,52,175596,1,4
376,120,175790,6,0,B|456:120,2,80,2|2|2
332,196,176370,1,0
312,196,176467,1,0
292,196,176564,1,0
272,196,176661,1,0
252,196,176758,2,0,B|92:196,1,160,0|8
4,196,177338,1,0
216,84,177725,2,0,B|144:24,2,80,0|8|0
136,120,178306,2,0,B|264:228,1,160,0|8
232,308,178887,2,0,B|296:312|340:256,2,120,0|8|8
176,240,179661,5,0
176,240,179758,1,0
176,240,179854,1,4
64,172,180145,1,4
176,104,180435,1,4
236,176,180629,5,4
365,157,180919,1,4
289,50,181209,1,4
368,76,181403,1,4
144,308,181983,5,0
144,308,182177,1,0
368,308,182564,1,0
256,192,182951,12,2,186048
