osu file format v9

[General]
AudioFilename: 02.Don't be long.mp3
AudioLeadIn: 0
PreviewTime: 80828
Countdown: 0
SampleSet: Soft
StackLeniency: 0.7
Mode: 0
LetterboxInBreaks: 1

[Editor]
DistanceSpacing: 1
BeatDivisor: 4
GridSize: 8

[Metadata]
Title:Don't be long
Artist:Mizuki Nana
Creator:PSPDS Eddie
Version:Normal
Source:Magical Girl Lyrical NANOHA The MOVIE 1st
Tags:Holoaz

[Difficulty]
HPDrainRate:3
CircleSize:3
OverallDifficulty:4
ApproachRate:4
SliderMultiplier:0.8
SliderTickRate:2

[Events]
//Background and Video events
0,0,"BG.jpg"
//Break Periods
2,16015,24236
2,58288,58522
2,108353,119301
//Storyboard Layer 0 (Background)
//Storyboard Layer 1 (Fail)
//Storyboard Layer 2 (Pass)
//Storyboard Layer 3 (Foreground)
//Storyboard Sound Samples
//Background Colour Transformations
3,100,163,162,255

[TimingPoints]
3738.11852853029,389.61038961039,4,2,0,50,1,0
14549,-100,4,1,0,50,0,0
16010,-100,4,2,2,70,0,0
65978,-100,4,1,2,70,0,0
66173,-100,4,2,2,70,0,0
80004,-100,4,1,2,70,0,0
80296,-100,4,2,2,70,0,0
147017,-100,4,1,2,70,0,0
147212,-100,4,2,2,70,0,0

[HitObjects]
296,312,3738,2,0,B|472:312,2,160,2|2|0
216,312,5686,1,2
216,232,6075,1,0
216,152,6465,1,2
216,72,6855,2,0,B|56:72,2,160,0|2|0
296,72,8803,1,2
376,72,9192,1,0
456,72,9582,1,2
456,152,9971,6,0,B|456:312,2,160,6|2|0
376,176,11919,1,2
296,200,12309,1,0
216,224,12699,1,2
136,248,13088,2,0,B|40:248,4,80,0|2|0|2|4
192,352,15231,2,4,B|328:352,1,120
256,192,25556,12,12,27699
256,48,28673,6,0,B|168:48,2,80,0|8|0
256,128,29842,1,8
256,208,30231,2,0,B|344:208,2,80,0|8|0
176,208,31400,2,0,B|176:296,1,80,8|0
256,288,32179,2,0,B|344:288,2,80,8|0|8
256,208,33348,1,0
328,168,33738,2,0,B|368:128,1,40,8|0
416,200,34322,2,0,B|384:232,1,40,0|8
336,288,34906,6,0,B|392:344,2,80,0|8|0
256,288,36075,1,8
176,288,36465,2,0,B|88:288,2,80,0|8|0
256,288,37634,2,0,B|256:200,1,80,8|0
176,208,38413,2,0,B|88:208,2,80,8|0|8
256,208,39582,2,0,B|256:112,4,80,0|2|0|2|4
256,288,41530,6,0,B|352:288,2,80,8|0|8
176,304,42699,1,0
96,288,43088,1,8
96,208,43478,2,0,B|48:208,2,40,0|0|8
176,208,44257,6,0,B|272:208,1,80,0|8
296,208,44842,2,0,B|424:208,1,120,0|8
416,127,45816,6,0,B|320:127,1,80,0|8
296,127,46400,2,0,B|168:127,1,120,0|8
256,264,47764,6,0,B|160:264,2,80,8|0|8
256,344,48932,1,0
328,304,49322,1,8
400,264,49712,1,0
472,224,50101,1,8
400,184,50491,2,4,B|360:200|320:168|280:184,1,120
200,184,51465,2,12,B|200:128,2,40
176,304,52439,5,2
256,328,52829,1,0
336,304,53218,1,2
256,280,53608,6,2,B|256:224,3,40,6|2|2|2
256,160,54582,2,0,B|256:64,3,80,2|2|2|2
184,48,56140,6,2,B|112:88,1,80
88,120,56725,2,2,B|88:216,1,80
112,232,57309,2,2,B|184:272,1,80
256,312,58088,1,4
256,104,59842,6,2,B|256:160,3,40
256,224,60816,2,0,B|256:320,3,80,2|2|2|2
328,336,62374,6,2,B|400:296,1,80
424,264,62958,2,2,B|424:168,1,80
400,152,63543,2,2,B|328:112,1,80
256,72,64322,1,4
256,192,64906,2,0,B|256:288,2,80,8|0|8
256,192,66075,1,4
176,192,66465,6,0,B|136:168|88:192,2,80,8|0|8
136,264,67634,2,0,B|152:312|200:328,1,80,0|8
264,336,68413,2,0,B|264:280,2,40,0|0|8
344,328,69192,6,0,B|392:328|416:280,1,80,0|8
440,264,69777,2,0,B|472:200|432:144,1,120,0|8
376,208,70751,6,0,B|288:208,1,80,0|8
256,208,71335,2,0,B|136:208,1,120,0|8
136,128,72309,5,0
56,128,72699,2,0,B|56:48,2,80,8|0|8
136,128,73867,2,0,B|184:104|224:136,1,80,0|8
176,200,74647,2,0,B|176:248,2,40,0|0|8
256,200,75426,6,0,B|296:152|368:128,2,120,2|2|2
320,248,76984,2,0,B|368:264|392:304,1,80,0|10
320,336,77764,2,0,B|288:368|240:360,1,80,0|10
256,280,78543,2,8,B|176:280,4,80,8|8|8|8|4
24,40,81660,6,0,B|120:40,3,80,0|8|0|8
184,40,83218,2,0,B|184:128,3,80,0|8|0|8
104,120,84777,2,0,B|96:184|160:224|224:200,1,160,4|4
264,144,85945,1,8
264,64,86335,2,4,B|352:72|360:160|328:192,1,160
264,144,87504,1,8
264,224,87893,6,8,B|304:312|400:304,2,160,8|8|0
184,224,89842,1,8
104,224,90231,2,0,B|104:144,2,80,0|8|0
104,304,91400,1,8
184,304,91790,2,0,B|272:304,1,80,0|8
344,304,92569,1,6
424,304,92958,1,6
384,232,93348,1,6
256,136,94127,6,0,B|160:136,3,80,0|8|0|8
104,104,95686,2,0,B|88:152|112:192,3,80,0|8|0|8
160,240,97244,2,0,B|240:200|320:240,1,160,4|4
384,280,98413,1,8
320,328,98803,2,4,B|248:368|160:328,1,160
104,280,99971,1,8
168,240,100361,6,8,B|128:152|32:160,2,160,8|8|0
240,200,102309,1,10
240,280,102699,2,0,B|296:280,2,40,0|0|10
376,192,103867,6,0,B|472:192,2,80,8|0|8
320,136,105036,2,4,B|184:136,1,120
200,256,106205,2,12,B|248:256,1,40
256,192,106595,12,4,108153
256,104,120621,6,2,B|256:160,3,40,6|2|2|2
256,224,121595,2,0,B|256:320,3,80,2|2|2|2
336,304,123153,6,2,B|336:256,2,40
336,344,123738,2,2,B|416:336|456:296,1,120
464,224,124712,2,0,B|464:136,1,80,2|4
256,280,126855,6,2,B|256:224,3,40
256,160,127829,2,0,B|256:64,3,80,2|2|2|2
176,80,129386,6,2,B|176:128,2,40
176,40,129971,2,2,B|96:48|56:88,1,120
48,160,130945,2,0,B|48:248,1,80,2|4
168,240,131919,2,0,B|264:240,2,80,8|0|8
168,240,133088,1,4
168,320,133478,6,0,B|208:344|256:320,2,80,8|0|8
96,288,134647,2,0,B|48:272|32:224,1,80,0|8
112,208,135426,2,0,B|144:168,2,40,0|0|8
184,240,136205,6,0,B|224:264|264:264,1,80,0|8
296,272,136790,2,0,B|368:272|416:232,1,120,0|8
456,176,137764,6,0,B|416:152|376:152,1,80,0|8
344,144,138349,2,0,B|272:160|224:136,1,120,0|8
168,192,139322,5,4
88,192,139712,2,0,B|88:272,2,80,8|0|8
88,112,140880,2,0,B|136:88|176:120,1,80,0|8
248,112,141660,2,0,B|248:64,2,40,0|0|8
248,192,142439,6,0,B|208:240|136:264,2,120,2|2|2
288,120,143997,2,0,B|304:72|344:48,1,80,0|10
384,120,144777,2,0,B|416:88|464:96,1,80,0|10
448,176,145556,2,8,B|448:256,4,80,8|8|8|8|4
128,192,148673,6,0,B|128:280,3,80,0|8|0|8
208,272,150231,2,0,B|208:184,3,80,0|8|0|8
208,112,151790,2,0,B|272:104|312:168|288:232,1,160,4|4
376,216,152958,1,8
456,216,153348,2,4,B|448:304|360:312|328:280,1,160
272,248,154517,1,8
272,168,154906,6,8,B|232:80|136:88,2,160,8|8|0
200,208,156855,1,8
272,248,157244,2,0,B|272:328,2,80,0|8|0
344,208,158413,1,8
416,168,158803,2,0,B|360:112,1,80,0|8
280,112,159582,1,6
216,64,159971,1,6
152,112,160361,1,6
256,232,161140,6,0,B|352:232,3,80,0|8|0|8
408,264,162699,2,0,B|424:216|400:176,3,80,0|8|0|8
328,160,164257,2,0,B|248:200|168:160,1,160,4|4
120,104,165426,1,8
176,48,165816,2,4,B|248:8|336:48,1,160
384,104,166984,1,8
328,160,167374,6,8,B|368:248|464:240,2,160,8|8|0
256,192,169322,1,10
256,112,169712,2,0,B|200:112,2,40,0|0|10
112,192,170880,6,0,B|16:192,2,80,8|0|8
112,272,172049,2,4,B|248:272,1,120
328,192,173218,2,12,B|280:192,1,40
256,192,173608,12,12,175166
