osu file format v9

[General]
AudioFilename: 02.Don't be long.mp3
AudioLeadIn: 0
PreviewTime: 80828
Countdown: 0
SampleSet: Soft
StackLeniency: 0.7
Mode: 0
LetterboxInBreaks: 1

[Editor]
DistanceSpacing: 1.2
BeatDivisor: 4
GridSize: 8

[Metadata]
Title:Don't be long
Artist:Mizuki Nana
Creator:PSPDS Eddie
Version:Insane
Source:Magical Girl Lyrical NANOHA The MOVIE 1st
Tags:Holoaz

[Difficulty]
HPDrainRate:8
CircleSize:4
OverallDifficulty:7
ApproachRate:8
SliderMultiplier:1.6
SliderTickRate:2

[Events]
//Background and Video events
0,0,"BG.jpg"
//Break Periods
2,108166,119819
//Storyboard Layer 0 (Background)
//Storyboard Layer 1 (Fail)
//Storyboard Layer 2 (Pass)
//Storyboard Layer 3 (Foreground)
//Storyboard Sound Samples
//Background Colour Transformations
3,100,163,162,255

[TimingPoints]
3738.11852853029,389.61038961039,4,2,0,50,1,0
8997,-142.857142857143,4,2,0,50,0,0
9777,-100,4,2,0,50,0,0
14549,-100,4,1,0,50,0,0
16010,-100,4,2,2,70,0,0
41335,-142.857142857143,4,2,2,70,0,0
51952,-100,4,2,2,70,0,0
66270,-142.857142857143,4,2,2,70,0,0
75231,-100,4,2,2,70,0,0
133283,-142.857142857143,4,2,2,70,0,0
142634,-100,4,2,2,70,0,0

[HitObjects]
296,304,3738,2,0,B|424:304,2,120,2|0|0
216,304,4517,2,0,B|96:304,2,120,2|0|0
256,232,5296,2,0,B|168:232|96:136,1,160,0|2
80,88,5880,2,0,B|176:56|192:168|256:136,1,160
256,64,6465,5,2
256,64,6660,1,0
296,136,6855,2,0,B|448:136,2,120,2|0|0
216,136,7634,2,0,B|80:136,2,120,2|0|0
256,200,8413,1,0
256,280,8608,1,0
192,240,8803,1,2
192,320,8997,2,0,B|216:376|296:384|328:312,1,167.999995994568,4|0
384,168,9971,6,0,B|384:48,2,120,6|0|0
448,216,10751,2,0,B|448:360,2,120,2|0|0
376,248,11530,2,0,B|336:328|232:344,1,160,0|2
176,344,12114,2,0,B|72:320|48:216,1,160
112,192,12699,5,2
112,192,12893,1,0
176,152,13088,2,0,B|176:32,2,120,2|0|0
176,232,13867,2,0,B|176:360,2,120,2|0|0
240,192,14647,5,0
320,104,14842,1,0
320,104,14939,1,0
320,104,15036,1,4
400,192,15231,5,0
320,280,15426,1,0
320,280,15523,1,0
320,280,15621,1,0
240,192,15816,5,4
48,168,16205,6,0,B|48:40,2,120,4|2|0
112,216,16984,2,0,B|112:344,2,120,0|2|0
48,264,17764,2,0,B|120:296|208:264,1,160,0|8
280,280,18348,2,0,B|288:208|224:176|168:200,1,160,0|0
96,168,18932,1,8
144,104,19127,1,0
216,64,19322,2,8,B|280:32|360:80,2,120,0|2|0
272,128,20101,2,0,B|328:168|400:136,2,120,0|2|0
192,144,20880,2,0,B|24:144,1,160,0|8
48,232,21465,1,0
72,312,21660,5,2
96,312,21757,1,0
120,312,21855,1,0
144,312,21952,1,0
168,304,22049,1,2
192,304,22147,1,0
216,304,22244,1,0
240,304,22342,1,0
264,304,22439,6,0,B|408:304,2,120,4|2|0
304,232,23218,2,0,B|448:232,2,120,0|2|0
224,232,23997,2,0,B|120:224|64:152,1,160,0|8
80,80,24582,2,0,B|168:32|256:40,1,160
312,56,25166,2,8,B|344:64|368:80,1,40
416,160,25556,6,0,B|416:264|304:296,1,160,0|8
256,296,26140,1,0
176,288,26335,2,0,B|93:266|93:162,1,160,0|8
93,166,26919,1,0
136,96,27114,2,0,B|280:16|392:120,1,240,4|12
256,296,28673,6,0,B|368:296,2,80,4|0|8
176,296,29257,2,0,B|176:184,1,80,2|0
104,248,29647,2,0,B|104:144,1,80,0|8
32,128,30036,1,2
104,88,30231,1,0
176,128,30426,2,0,B|256:128,2,80,2|8|2
416,336,31205,5,2
416,336,31400,1,10
416,336,31595,1,2
336,336,31790,2,0,B|248:320|160:336,1,160,2|10
136,264,32374,2,0,B|232:240|320:256,1,160,2|10
416,152,33153,2,2,B|352:144|304:88|240:104,4,160,2|2|2|2|2
432,232,34906,5,2
400,360,35101,1,2
440,240,35296,1,10
392,352,35491,1,2
256,232,35880,2,0,B|200:208|136:248|72:232,1,160,2|2
256,128,36660,2,0,B|312:104|376:144|440:128,1,160,2|2
256,32,37439,5,2
160,48,37634,1,2
88,112,37829,1,2
56,200,38023,2,0,B|80:288|176:312,1,160,2|8
160,208,38608,2,0,B|256:176|336:216,2,160,4|12|12
192,48,39777,5,0
256,120,39971,1,2
320,48,40166,1,0
256,120,40361,1,2
192,48,40556,1,0
256,120,40751,5,2
256,144,40848,1,2
256,168,40945,1,2
256,192,41043,1,2
256,216,41140,1,6
312,288,41530,6,0,B|440:288,2,111.999997329712,8|0|8
200,288,42699,2,0,B|120:288,2,55.999998664856,0|0|8
200,232,43283,2,0,B|200:120,2,111.999997329712,0|2|2
144,232,44257,1,2
112,184,44452,1,2
112,128,44647,1,10
144,80,44842,1,2
216,160,45231,5,2
272,160,45426,1,10
328,160,45621,1,0
384,160,45816,2,0,B|384:216,3,55.999998664856,0|0|10|0
384,272,46595,2,0,B|328:304,3,55.999998664856,0|0|10|0
288,328,47374,6,0,B|232:360|168:336,2,111.999997329712,4|8|0
256,280,48348,1,0
224,232,48543,2,0,B|160:208|104:240,2,111.999997329712,8|0|8
176,280,49517,2,0,B|176:160,1,111.999997329712
176,112,50101,1,8
400,112,50491,5,2
448,160,50686,1,2
448,224,50880,1,10
400,272,51075,1,2
240,192,51465,2,2,B|176:192,2,55.999998664856,2|10|2
176,312,52049,1,8
88,248,52244,1,8
88,136,52439,1,10
176,72,52634,1,8
288,48,52829,5,12
328,56,52926,1,0
368,72,53023,1,0
400,104,53121,1,0
416,136,53218,1,4
424,296,53608,6,0,B|312:296,2,80,4|0|8
424,216,54192,2,0,B|312:216,1,80,0|0
272,256,54582,2,0,B|184:256,1,80,0|8
192,176,54971,1,0
272,176,55166,1,0
272,256,55361,2,0,B|272:336,2,80,0|8|0
40,40,56140,5,2
40,40,56335,1,10
40,40,56530,1,2
40,120,56725,2,0,B|128:136|216:120,1,160,2|8
200,200,57309,2,0,B|112:216|16:192,1,160,2|10
256,344,58088,5,2
472,192,58478,1,2
256,40,58867,1,2
40,192,59257,1,2
256,344,59647,1,2
192,296,59842,5,2
120,192,60036,1,2
184,304,60231,1,10
128,192,60426,1,2
256,104,60816,2,0,B|312:128|376:88|440:104,1,160,2|2
256,104,61595,2,2,B|200:128|136:88|72:104,1,160,2|2
200,224,62374,5,2
256,280,62569,1,2
312,224,62764,1,2
256,168,62958,2,0,B|232:80|136:56,1,160,2|8
104,128,63543,2,0,B|72:224|112:304,2,160,2|2|4
256,192,64712,5,0
272,64,64906,1,10
256,192,65101,1,0
360,112,65296,1,2
256,192,65491,1,0
384,200,65686,5,10
384,232,65783,1,0
376,264,65880,1,0
360,288,65978,1,0
336,304,66075,1,4
200,328,66465,6,0,B|72:328,2,111.999997329712,8|0|8
200,216,67634,2,0,B|280:216,2,55.999998664856,0|0|8
200,160,68218,2,0,B|80:160,2,111.999997329712,0|2|2
200,104,69192,1,2
248,136,69387,1,2
248,192,69582,1,10
200,216,69777,1,2
304,168,70166,5,2
360,168,70361,1,10
416,168,70556,1,2
360,168,70751,2,0,B|360:240,3,55.999998664856,0|0|10|0
304,224,71530,2,0,B|304:152,3,55.999998664856,0|0|10|0
304,112,72309,6,0,B|360:80|424:104,2,111.999997329712,4|8|0
248,144,73283,1,0
304,176,73478,2,0,B|368:200|424:168,2,111.999997329712,8|0|8
248,144,74452,2,0,B|248:264,1,111.999997329712
248,312,75036,1,8
248,312,75426,1,4
40,192,76010,5,2
104,96,76205,1,2
200,40,76400,1,2
312,40,76595,1,2
408,96,76790,1,2
472,192,76984,2,0,B|456:264|360:280,2,120,2|2|2
392,184,77764,2,0,B|316:178|296:280,2,120,2|2|2
256,120,78543,6,12,B|112:120,2,120
256,264,79322,2,12,B|400:264,2,120
208,312,80880,5,2
208,312,80978,1,0
208,312,81075,1,0
208,312,81173,1,0
208,312,81270,1,2
208,312,81367,1,0
208,312,81465,1,0
208,312,81562,1,0
208,312,81660,6,0,B|80:312,2,120,6|0|0
256,312,82342,1,0
304,312,82439,2,0,B|456:312,2,120,2|0|0
303,215,83218,2,0,B|335:127|296:32,1,160,0|8
206,57,83803,2,0,B|184:136|208:216,1,160,0|0
256,296,84387,5,8
256,296,84582,1,0
336,344,84777,2,8,B|400:312|480:360,2,120,0|2|0
336,248,85556,2,8,B|400:280|480:232,2,120,0|2|0
256,296,86335,2,0,B|88:296,1,160,0|8
64,208,86919,1,0
32,120,87114,5,2
40,96,87212,1,0
56,72,87309,1,0
80,56,87406,1,0
104,48,87504,1,2
128,48,87601,1,0
152,56,87699,1,0
176,72,87796,1,0
192,88,87893,6,0,B|336:88,2,120,4|2|0
136,168,88673,2,0,B|280:168,2,120,2|0|0
56,216,89452,2,0,B|64:320|160:352,1,160,0|8
160,248,90036,2,0,B|256:240|312:304,1,160
232,352,90621,1,8
232,352,90816,1,0
306,297,91010,6,0,B|370:273|378:169,2,120,0|2|0
272,208,91790,2,0,B|232:248|160:248,2,120,0|2|0
272,112,92569,2,4,B|192:40|120:120,2,160
96,192,93738,5,6
112,240,93835,1,0
152,264,93932,1,0
200,280,94030,1,0
248,272,94127,2,0,B|320:264|352:200,2,120,4|0|0
200,192,94906,2,0,B|232:120|320:136,2,120,4|0|0
96,192,95686,6,0,B|120:88|216:56,1,160,8|12
280,48,96270,2,0,B|392:56|440:144,1,160,8|0
472,192,96855,1,12
472,192,97049,1,0
424,272,97244,6,0,B|392:320|296:320,1,120,0|8
176,320,97829,1,0
176,320,97926,1,0
176,320,98023,1,0
128,240,98218,1,12
224,240,98413,1,12
176,152,98608,5,0
176,152,98705,1,0
176,152,98803,2,0,B|240:96|320:120,2,120
88,112,99582,5,4
112,80,99679,1,0
144,56,99777,1,0
184,40,99874,1,0
224,32,99971,1,4
264,32,100069,1,0
304,40,100166,1,0
344,56,100264,1,0
376,80,100361,6,0,B|464:128|456:232,1,160,4|8
456,304,100945,2,0,B|352:336|288:304,1,160
296,216,101530,1,8
232,144,101725,1,0
136,144,101919,1,2
136,144,102017,1,0
136,144,102114,1,0
136,144,102212,1,0
136,144,102309,1,2
184,224,102504,1,0
136,304,102699,1,2
136,304,102796,1,0
136,304,102893,1,0
136,304,102991,1,0
136,304,103088,1,14
440,72,103867,6,0,B|264:72,2,160,8|0|8
312,160,105036,2,0,B|144:160,1,160,4|8
152,256,105621,2,0,B|328:256,1,160,4|8
392,208,106205,1,8
392,208,106400,1,12
256,88,106790,5,8
256,184,106984,1,8
256,184,107082,1,8
256,184,107179,1,8
256,280,107374,5,2
344,232,107569,1,2
256,184,107764,1,8
168,232,107958,1,12
88,88,120621,6,0,B|200:88,2,80,0|0|8
88,168,121205,2,0,B|200:168,1,80,0|0
88,168,121595,2,0,B|88:264,1,80,0|8
136,312,121984,1,0
216,328,122179,1,0
296,304,122374,2,0,B|336:280|360:248,2,80,0|8|0
472,40,123153,5,2
472,40,123348,1,10
472,40,123543,1,2
432,112,123738,2,0,B|344:96|256:128,1,160,2|8
312,192,124322,2,0,B|400:176|496:200,1,160,0|8
256,40,125101,5,2
40,192,125491,1,2
256,344,125880,1,2
472,192,126270,1,2
256,40,126660,1,2
320,88,126855,5,2
392,192,127049,1,2
328,80,127244,1,10
384,192,127439,1,2
232,144,127829,2,0,B|184:112|104:176|72:136,1,160,2|2
280,240,128608,2,2,B|328:272|408:208|440:248,1,160,2|2
256,160,129387,5,2
304,72,129582,1,2
208,72,129777,1,2
256,160,129971,2,0,B|280:248|376:272,1,160,2|8
440,288,130556,2,0,B|496:208|432:128,2,160,2|2|12
256,192,131725,5,0
256,272,131919,1,2
360,192,132114,1,0
256,112,132309,1,2
152,192,132504,1,0
256,272,132699,5,10
288,264,132796,1,0
320,248,132893,1,0
344,224,132991,1,0
360,192,133088,1,4
336,88,133478,6,0,B|464:88,2,111.999997329712,8|0|8
200,88,134647,2,0,B|120:88,2,55.999998664856,0|0|8
200,152,135231,2,0,B|320:152,2,111.999997329712,0|2|2
136,152,136205,1,2
168,208,136400,1,2
104,208,136595,1,10
136,264,136790,1,0
256,320,137179,5,2
256,256,137374,1,10
256,192,137569,1,2
256,256,137764,2,0,B|336:256,3,55.999998664856,0|0|10|0
376,256,138543,2,0,B|424:208,3,55.999998664856,0|0|10|0
456,160,139322,6,0,B|400:128|336:152,2,111.999997329712,4|8|0
480,224,140296,1,0
456,288,140491,2,0,B|392:312|336:280,2,111.999997329712,8|0|8
480,224,141465,2,0,B|352:224,1,111.999997329712
304,224,142049,1,8
304,224,142439,1,4
40,192,143023,5,2
104,288,143218,1,2
200,344,143413,1,2
312,344,143608,1,10
408,288,143803,1,2
472,192,143997,2,0,B|456:120|360:104,2,120,2|0|2
392,200,144777,2,0,B|316:206|296:104,2,120,2|0|2
256,264,145556,6,12,B|112:264,2,120
256,120,146335,2,12,B|400:120,2,120
48,192,147893,5,2
72,192,147991,1,0
96,192,148088,1,0
120,192,148186,1,0
144,192,148283,1,2
168,192,148380,1,0
192,192,148478,1,0
216,192,148575,1,0
240,192,148673,6,0,B|368:192,2,120,6|0|0
240,144,149355,1,0
240,96,149452,2,0,B|88:96,2,120,2|0|0
336,104,150231,2,0,B|432:120|472:208,1,160,0|12
488,288,150816,2,0,B|416:320|328:288,1,160,0|0
256,232,151400,5,12
256,232,151595,1,0
256,328,151790,2,8,B|192:360|112:312,2,120,0|2|0
256,136,152569,2,8,B|192:104|112:152,2,120,0|2|0
256,232,153348,2,0,B|424:232,1,160,0|8
400,328,153932,1,0
304,320,154127,5,2
280,328,154225,1,0
256,336,154322,1,0
232,336,154419,1,0
208,336,154517,1,2
184,336,154614,1,0
160,328,154712,1,0
136,320,154809,1,0
112,304,154906,6,0,B|72:248|112:160,2,120,6|2|0
184,240,155686,2,0,B|224:160|144:104,2,120,0|2|0
256,304,156465,2,0,B|264:200|360:168,1,160,0|12
360,80,157049,2,0,B|264:88|208:24,1,160
120,64,157634,1,12
120,64,157829,1,0
192,128,158023,6,0,B|128:152|120:256,2,120,0|2|0
232,216,158803,2,0,B|272:176|344:176,2,120,0|2|0
184,296,159582,2,4,B|256:344|344:288,2,160
344,192,160751,5,6
312,208,160848,1,0
272,216,160945,1,0
232,208,161043,1,0
200,192,161140,2,0,B|128:144|136:80,2,120,4|0|0
272,128,161919,2,0,B|304:56|392:72,2,120,4|0|0
344,192,162699,6,0,B|376:296|296:336,1,160,8|12
208,344,163283,2,0,B|96:336|48:248,1,160,8|0
40,192,163867,1,12
40,192,164062,1,0
88,112,164257,6,0,B|120:64|216:64,1,120,0|8
128,192,164842,1,0
128,192,164939,1,0
128,192,165036,1,0
88,280,165231,1,12
128,192,165426,1,12
224,192,165621,5,0
224,192,165718,1,0
224,192,165816,2,0,B|288:136|368:160,2,120
128,192,166595,5,4
144,152,166692,1,0
168,120,166790,1,0
200,96,166887,1,0
232,80,166984,1,4
272,72,167082,1,0
312,72,167179,1,0
352,80,167277,1,0
384,96,167374,6,0,B|472:144|464:248,1,160,4|10
464,320,167958,2,0,B|360:352|296:320,1,160,0|0
216,296,168543,1,10
288,232,168738,1,0
216,296,168932,5,2
176,280,169030,1,0
144,256,169127,1,0
120,224,169225,1,0
112,184,169322,1,2
208,192,169517,5,0
208,96,169712,5,2
248,112,169809,1,0
280,136,169906,1,0
304,168,170004,1,0
312,208,170101,1,2
464,48,170880,6,0,B|288:48,2,160,8|0|8
336,192,172049,2,0,B|168:192,1,160,4|8
128,272,172634,2,0,B|304:272,1,160,4|8
384,272,173218,1,8
384,272,173413,1,12
104,192,173997,6,8,B|104:152,2,40
256,144,174387,5,2
408,192,174582,1,2
256,240,174777,1,0
104,192,174971,1,12
256,192,175166,8,6,176725
