osu file format v6

[General]
AudioFilename: Dancing in the Velvet Moon (TV Size).mp3
AudioLeadIn: 0
PreviewTime: 65009
Countdown: 0
SampleSet: Normal
StackLeniency: 0.7
Mode: 0
LetterboxInBreaks: 1

[Editor]
DistanceSpacing: 0.800000011920929
BeatDivisor: 4
GridSize: 8

[Metadata]
Title:Dancing in the Velvet Moon (TV Size)
Artist:Mizuki Nana
Creator:Mystearica
Version:Crescent
Source:
Tags:Anime J-Pop MegaManEXE Megaboy

[Difficulty]
HPDrainRate:3
CircleSize:3
OverallDifficulty:3
SliderMultiplier:1.1
SliderTickRate:1

[Events]
//Background and Video events
0,0,"moon.jpg"
//Break Periods
2,19570,28216
2,46998,49002
//Storyboard Layer 0 (Background)
//Storyboard Layer 1 (Fail)
//Storyboard Layer 2 (Pass)
//Storyboard Layer 3 (Foreground)
//Storyboard Sound Samples
//Background Colour Transformations
3,100,0,0,0

[TimingPoints]
3942,428.571428571429,4,1,1,90,1,0
19263,-100,4,1,1,0,0,0
19477,-100,4,1,1,90,0,0
46692,-100,4,1,1,0,0,0
47013,-100,4,1,1,90,0,0
53120,-100,4,1,1,0,0,0
53442,-100,4,1,1,90,0,0
56549,-100,4,1,1,0,0,0
56870,-100,4,1,1,90,0,0
65013,-100,4,1,1,100,0,0
92442,-100,4,1,1,0,0,0

[Colours]
Combo1 : 241,23,18
Combo2 : 255,255,255
Combo3 : 111,211,244
Combo4 : 236,249,147

[HitObjects]
168,288,3942,2,0,B|145:344|89:365,2,110,4|0|0
344,288,5656,2,0,B|366:344|422:365,2,110,4|0|0
184,256,7370,6,0,B|128:150|186:43,1,220,4|0
256,96,8656,1,0
328,48,9084,2,0,B|384:154|326:261,1,220,4|0
40,166,10799,5,4
120,128,11227,2,0,B|220:78,1,110
299,40,12084,1,0
270,125,12513,2,0,B|233:231,1,110,4|0
200,311,13370,1,0
288,336,13799,6,0,B|336:368,2,55,0|0|4
328,256,14656,1,0
368,176,15084,2,0,B|320:144,2,55
416,104,15942,1,4
256,208,16370,12,0,19370
34,346,29656,6,0,B|129:366|170:275,1,165,0|0
168,280,30513,2,0,B|207:192|302:212,1,165
301,213,31370,2,0,B|396:233|437:142,1,165
436,145,32227,1,0
328,72,32870,5,0
328,72,33084,1,0
192,72,33727,5,0
192,72,33941,1,0
256,192,34584,5,0
256,240,34799,2,0,B|256:352,2,110,0|0|0
64,96,36513,6,0,B|172:99|149:209,1,165,4|0
104,208,37370,2,0,B|81:312|189:315,1,165
232,312,38227,1,0
314,281,38656,1,0
347,199,39084,1,0
200,112,39942,6,0,B|280:75|363:114,1,165,4|0
360,112,40799,1,0
474,178,41442,5,0
474,178,41656,2,0,B|394:215|311:176,1,165,4|0
314,177,42513,1,0
376,296,43156,5,0
376,296,43370,2,0,B|280:272|224:206|216:121|248:16|248:16|152:77|127:171|142:256|197:338|299:354|418:319,1,880,4|0
408,56,50442,5,0
408,56,50656,2,0,B|398:115|342:141,1,110
280,80,51513,1,0
200,48,51942,1,0
136,32,52263,2,0,B|70:103|134:143|201:184|128:254,1,247.5
240,328,53870,6,0,B|303:346|346:303,1,110
280,248,54727,1,0
280,248,54942,1,0
360,224,55370,1,0
424,200,55692,2,0,B|353:134|313:198|272:265|202:192,1,247.5
256,104,57084,5,0
256,280,57942,1,0
88,336,58799,5,4
40,264,59227,1,4
88,192,59656,1,4
40,120,60084,1,4
152,48,60727,5,0
152,48,60942,2,0,B|190:124|294:127,1,165
280,216,62013,5,0
280,216,62227,2,0,B|360:240,2,82.5,4|0|0
232,216,63084,2,0,B|152:240,2,82.5,4|0|0
232,216,63942,1,0
256,304,64370,1,4
472,135,65227,6,0,B|375:191,1,110,0|0
432,288,66084,2,0,B|376:191,1,110,0|0
279,247,66942,2,0,B|375:191,1,110
320,94,67799,2,0,B|375:189,1,110,0|0
184,56,69084,6,0,B|83:88|183:196|70:224,1,220,0|0
73,223,70370,1,0
104,304,70799,1,0
104,304,71013,1,0
104,304,71227,2,0,B|192:288,1,82.5
360,192,72513,5,4
384,272,72942,2,0,B|365:326|310:352,2,110
440,208,74227,2,0,B|496:176,2,55
408,152,74977,1,0
200,128,75942,5,0
312,256,76799,1,0
350,100,77656,5,0
303,146,77977,1,0
256,192,78299,1,4
56,104,79370,6,0,B|182:138|251:33,1,220
328,80,80656,1,0
368,160,81084,2,0,B|412:139|422:93,2,82.5
368,160,81942,1,0
256,306,82799,5,4
169,152,83656,1,4
83,305,84513,1,4
256,48,86013,5,0
256,48,86227,2,0,B|224:104|287:156|254:209,1,165
256,208,87299,12,0,92656
