osu file format v5

[General]
AudioFilename: Dancing in the Velvet Moon.mp3
AudioLeadIn: 0
PreviewTime: 65939
Countdown: 0
SampleSet: Normal
StackLeniency: 0.8
Mode: 0
LetterboxInBreaks: 1

[Editor]
Bookmarks: 20072,30358,47608,51144,65501,90358,100644,117786,121429,160429
DistanceSpacing: 1.10000002384186
BeatDivisor: 4
GridSize: 16

[Metadata]
Title:Dancing in the Velvet Moon
Artist:Mizuki Nana
Creator:Mystearica
Version:Eclipse
Source:
Tags:Anime J-Pop

[Difficulty]
HPDrainRate:3
CircleSize:3
OverallDifficulty:4
SliderMultiplier:1.4
SliderTickRate:1

[Events]
//Background and Video events
0,0,"rosario-bg.jpg"
//Break Periods
2,20272,29158
2,47711,49953
2,90558,99444
2,117986,120229
//Storyboard Layer 0 (Background)
//Storyboard Layer 1 (Fail)
//Storyboard Layer 2 (Pass)
//Storyboard Layer 3 (Foreground)
//Storyboard Sound Samples
//Background Colour Transformations
3,100,208,208,208

[TimingPoints]
4666,428.571428571429,4,1,0,82,1,0
17094,-100,4,1,0,0,0,0
30380,-100,4,1,0,82,0,0
43880,-100,4,1,0,0,0,0
51166,-100,4,1,0,82,0,0
86308,-100,4,1,0,0,0,0
100666,-100,4,1,0,82,0,0
114166,-100,4,1,0,0,0,0
121451,-100,4,1,0,82,0,0
156594,-100,4,1,0,0,0,0

[Colours]
Combo1 : 175,82,199
Combo2 : 236,15,53
Combo3 : 60,77,232
Combo4 : 252,123,29
Combo5 : 123,91,118

[HitObjects]
72,328,4666,2,0,B|16:304|96:232|16:184,2,140,4|0|0
224,328,5951,2,0,B|311:343,2,70
232,248,6594,2,0,B|319:263,2,70
240,168,7237,2,0,B|208:128|144:200|95:141,1,140,0|0
176,32,8094,5,0
248,32,8308,2,0,B|344:32,1,70,0|0
312,104,8737,2,0,B|399:144,1,70,0|0
336,192,9165,2,0,B|397:265,1,70,0|0
272,336,9808,1,0
208,304,10023,2,0,B|128:280,2,70
256,256,10665,2,0,B|296:264|320:168|404:200,1,140,0|4
448,192,11308,6,0,B|493:170|477:106,1,70,0|0
392,24,11951,1,0
392,24,12165,1,0
344,80,12380,2,0,B|312:120|232:64|200:120,1,140
160,56,13023,1,0
120,112,13237,2,0,B|88:184,2,70
88,48,13880,2,0,B|0:8,1,70,0|4
8,160,14523,5,0
24,224,14737,1,0
72,272,14951,1,0
128,312,15165,2,0,B|208:376,3,70
216,288,16023,2,0,B|304:256,3,70,0|0|0|4
256,192,17094,12,0,20094
216,232,30380,6,0,B|148:299,2,70
216,152,31023,2,0,B|148:84,2,70
296,152,31666,2,0,B|363:84,2,70
296,232,32308,2,0,B|363:299,2,70
256,296,32951,1,4
256,96,33594,6,0,B|256:40,2,35
216,192,34451,5,0
296,192,34666,1,4
456,24,35308,6,0,B|496:96,1,70
424,112,35737,2,0,B|376:184,1,70
448,216,36166,1,0
480,288,36380,2,0,B|464:344|368:280|352:352,1,140,0|4
128,336,37237,6,0,B|176:344|192:248|256:256,1,140,0|0
240,176,37880,2,0,B|272:144|328:168|320:152,2,75
176,176,38523,2,0,B|144:144|88:168|96:152,2,75
208,112,39166,1,0
208,112,39380,1,0
208,32,39594,2,0,B|168:8|120:48,1,70,0|4
368,32,40451,5,0
424,72,40666,2,0,B|464:104|448:184,2,105
360,104,41523,2,0,B|336:160|400:200|384:240,1,140
328,280,42166,1,0
280,328,42380,2,0,B|224:360|160:328,2,105
344,344,43237,1,0
416,344,43451,2,4,B|472:344,1,35
256,192,43880,12,0,47523
72,64,51165,5,0
40,128,51380,2,0,B|32:184|48:240|120:264,1,140
136,296,52023,2,0,B|192:360,1,70
240,312,52451,2,0,B|328:304,2,70
232,240,53094,2,0,B|256:160|344:128|416:208|496:176|496:48,1,350,0|4
360,24,54594,5,0
288,24,54808,2,0,B|200:64,2,70
328,80,55451,1,0
264,112,55665,2,0,B|176:152,2,70
320,152,56308,1,0
264,192,56523,2,0,B|240:232|184:256|112:224|48:224|16:304,1,280,0|4
88,336,57594,6,0,B|152:304|200:336|248:368|304:296,1,210
368,312,58451,1,0
368,312,58665,1,0
472,256,58987,2,0,B|416:200|488:152,1,105
472,88,59523,2,0,B|432:8,1,70
384,72,59951,2,0,B|313:16,1,70
296,96,60380,2,0,B|139:63,1,140,0|4
40,160,61451,6,0,B|-8:160,2,35
40,312,62094,1,0
112,312,62308,2,0,B|112:360,1,35
224,328,62737,1,0
296,328,62951,2,0,B|352:336|400:304,2,105
256,264,63808,2,0,B|168:232|152:176|152:104|184:48|288:24|368:48|408:96|400:232|320:256,1,560,0|4
456,216,65951,6,0,B|480:176|440:128,2,70
336,216,66808,6,0,B|312:176|352:128,2,70,0|0|0
396,263,67451,5,0
392,336,67665,2,0,B|296:312,1,70
248,336,68094,1,0
184,288,68308,2,0,B|88:264,1,70
40,280,68737,1,0
24,200,68951,2,0,B|56:32,1,140,0|4
200,32,69808,5,0
200,104,70023,2,0,B|200:152,1,35
200,240,70451,1,0
272,240,70665,2,0,B|320:256|368:224,2,70
328,112,71523,2,0,B|352:64,1,35
448,96,71951,1,0
448,96,72165,1,0
456,168,72380,2,0,B|504:224|456:304,1,140,0|4
384,328,73023,6,0,B|288:328,1,70
160,328,73665,1,0
80,328,73880,1,0
120,264,74094,1,0
40,128,74523,1,0
8,56,74737,1,0
80,64,74951,2,0,B|120:136,4,70
232,32,76237,6,0,B|280:16|320:64,2,70
216,104,76880,2,0,B|152:168,1,70
168,232,77308,2,0,B|232:296,1,70
296,280,77737,2,0,B|368:208,1,70
344,152,78165,2,0,B|280:88,1,70
256,208,78701,1,0
256,320,79023,2,0,B|184:352|128:224|48:280,1,210,0|4
64,120,80094,5,0
136,120,80308,2,0,B|176:96|232:160|280:112,1,140
328,64,80951,2,0,B|392:0,2,70
344,136,81594,2,0,B|424:136,2,70
328,208,82237,2,0,B|392:272,2,70,0|0|4
48,192,83308,5,0
112,152,83523,2,0,B|160:160|176:80|224:112,2,105
112,232,84380,2,0,B|160:224|176:304|224:272,2,105
176,192,85237,2,0,B|256:240|304:136|400:184,1,210,0|4
256,192,86308,12,0,90380
352,240,100665,6,0,B|392:304,2,70
272,240,101308,2,0,B|232:312,2,70
312,176,101951,1,0
312,98,102165,2,0,B|312:26,2,70
248,144,102808,1,0
200,200,103023,1,0
176,128,103237,2,0,B|80:128|80:32,1,140,0|4
160,40,103880,6,0,B|208:40,2,35
96,264,104737,5,0
152,320,104951,1,4
384,328,105594,5,0
448,280,105808,1,0
496,216,106023,2,0,B|520:176|488:136,1,70
424,176,106451,1,0
360,128,106665,2,0,B|312:192|392:256,1,140,0|4
240,200,107523,6,0,B|208:176|144:256|88:192,1,140
40,168,108165,2,0,B|16:136|40:88,1,70
104,64,108594,2,0,B|112:16|152:-24,2,70
120,136,109237,2,0,B|160:144|208:104,4,70,0|0|0|0|4
328,40,110737,5,0
392,80,110951,2,0,B|344:112|344:192,2,105
424,152,111808,2,0,B|496:184|496:272,1,140
360,304,112665,6,0,B|312:376|216:280|144:344,1,210
88,304,113523,1,0
24,264,113737,2,4,B|-8:304,1,35
256,192,114165,12,0,117808
80,256,121451,5,0
24,200,121665,2,0,B|0:128|48:56,1,140
104,104,122308,2,0,B|104:136|136:168,1,70
184,104,122737,2,0,B|208:136|256:136,1,70
272,64,123165,1,0
344,96,123380,2,0,B|336:-24|536:-24|512:232|280:176,1,420,0|4
208,176,124880,5,0
136,144,125094,2,0,B|72:80,2,70
136,224,125737,2,0,B|80:280,2,70
208,256,126380,2,0,B|184:288|200:328,1,70
272,336,126808,2,0,B|400:360|360:152|496:192,1,280,0|4
472,112,127880,5,0
408,64,128094,1,0
256,40,128737,6,0,B|200:24|184:80,2,70,0|0|0
192,176,129594,1,4
128,128,129808,1,0
64,176,130023,1,4
96,248,130237,1,0
168,248,130451,1,4
136,320,130665,2,0,B|248:376|296:248|416:312,1,280,0|4
480,304,131737,6,0,B|512:336,2,35
472,152,132380,2,0,B|480:104|424:112|408:72|440:16,1,140
352,32,133023,1,0
272,32,133237,2,0,B|224:0|160:32,2,105
224,88,134094,2,0,B|136:120|120:176|120:248|152:304|256:328|336:304|376:256|368:120|288:96,1,560,0|4
144,40,136237,5,0
72,72,136451,1,0
32,136,136665,2,0,B|24:200|136:240,1,140
256,304,137523,1,0
400,264,137951,2,0,B|440:248|448:200,1,70
368,184,138380,2,0,B|336:160|336:112,3,70
416,112,139237,2,0,B|408:56|368:24|304:48,1,140,0|0
256,192,140094,6,0,B|232:240|240:272,2,70
256,112,140737,1,0
176,104,140951,2,0,B|128:88|104:112,2,70
112,240,141808,2,0,B|72:256|56:304,3,70
128,336,142665,2,0,B|184:360|184:272|272:296,1,140,0|4
328,304,143308,5,0
400,272,143523,1,0
488,144,143951,2,0,B|461:87|415:92|388:35,2,140
408,160,145023,2,0,B|368:192|320:152,3,70
336,88,145880,2,0,B|320:64|296:80,1,35
144,176,146523,5,0
88,232,146737,2,0,B|24:296,2,70
144,288,147380,2,0,B|144:360,2,70
200,232,148023,2,0,B|264:296,2,70
144,176,148666,2,0,B|57:259|-71:106|140:-40|246:173,1,420,0|4
328,296,150380,6,0,B|352:344|424:336|472:288,1,140
496,160,151237,2,0,B|520:80|432:24,1,140
400,96,151880,2,0,B|368:136|312:136,2,70
328,56,152523,2,0,B|304:24|256:32,1,70
272,104,152951,2,0,B|240:152|160:96|136:160,1,140
32,248,153808,6,0,B|8:304|64:344,2,105,4|0|0
32,168,154666,2,0,B|8:112|64:72,2,105,4|0|0
96,208,155523,2,0,B|184:280|208:104|304:208,1,210,4|0
256,192,156594,12,0,160451
