osu file format v14

[General]
AudioFilename: BRIGHT STREAM 192.mp3
AudioLeadIn: 0
PreviewTime: 41971
Countdown: 0
SampleSet: Soft
StackLeniency: 0.7
Mode: 0
LetterboxInBreaks: 1
WidescreenStoryboard: 1

[Editor]
Bookmarks: 13510,30294,35990,44534,46358,47762,57541,63332,69027,76623,78711,85546,91927,99027,103699,110040,119059,121337,126844,133299,140325
DistanceSpacing: 0.9
BeatDivisor: 4
GridSize: 8
TimelineZoom: 2.6

[Metadata]
Title:Bright Stream
TitleUnicode:Bright Stream
Artist:Mizuki Nana
ArtistUnicode:Mizuki Nana
Creator:Peur du noir
Version:Insane
Source:Magical Girl Lyrical Nanoha The Movie 2nd
Tags:Magical Girl Lyrical Nanoha The Movie 2nd Mahou Shoujo
BeatmapID:607333
BeatmapSetID:266581

[Difficulty]
HPDrainRate:6
CircleSize:4
OverallDifficulty:7
ApproachRate:9
SliderMultiplier:1.9
SliderTickRate:1

[Events]
//Background and Video events
0,0,"aba96527.jpg",0,0
//Break Periods
2,75798,78606
//Storyboard Layer 0 (Background)
//Storyboard Layer 1 (Fail)
//Storyboard Layer 2 (Pass)
//Storyboard Layer 3 (Foreground)
//Storyboard Sound Samples

[TimingPoints]
-920,379.746835443038,4,2,0,66,1,0
1928,-133.333333333333,4,2,0,66,0,0
6674,-100,4,2,0,66,0,0
48826,-133.333333333333,4,2,0,66,0,0
49206,379.746835443038,4,2,0,66,1,0
49206,-100,4,2,0,80,0,1
58320,-133.333333333333,4,2,0,80,0,1
59080,-100,4,2,0,80,0,1
73509,-100,4,2,0,66,0,0
73605,-100,4,2,0,5,0,0
76168,-100,4,2,0,66,0,0
91738,-133.333333333333,4,2,0,66,0,0
93447,-100,4,2,0,66,0,0
110345,-133.333333333333,4,2,0,66,0,0
112054,-100,4,2,0,66,0,0
119838,-100,4,2,0,80,0,0
119933,-100,4,2,0,66,0,0
120123,-100,4,2,0,85,0,0
120218,-100,4,2,0,66,0,0
120408,-100,4,2,0,95,0,0
122117,-100,4,2,0,80,0,1
146516,-100,4,2,0,66,0,0

[HitObjects]
176,280,598,5,0,0:0:0:0:
240,208,788,1,0,0:0:0:0:
304,280,978,1,0,0:0:0:0:
400,192,1168,1,0,0:0:0:0:
393,144,1262,1,0,0:0:0:0:
364,107,1357,1,0,0:0:0:0:
272,56,1548,1,0,0:0:0:0:
272,208,1738,1,0,0:0:0:0:
160,64,1928,6,0,B|160:72|168:112|128:200|176:200,1,142.500005435944,2|2,0:0|0:0,0:0:0:0:
272,128,2497,1,0,0:0:0:0:
392,152,2687,2,0,B|392:156|384:196|424:284|382:283,1,142.500005435944,2|2,0:0|0:0,0:0:0:0:
272,128,3257,1,2,0:0:0:0:
144,168,3636,6,0,B|79:215|85:211,1,71.2500027179719
200,240,4016,1,0,0:0:0:0:
296,112,4206,1,0,0:0:0:0:
200,240,4396,1,0,0:0:0:0:
152,64,4586,1,0,0:0:0:0:
296,112,4776,1,0,0:0:0:0:
200,264,5155,5,0,0:0:0:0:
127,205,5344,1,0,0:0:0:0:
109,113,5534,1,0,0:0:0:0:
256,192,5725,1,0,0:0:0:0:
256,192,5820,1,0,0:0:0:0:
256,192,5915,1,0,0:0:0:0:
256,44,6105,1,0,0:0:0:0:
304,40,6200,1,0,0:0:0:0:
352,56,6295,1,0,0:0:0:0:
384,88,6390,1,0,0:0:0:0:
408,136,6485,1,2,0:0:0:0:
408,136,6580,1,2,0:0:0:0:
408,136,6674,2,0,B|360:224,1,95,12|0,0:0|0:0,0:0:0:0:
272,328,7054,5,0,0:0:0:0:
168,248,7244,1,0,0:0:0:0:
272,176,7434,1,0,0:0:0:0:
168,96,7624,1,0,0:0:0:0:
272,40,7814,1,0,0:0:0:0:
360,48,8004,1,0,0:0:0:0:
360,48,8098,1,0,0:0:0:0:
360,48,8193,6,0,P|413:91|416:136,1,95,12|0,0:0|0:0,0:0:0:0:
432,224,8573,1,10,0:0:0:0:
312,272,8763,1,0,0:0:0:0:
320,144,8953,1,0,0:0:0:0:
264,56,9143,2,8,P|208:64|176:112,1,95,8|0,1:0|0:0,0:0:0:0:
112,200,9523,1,0,0:0:0:0:
112,240,9617,1,0,0:0:0:0:
128,280,9712,5,0,0:0:0:0:
272,272,9902,1,0,0:0:0:0:
168,192,10092,1,0,0:0:0:0:
200,320,10282,1,0,0:0:0:0:
153,325,10376,1,0,0:0:0:0:
114,300,10471,1,0,0:0:0:0:
88,176,10662,1,0,0:0:0:0:
176,80,10852,1,0,0:0:0:0:
280,80,11042,1,0,0:0:0:0:
280,80,11136,1,0,0:0:0:0:
280,80,11231,6,0,B|336:104|342:152,1,95,8|2,0:0|0:0,0:0:0:0:
376,256,11611,1,0,0:0:0:0:
280,320,11801,1,0,0:0:0:0:
160,320,11991,1,0,0:0:0:0:
128,284,12085,1,0,0:0:0:0:
109,241,12180,1,0,0:0:0:0:
103,194,12275,1,0,0:0:0:0:
108,147,12370,1,2,0:0:0:0:
123,102,12465,1,0,0:0:0:0:
148,61,12560,1,0,0:0:0:0:
184,32,12655,1,0,0:0:0:0:
224,24,12750,6,0,B|280:8|316:50,1,95,12|0,0:0|0:0,0:0:0:0:
392,104,13130,1,0,0:0:0:0:
440,208,13319,1,0,0:0:0:0:
376,320,13510,2,0,B|336:320|336:320|304:280|304:280|304:280|304:280|272:320|272:320|224:320|224:320,1,190
168,208,14080,1,2,0:0:0:0:
216,104,14269,5,10,0:0:0:0:
216,104,14364,1,0,0:0:0:0:
216,104,14459,2,0,B|259:87|291:44,1,95,2|8,0:0|0:0,0:0:0:0:
216,216,14839,2,0,B|259:233|291:276,1,95,2|8,2:0|0:0,0:0:0:0:
296,160,15219,2,0,P|341:159|392:160,1,95,2|10,0:0|0:0,0:0:0:0:
464,112,15598,1,2,0:0:0:0:
360,256,15788,2,0,B|248:264|272:232|160:256,1,190,8|8,0:0|0:0,0:0:0:0:
72,96,16358,5,2,0:0:0:0:
176,208,16548,1,0,0:0:0:0:
224,64,16738,1,0,0:0:0:0:
304,176,16928,1,0,0:0:0:0:
248,280,17117,2,0,P|208:304|158:278,1,95
64,160,17497,2,0,B|80:104|146:110,1,95,2|8,0:0|0:0,0:0:0:0:
360,168,17877,2,0,B|414:187|415:246,1,95,2|8,0:0|0:0,0:0:0:0:
240,304,18257,2,0,B|183:294|178:233,1,95,2|8,0:0|0:0,0:0:0:0:
80,120,18636,1,2,0:0:0:0:
144,248,18826,6,0,B|200:232|189:148,1,95,10|0,0:0|0:0,0:0:0:0:
344,248,19206,2,0,B|374:195|327:160,1,95,10|0,0:0|0:0,0:0:0:0:
224,160,19586,2,0,B|200:98|255:79,1,95,10|0,0:0|0:0,0:0:0:0:
176,24,19966,5,10,0:0:0:0:
304,24,20155,2,0,B|360:32|352:96,1,95,2|8,0:0|0:0,0:0:0:0:
352,176,20535,2,0,B|336:232|272:216,1,95,2|8,0:0|0:0,0:0:0:0:
256,304,20915,2,0,B|280:368|354:338,1,95,2|8,0:0|0:0,0:0:0:0:
424,312,21295,1,2,0:0:0:0:
448,200,21485,1,10,0:0:0:0:
392,112,21674,2,0,B|362:76|312:64,1,95,2|8,0:0|0:0,0:0:0:0:
208,64,22054,2,0,B|152:72|137:129,1,95,2|8,0:0|0:0,0:0:0:0:
136,264,22434,6,0,B|135:326|209:325,2,95,2|8|2,0:0|0:0|0:0,0:0:0:0:
160,112,23004,2,0,B|216:104|232:160,1,95,10|0,0:0|0:0,0:0:0:0:
112,264,23383,2,0,B|11:236|70:127,2,142.5,10|2|2,0:0|0:0|0:0,0:0:0:0:
232,344,24143,1,0,0:0:0:0:
392,296,24333,1,0,0:0:0:0:
416,168,24523,1,0,0:0:0:0:
400,128,24617,1,0,0:0:0:0:
376,96,24712,1,0,0:0:0:0:
344,72,24807,1,0,0:0:0:0:
304,48,24902,6,0,B|256:40|207:57,1,95,14|0,0:0|0:0,0:0:0:0:
104,112,25282,2,0,B|51:149|112:208,1,95,10|0,0:0|0:0,0:0:0:0:
208,232,25662,2,0,B|279:247|279:168,1,95,10|0,0:0|0:0,0:0:0:0:
192,112,26042,1,10,0:0:0:0:
304,112,26231,6,0,B|344:152|302:208,1,95,2|8,0:0|0:0,0:0:0:0:
176,264,26611,1,0,0:0:0:0:
144,240,26705,1,0,0:0:0:0:
120,208,26800,1,0,0:0:0:0:
88,96,26991,2,0,B|88:24|176:58,1,95,2|8,0:0|0:0,0:0:0:0:
256,48,27371,1,0,0:0:0:0:
128,240,27561,1,0,0:0:0:0:
376,240,27750,1,0,0:0:0:0:
152,88,27940,5,0,0:0:0:0:
352,88,28130,1,0,0:0:0:0:
256,304,28320,1,0,0:0:0:0:
256,56,28510,1,0,0:0:0:0:
256,176,28700,1,0,0:0:0:0:
256,304,28890,1,0,0:0:0:0:
392,240,29080,2,0,B|398:308|312:296,1,95,10|0,0:0|0:0,0:0:0:0:
168,296,29459,2,0,B|99:301|112:215,1,95,10|0,0:0|0:0,0:0:0:0:
96,136,29839,1,8,0:0:0:0:
160,48,30029,1,0,0:0:0:0:
160,48,30123,1,0,0:0:0:0:
160,48,30218,1,0,0:0:0:0:
272,136,30409,1,2,0:0:0:0:
168,248,30598,1,8,0:0:0:0:
376,248,30788,1,2,0:0:0:0:
376,56,30978,6,0,B|384:104|376:152,1,95,8|2,0:0|0:0,0:0:0:0:
256,216,31358,1,8,0:0:0:0:
128,48,31548,1,0,0:0:0:0:
32,160,31738,1,0,0:0:0:0:
136,336,31928,2,0,B|136:288|136:240,1,95,2|8,0:0|0:0,0:0:0:0:
136,136,32307,5,2,0:0:0:0:
56,136,32497,2,0,B|56:184|56:232,1,95,8|2,0:0|0:0,0:0:0:0:
192,304,32877,1,8,0:0:0:0:
304,32,33067,1,0,0:0:0:0:
392,160,33257,1,0,0:0:0:0:
312,352,33447,2,0,B|408:352,1,95,2|8,0:0|0:0,0:0:0:0:
464,280,33826,5,2,0:0:0:0:
408,208,34016,2,0,B|312:208|312:208,1,95,10|0,0:0|0:0,0:0:0:0:
264,328,34396,1,0,0:0:0:0:
280,283,34490,1,0,0:0:0:0:
311,248,34585,1,0,0:0:0:0:
248,184,34776,1,0,0:0:0:0:
152,136,34966,1,0,0:0:0:0:
176,120,35061,2,0,L|232:88,1,47.5
304,56,35345,5,0,0:0:0:0:
344,40,35439,1,0,0:0:0:0:
384,56,35534,1,0,0:0:0:0:
448,128,35725,1,0,0:0:0:0:
448,232,35915,1,0,0:0:0:0:
384,320,36105,2,0,B|343:369|287:315,1,95,2|8,0:0|0:0,0:0:0:0:
208,192,36485,1,0,0:0:0:0:
256,288,36674,5,0,0:0:0:0:
216,288,36769,1,0,0:0:0:0:
176,288,36864,1,0,0:0:0:0:
136,288,36959,1,0,0:0:0:0:
96,288,37054,2,0,B|64:216|128:168|96:96,1,190,12|8,0:0|0:0,0:0:0:0:
176,40,37624,5,0,0:0:0:0:
320,40,37814,1,0,0:0:0:0:
432,112,38004,1,10,0:0:0:0:
216,127,38193,1,0,0:0:0:0:
224,168,38287,1,0,0:0:0:0:
248,200,38382,1,0,0:0:0:0:
416,256,38573,6,0,B|480:264|464:336,2,95,10|0|8,0:0|0:0|0:0,0:0:0:0:
272,232,39143,2,0,B|269:163|340:168,1,95,10|0,0:0|0:0,0:0:0:0:
384,80,39523,1,8,0:0:0:0:
240,32,39712,1,10,0:0:0:0:
96,80,39902,1,0,0:0:0:0:
88,256,40092,6,0,B|18:230|53:147|53:147,2,95,10|10|0,0:0|0:0|0:0,0:0:0:0:
232,144,40662,2,0,B|176:176|222:237,1,95,2|8,0:0|0:0,0:0:0:0:
336,272,41042,1,10,0:0:0:0:
432,208,41231,1,8,0:0:0:0:
376,96,41421,1,2,0:0:0:0:
376,96,41611,6,0,B|280:80,1,95,10|0,0:0|0:0,0:0:0:0:
160,72,41991,1,0,0:0:0:0:
56,152,42181,1,0,0:0:0:0:
232,168,42371,2,0,L|160:208,2,47.5,0|0|0,0:0|0:0|0:0,0:0:0:0:
56,152,42750,1,8,0:0:0:0:
232,168,42940,6,0,L|304:128,2,47.5,0|0|0,0:0|0:0|0:0,0:0:0:0:
168,280,43320,1,0,0:0:0:0:
352,296,43510,1,0,0:0:0:0:
472,160,43700,2,0,P|439:113|377:126,1,95
312,208,44080,6,0,P|279:161|217:174,1,95,8|0,0:0|0:0,0:0:0:0:
176,48,44459,1,0,0:0:0:0:
52,116,44649,5,0,0:0:0:0:
40,161,44743,1,0,0:0:0:0:
40,209,44838,1,0,0:0:0:0:
48,256,44933,1,0,0:0:0:0:
67,290,45029,1,8,0:0:0:0:
296,136,45219,2,0,B|327:193|265:226,1,95,10|8,0:0|0:0,0:0:0:0:
176,216,45598,2,0,B|115:192|141:127,1,95,10|8,0:0|0:0,0:0:0:0:
128,48,45978,2,0,P|180:35|232:55,1,95
296,48,46358,2,0,P|348:35|400:55,1,95
472,128,46738,5,0,0:0:0:0:
424,256,46928,1,12,0:0:0:0:
272,336,47117,1,12,0:0:0:0:
112,280,47307,1,12,0:0:0:0:
256,192,47497,1,12,0:0:0:0:
104,96,47687,1,12,0:0:0:0:
256,192,47877,5,4,0:0:0:0:
256,192,47972,1,0,0:0:0:0:
256,192,48067,1,4,0:0:0:0:
480,48,48447,1,0,0:0:0:0:
264,136,48826,5,6,0:0:0:0:
48,32,49016,1,0,0:0:0:0:
56,208,49206,1,0,0:0:0:0:
80,256,49300,1,0,0:0:0:0:
120,296,49396,1,0,0:0:0:0:
272,352,49586,2,0,B|336:368|355:309,1,95,8|10,0:0|0:0,0:0:0:0:
440,152,49966,1,10,0:0:0:0:
272,192,50155,2,0,B|336:152|288:80,1,95,8|8,0:0|0:0,0:0:0:0:
144,24,50535,5,0,0:0:0:0:
124,67,50629,1,0,0:0:0:0:
104,110,50724,1,0,0:0:0:0:
83,152,50819,1,0,0:0:0:0:
63,195,50914,1,0,0:0:0:0:
200,312,51105,2,0,B|261:319|268:264,1,95,8|10,0:0|0:0,0:0:0:0:
136,144,51484,2,0,P|178:95|229:120,1,95,0|0,0:0|0:0,0:0:0:0:
296,152,51864,1,10,0:0:0:0:
408,80,52054,1,8,0:0:0:0:
216,56,52244,6,0,B|176:83|162:132,1,95,10|8,0:0|0:0,0:0:0:0:
328,160,52624,2,0,B|373:175|405:215,1,95,10|2,0:0|0:0,0:0:0:0:
240,256,53004,1,0,0:0:0:0:
204,287,53099,1,0,0:0:0:0:
179,327,53193,1,0,0:0:0:0:
88,184,53383,1,10,0:0:0:0:
72,352,53573,1,8,0:0:0:0:
216,256,53763,6,0,B|215:152,1,95,10|10,0:0|0:0,0:0:0:0:
360,64,54143,1,10,0:0:0:0:
416,224,54333,5,0,0:0:0:0:
416,224,54427,1,0,0:0:0:0:
240,184,54617,1,0,0:0:0:0:
240,184,54712,1,0,0:0:0:0:
368,112,54902,1,8,0:0:0:0:
256,32,55092,5,8,0:0:0:0:
215,32,55187,1,0,0:0:0:0:
174,32,55282,1,14,0:0:0:0:
136,200,55472,1,8,0:0:0:0:
200,112,55662,1,8,0:0:0:0:
376,208,55852,5,10,0:0:0:0:
304,112,56042,1,10,0:0:0:0:
174,328,56231,5,8,0:0:0:0:
215,328,56326,1,2,0:0:0:0:
256,328,56421,1,8,0:0:0:0:
248,208,56611,1,0,0:0:0:0:
248,120,56801,1,0,0:0:0:0:
248,32,56991,1,0,0:0:0:0:
336,120,57181,6,0,B|349:75|391:37,1,95,10|8,0:0|0:0,0:0:0:0:
160,128,57561,6,0,B|146:83|104:45,1,95,10|8,0:0|0:0,0:0:0:0:
248,120,57940,1,0,0:0:0:0:
248,168,58035,1,0,0:0:0:0:
248,216,58129,1,0,0:0:0:0:
176,328,58320,6,0,B|272:368|240:312|344:324,1,142.500005435944,12|8,0:0|0:0,0:0:0:0:
248,184,58890,1,8,0:0:0:0:
328,48,59080,2,0,B|392:32|415:88,1,95,10|10,0:0|0:0,0:0:0:0:
448,208,59459,1,8,0:0:0:0:
384,328,59649,1,8,0:0:0:0:
272,256,59839,5,0,0:0:0:0:
224,256,59933,1,0,0:0:0:0:
177,256,60028,1,0,0:0:0:0:
64,184,60219,1,8,0:0:0:0:
98,92,60408,5,0,0:0:0:0:
131,53,60503,1,0,0:0:0:0:
176,36,60598,1,0,0:0:0:0:
264,112,60788,2,0,L|307:74,1,47.5
360,48,60978,2,0,L|408:88,1,47.5
440,128,61168,2,0,L|408:168,1,47.5
432,256,61358,5,0,0:0:0:0:
264,168,61547,1,0,0:0:0:0:
224,328,61738,2,0,B|264:286|321:281,1,95,10|10,0:0|0:0,0:0:0:0:
384,160,62117,2,0,B|336:160|294:195,1,95,10|8,0:0|0:0,0:0:0:0:
232,56,62497,1,8,0:0:0:0:
112,40,62687,5,10,0:0:0:0:
112,88,62782,1,0,0:0:0:0:
80,128,62877,2,0,B|56:178|84:229,1,95,10|10,0:0|0:0,0:0:0:0:
176,312,63257,2,0,B|211:376|272:309,1,95,10|8,0:0|0:0,0:0:0:0:
368,256,63636,2,0,B|427:228|375:158,1,95,10|8,0:0|0:0,0:0:0:0:
320,72,64016,5,8,0:0:0:0:
280,48,64111,1,8,0:0:0:0:
232,32,64206,1,8,0:0:0:0:
184,48,64301,1,8,0:0:0:0:
144,80,64396,2,0,B|128:136|76:150,1,95,10|10,0:0|0:0,0:0:0:0:
72,280,64775,6,0,B|64:344|145:344,1,95,10|10,0:0|0:0,0:0:0:0:
256,320,65155,2,0,B|302:238,1,95,10|10,0:0|0:0,0:0:0:0:
376,128,65535,1,0,0:0:0:0:
296,24,65724,1,0,0:0:0:0:
160,24,65915,2,0,B|84:84,1,95,10|10,0:0|0:0,0:0:0:0:
128,240,66294,5,0,0:0:0:0:
216,136,66484,1,0,0:0:0:0:
264,152,66579,1,0,0:0:0:0:
296,232,66769,1,0,0:0:0:0:
344,248,66864,1,0,0:0:0:0:
240,328,67054,1,0,0:0:0:0:
168,224,67243,1,0,0:0:0:0:
216,104,67433,5,8,0:0:0:0:
406,73,67623,1,0,0:0:0:0:
432,96,67717,1,0,0:0:0:0:
458,119,67812,1,0,0:0:0:0:
384,232,68003,1,0,0:0:0:0:
248,232,68193,5,0,0:0:0:0:
288,104,68383,1,0,0:0:0:0:
314,127,68477,1,0,0:0:0:0:
340,150,68572,1,0,0:0:0:0:
208,144,68763,1,10,0:0:0:0:
128,40,68952,1,0,0:0:0:0:
109,69,69046,1,0,0:0:0:0:
90,98,69141,1,0,0:0:0:0:
208,40,69333,6,0,B|260:50|283:99,1,95,8|10,0:0|0:0,0:0:0:0:
303,125,69617,1,0,0:0:0:0:
325,162,69712,2,0,B|348:210|400:221,1,95,12|10,0:0|0:0,0:0:0:0:
192,88,70092,5,8,0:0:0:0:
232,96,70187,1,8,0:0:0:0:
272,104,70282,1,8,0:0:0:0:
312,112,70377,1,8,0:0:0:0:
352,120,70472,2,0,B|448:120,1,95,14|10,0:0|0:0,0:0:0:0:
312,112,70852,5,8,0:0:0:0:
200,200,71042,1,10,0:0:0:0:
144,192,71136,1,0,0:0:0:0:
120,152,71231,1,10,0:0:0:0:
80,40,71421,6,0,B|148:39|148:39|176:40|176:40|200:40,1,95,10|8,0:0|0:0,0:0:0:0:
360,88,71801,1,10,0:0:0:0:
328,120,71896,1,0,0:0:0:0:
304,152,71991,2,0,B|240:152|240:152|216:152|200:152,1,95,14|8,0:0|0:0,0:0:0:0:
208,72,72371,6,12,B|187:30,3,47.5,12|0|0|0,0:0|0:0|0:0|0:0,0:0:0:0:
128,56,72750,6,12,B|103:96,3,47.5,12|0|0|0,0:0|0:0|0:0|0:0,0:0:0:0:
80,160,73130,5,12,0:0:0:0:
77,206,73224,1,0,0:0:0:0:
89,252,73319,1,0,0:0:0:0:
116,291,73414,1,0,0:0:0:0:
152,322,73509,1,4,0:0:0:0:
256,192,73605,12,0,75598,0:0:0:0:
176,80,79206,5,8,0:0:0:0:
312,80,79396,1,8,0:0:0:0:
248,296,79585,1,0,0:0:0:0:
200,200,79775,2,0,B|248:168|304:208|304:208|304:208|304:208,1,95
248,96,80155,1,0,0:0:0:0:
336,56,80345,2,0,B|360:104|424:88,1,95,10|8,0:0|0:0,0:0:0:0:
512,144,80725,1,10,0:0:0:0:
456,232,80915,5,10,0:0:0:0:
424,264,81010,1,0,0:0:0:0:
392,288,81105,2,0,B|296:296,1,95,8|10,0:0|0:0,0:0:0:0:
240,152,81485,1,8,0:0:0:0:
104,256,81674,2,0,P|58:301|-1:271,2,95,0|0|0,0:0|0:0|0:0,0:0:0:0:
104,144,82244,1,10,0:0:0:0:
104,56,82434,1,8,0:0:0:0:
200,48,82624,5,0,0:0:0:0:
288,144,82813,1,0,0:0:0:0:
392,64,83003,5,0,0:0:0:0:
400,224,83193,1,0,0:0:0:0:
280,144,83383,1,0,0:0:0:0:
160,216,83573,1,0,0:0:0:0:
296,304,83763,1,8,0:0:0:0:
160,304,83953,1,8,0:0:0:0:
56,224,84141,5,0,0:0:0:0:
56,194,84236,1,0,0:0:0:0:
57,165,84331,1,0,0:0:0:0:
57,136,84426,1,0,0:0:0:0:
58,107,84521,1,0,0:0:0:0:
136,40,84712,5,0,0:0:0:0:
232,168,84902,1,0,0:0:0:0:
394,138,85092,1,0,0:0:0:0:
415,182,85187,1,0,0:0:0:0:
417,232,85282,1,0,0:0:0:0:
398,274,85377,1,0,0:0:0:0:
362,313,85472,1,2,0:0:0:0:
328,328,85567,1,2,0:0:0:0:
288,328,85661,6,0,B|194:316,1,95,12|0,0:0|0:0,0:0:0:0:
160,80,86042,2,0,B|96:96|104:160,1,95,10|0,0:0|0:0,0:0:0:0:
320,280,86421,2,0,B|374:260|362:189,1,95,10|0,0:0|0:0,0:0:0:0:
240,128,86801,1,10,0:0:0:0:
144,248,86991,1,0,0:0:0:0:
168,272,87086,1,0,0:0:0:0:
192,296,87181,5,10,0:0:0:0:
360,328,87371,2,0,B|403:292|362:231,1,95,2|8,0:0|0:0,0:0:0:0:
240,208,87750,2,0,B|253:153|312:168,1,95,2|8,0:0|0:0,0:0:0:0:
416,184,88130,5,2,0:0:0:0:
368,88,88320,1,10,0:0:0:0:
280,48,88510,2,0,B|232:16|184:48,1,95,0|10,0:0|0:0,0:0:0:0:
176,232,88890,2,0,B|216:272|272:232,1,95,0|10,0:0|0:0,0:0:0:0:
304,120,89269,5,0,0:0:0:0:
208,56,89459,2,0,B|135:33|135:125,1,95,10|0,0:0|0:0,0:0:0:0:
288,240,89839,2,0,B|360:248|346:159,1,95,10|0,0:0|0:0,0:0:0:0:
320,80,90219,5,10,0:0:0:0:
256,176,90409,2,0,B|200:168|192:104,1,95,2|8,0:0|0:0,0:0:0:0:
108,41,90788,1,0,0:0:0:0:
64,56,90882,1,0,0:0:0:0:
59,101,90977,1,0,0:0:0:0:
64,192,91168,2,0,B|160:224|160:224|200:176|256:192,1,190
344,192,91738,6,0,B|416:264|312:312,1,142.500005435944,12|0,0:0|0:0,0:0:0:0:
104,264,92307,2,12,P|79:219|184:136,1,213.750008153916,12|8,0:0|0:0,0:0:0:0:
296,216,93066,2,0,B|336:200|336:200|351:153|351:153,1,71.2500027179719,0|12,0:0|0:0,0:0:0:0:
336,72,93447,2,0,B|288:56|240:72,1,95,2|0,0:0|0:0,0:0:0:0:
280,176,93826,2,0,B|256:224|264:280,1,95,14|0,0:0|0:0,0:0:0:0:
192,64,94206,5,2,0:0:0:0:
160,192,94396,1,10,0:0:0:0:
128,344,94586,2,0,B|98:308|48:296,1,95,0|2,0:0|0:0,0:0:0:0:
32,160,94966,2,0,B|80:152|128:160,1,95,0|2,0:0|0:0,0:0:0:0:
216,168,95345,6,0,B|224:112|216:72,2,95,14|0|10,0:0|0:0|0:0,0:0:0:0:
208,32,95914,1,0,0:0:0:0:
208,160,96104,1,0,0:0:0:0:
392,144,96295,2,0,B|401:217|382:286,2,142.5,6|2|2,0:0|0:0|0:0,0:0:0:0:
384,288,97054,2,0,B|288:288,1,95,0|8,0:0|0:0,0:0:0:0:
192,272,97433,2,0,L|120:256,1,47.5,0|0,0:0|0:0,0:0:0:0:
80,216,97623,2,0,L|88:152,1,47.5,0|0,0:0|0:0,0:0:0:0:
136,96,97814,6,0,B|168:64|224:56,1,95,12|0,0:0|0:0,0:0:0:0:
192,176,98193,2,0,B|248:176|288:192,1,95,10|0,0:0|0:0,0:0:0:0:
264,264,98573,2,0,B|312:288|336:328,1,95,10|0,0:0|0:0,0:0:0:0:
176,320,98953,1,10,0:0:0:0:
64,288,99143,5,0,0:0:0:0:
60,240,99237,1,0,0:0:0:0:
63,193,99332,1,0,0:0:0:0:
72,56,99523,2,0,B|118:34|168:42,1,95,10|8,0:0|0:0,0:0:0:0:
264,136,99902,2,0,B|216:120|168:144,1,95,2|8,0:0|0:0,0:0:0:0:
224,24,100282,2,0,B|272:24|320:40,1,95,2|8,0:0|0:0,0:0:0:0:
448,120,100662,1,0,0:0:0:0:
389,220,100852,5,0,0:0:0:0:
349,246,100946,1,0,0:0:0:0:
306,265,101041,1,0,0:0:0:0:
176,320,101231,1,8,0:0:0:0:
104,208,101421,5,0,0:0:0:0:
96,161,101515,1,0,0:0:0:0:
97,113,101610,1,0,0:0:0:0:
192,80,101800,1,0,0:0:0:0:
280,88,101991,1,0,0:0:0:0:
293,133,102085,1,0,0:0:0:0:
297,180,102180,1,0,0:0:0:0:
424,328,102371,6,0,B|464:304|464:304|464:240|464:240|464:240,1,95,10|8,0:0|0:0,0:0:0:0:
464,216,102655,2,0,B|464:168,1,47.5,2|8,0:0|0:0,0:0:0:0:
408,144,102940,2,0,B|408:96|392:48,1,95,2|10,0:0|0:0,0:0:0:0:
320,80,103320,1,0,0:0:0:0:
232,120,103510,1,8,0:0:0:0:
128,168,103700,1,2,0:0:0:0:
96,192,103795,1,0,0:0:0:0:
80,224,103890,6,0,B|72:272|80:320,1,95,10|2,0:0|0:0,0:0:0:0:
80,72,104269,1,8,0:0:0:0:
424,64,104459,2,0,B|432:120|400:112|408:192,1,95,2|10,0:0|0:0,0:0:0:0:
304,128,104838,2,0,B|312:184|280:176|288:256,1,95,2|10,0:0|0:0,0:0:0:0:
192,48,105219,1,2,0:0:0:0:
96,88,105409,6,0,B|40:128|96:168|96:168|64:272,1,190,10|2,0:0|0:0,0:0:0:0:
80,336,105978,2,0,B|120:312|160:336|160:336|192:360|240:336,1,142.5,2|0,0:0|0:0,0:0:0:0:
240,336,106357,1,0,0:0:0:0:
336,248,106547,1,0,0:0:0:0:
288,136,106738,1,2,0:0:0:0:
224,32,106928,6,0,B|280:32|320:39,1,95,10|2,0:0|0:0,0:0:0:0:
400,104,107307,2,0,B|440:136|440:187,1,95,10|2,0:0|0:0,0:0:0:0:
440,296,107687,2,0,B|424:344|352:368,1,95,10|2,0:0|0:0,0:0:0:0:
256,256,108067,1,10,0:0:0:0:
80,296,108257,5,8,0:0:0:0:
80,296,108352,1,0,0:0:0:0:
80,296,108447,2,0,B|86:202,1,95,12|8,0:0|0:0,0:0:0:0:
368,224,108826,2,0,B|280:256,1,95,4|8,0:0|0:0,0:0:0:0:
128,224,109206,1,0,0:0:0:0:
172,207,109300,1,0,0:0:0:0:
217,191,109395,1,0,0:0:0:0:
248,288,109585,6,0,L|280:232,1,47.5,0|0,0:0|0:0,0:0:0:0:
328,288,109775,2,0,L|360:240,1,47.5,0|0,0:0|0:0,0:0:0:0:
416,288,109966,2,0,B|472:200,1,95,10|8,0:0|0:0,0:0:0:0:
432,96,110345,2,4,B|400:-8|296:64|296:64,1,142.500005435944
288,160,110915,1,10,0:0:0:0:
160,136,111104,1,0,0:0:0:0:
256,56,111294,1,0,0:0:0:0:
368,184,111485,5,12,0:0:0:0:
396,146,111579,1,0,0:0:0:0:
416,103,111674,1,0,0:0:0:0:
352,48,111864,1,0,0:0:0:0:
256,56,112054,2,0,B|207:58|164:77,1,95,2|10,0:0|0:0,0:0:0:0:
112,16,112433,2,0,P|56:24|16:40,1,95,0|0,0:0|0:0,0:0:0:0:
48,168,112814,1,0,0:0:0:0:
112,288,113004,5,0,0:0:0:0:
153,263,113098,1,0,0:0:0:0:
192,236,113193,1,0,0:0:0:0:
229,206,113288,1,0,0:0:0:0:
263,173,113383,1,0,0:0:0:0:
424,232,113573,5,0,0:0:0:0:
426,184,113667,1,0,0:0:0:0:
420,137,113762,1,0,0:0:0:0:
320,88,113953,1,8,0:0:0:0:
296,192,114143,1,8,0:0:0:0:
176,184,114333,1,2,0:0:0:0:
160,64,114523,6,0,B|256:48,1,95,10|10,0:0|0:0,0:0:0:0:
368,112,114902,2,0,B|272:128,1,95,8|2,0:0|0:0,0:0:0:0:
224,200,115282,5,0,0:0:0:0:
270,211,115376,1,0,0:0:0:0:
316,223,115471,1,0,0:0:0:0:
136,200,115662,1,8,0:0:0:0:
312,280,115852,1,10,0:0:0:0:
216,336,116042,2,0,B|128:360|88:272,1,142.5,12|2,0:0|0:0,0:0:0:0:
95,286,116421,1,8,0:0:0:0:
48,208,116611,1,10,0:0:0:0:
72,120,116801,1,0,0:0:0:0:
72,40,116991,6,0,B|168:40,1,95,10|8,0:0|0:0,0:0:0:0:
248,40,117371,1,2,0:0:0:0:
248,40,117466,1,0,0:0:0:0:
248,40,117561,2,0,B|320:48|376:96,1,142.5,14|2,0:0|0:0,0:0:0:0:
440,136,117940,1,8,0:0:0:0:
440,40,118130,2,0,B|448:88|440:136,1,95,10|0,0:0|0:0,0:0:0:0:
408,216,118510,6,0,B|376:256|328:280,1,95,10|8,0:0|0:0,0:0:0:0:
240,256,118890,1,10,0:0:0:0:
224,344,119080,6,0,B|120:344,1,95,4|0,0:0|0:0,0:0:0:0:
56,296,119459,1,0,0:0:0:0:
59,248,119553,1,0,0:0:0:0:
68,202,119648,1,0,0:0:0:0:
83,156,119743,1,0,0:0:0:0:
105,115,119838,1,12,0:0:0:0:
137,79,119933,1,0,0:0:0:0:
177,55,120028,1,0,0:0:0:0:
224,45,120123,1,12,0:0:0:0:
271,48,120218,5,0,0:0:0:0:
317,59,120313,1,0,0:0:0:0:
361,76,120408,1,12,0:0:0:0:
404,98,120503,1,0,0:0:0:0:
444,122,120598,1,12,0:0:0:0:
440,296,120788,1,4,0:0:0:0:
240,176,120978,1,4,0:0:0:0:
288,128,121357,2,0,B|261:129|236:82|236:82|214:128|181:128,1,142.5,0|0,0:0|0:0,0:0:0:0:
184,264,121738,1,2,0:0:0:0:
352,312,121928,1,0,0:0:0:0:
392,320,122023,1,0,0:0:0:0:
432,328,122117,2,0,B|456:280|456:232,1,95,14|8,0:0|0:0,0:0:0:0:
424,64,122497,1,10,0:0:0:0:
400,208,122687,1,0,0:0:0:0:
360,216,122782,1,0,0:0:0:0:
320,224,122877,1,10,0:0:0:0:
144,120,123067,2,0,B|136:216,1,95,8|8,0:0|0:0,0:3:0:0:
288,88,123447,5,10,0:0:0:0:
328,80,123542,1,0,0:0:0:0:
368,72,123636,2,0,B|392:112|400:168,1,95,14|8,0:0|0:0,0:0:0:0:
288,320,124016,1,10,0:0:0:0:
151,272,124206,1,0,0:0:0:0:
127,248,124301,1,0,0:0:0:0:
104,224,124396,2,0,B|80:183|73:135,1,95,14|8,0:0|0:0,0:0:0:0:
168,40,124776,1,8,0:0:0:0:
400,40,124966,1,8,0:0:0:0:
400,152,125155,6,0,B|400:200|368:240,1,95,10|10,0:0|0:0,0:0:0:0:
64,184,125535,2,0,B|64:136|96:96,1,95,10|8,0:0|0:0,0:0:0:0:
320,112,125914,2,0,L|280:176,1,47.5,0|0,0:0|0:0,0:0:0:0:
240,88,126104,2,0,L|216:128,1,47.5,0|0,0:0|0:0,0:0:0:0:
160,64,126295,1,10,0:0:0:0:
224,216,126485,1,8,0:0:0:0:
176,328,126674,6,0,B|72:328,1,95,10|8,0:0|0:0,0:0:0:0:
8,264,127054,1,10,0:0:0:0:
88,208,127244,1,10,0:0:0:0:
88,160,127338,1,0,0:0:0:0:
88,112,127433,1,0,0:0:0:0:
88,40,127624,1,12,0:0:0:0:
88,304,127813,1,12,0:0:0:0:
88,40,128003,5,12,0:0:0:0:
240,40,128193,1,10,0:0:0:0:
368,48,128383,1,8,0:0:0:0:
408,56,128478,1,2,0:0:0:0:
448,64,128573,1,8,0:0:0:0:
232,152,128763,1,10,0:0:0:0:
448,184,128953,5,14,0:0:0:0:
416,200,129048,1,0,0:0:0:0:
384,216,129143,1,8,0:0:0:0:
352,232,129238,1,2,0:0:0:0:
320,248,129333,1,8,0:0:0:0:
232,64,129523,1,10,0:0:0:0:
96,312,129712,2,0,P|128:264|184:256,1,95,10|8,0:0|0:0,0:0:0:0:
320,288,130092,6,0,B|384:288|408:243,1,95,8|8,0:0|0:0,0:0:0:0:
248,200,130377,1,0,0:0:0:0:
280,232,130472,2,0,B|326:218|364:181,1,95,8|8,0:0|0:0,0:0:0:0:
208,144,130757,1,0,0:0:0:0:
240,184,130852,2,8,B|285:161|311:120,1,95
336,56,131231,6,0,B|240:16|240:64|128:32,1,190,12|8,0:0|0:0,0:0:0:0:
64,168,131801,1,8,0:0:0:0:
48,200,131896,1,0,0:0:0:0:
48,240,131991,2,0,B|96:320,1,95,10|8,0:0|0:0,0:0:0:0:
240,184,132371,1,10,0:0:0:0:
224,216,132466,1,0,0:0:0:0:
208,248,132561,1,8,0:0:0:0:
384,280,132750,6,12,B|488:280,1,95,14|8,0:0|0:0,0:0:0:0:
480,176,133130,1,12,0:0:0:0:
368,120,133319,2,0,L|392:168,1,47.5,12|0,0:0|0:0,0:0:0:0:
349,298,133509,2,0,L|328:256,1,47.5,12|0,0:0|0:0,0:0:0:0:
184,176,133699,2,0,L|208:224,1,47.5,12|0,0:0|0:0,0:0:0:0:
296,184,133889,2,0,L|272:136,1,47.5,12|0,0:0|0:0,0:0:0:0:
248,104,134079,2,0,L|215:61,1,47.5,0|0,0:0|0:0,0:0:0:0:
160,40,134269,5,4,0:0:0:0:
112,36,134363,1,0,0:0:0:0:
65,39,134458,1,0,0:0:0:0:
0,128,134649,1,10,0:0:0:0:
50,196,134839,1,0,0:0:0:0:
81,222,134934,1,0,0:0:0:0:
112,248,135029,2,0,B|143:284|185:309,1,95,8|8,0:0|0:0,0:0:0:0:
280,304,135409,1,8,0:0:0:0:
384,280,135598,5,2,0:0:0:0:
408,256,135693,1,0,0:0:0:0:
424,224,135788,2,0,B|416:176|384:136,1,95,10|8,0:0|0:0,0:0:0:0:
304,80,136168,1,10,0:0:0:0:
222,117,136358,1,0,0:0:0:0:
192,136,136453,1,0,0:0:0:0:
161,154,136548,2,0,B|165:200|196:240,1,95,10|8,0:0|0:0,0:0:0:0:
280,304,136927,6,0,L|336:280,1,47.5,0|0,0:0|0:0,0:0:0:0:
392,248,137117,2,0,L|408:192,1,47.5
416,128,137307,2,0,B|413:31|305:56,1,142.5,10|10,0:0|0:0,0:0:0:0:
280,72,137687,2,0,B|202:131,1,95,10|8,0:0|0:0,0:0:0:0:
264,208,138067,2,0,B|336:149,1,95,10|8,0:0|0:0,0:0:0:0:
336,56,138447,5,10,0:0:0:0:
176,88,138636,1,0,0:0:0:0:
176,88,138731,1,0,0:0:0:0:
176,88,138826,2,0,B|105:153,1,95,10|8,0:0|0:0,0:0:0:0:
432,128,139206,6,0,B|336:128,1,95,10|8,0:0|0:0,0:0:0:0:
320,96,139491,2,0,B|224:96,1,95,10|8,0:0|0:0,0:0:0:0:
200,64,139776,2,0,B|104:64,1,95,8|8,0:0|0:0,0:0:0:0:
80,136,140155,1,8,0:0:0:0:
88,208,140345,5,4,0:0:0:0:
120,242,140439,1,0,0:0:0:0:
152,277,140534,1,0,0:0:0:0:
191,303,140629,1,0,0:0:0:0:
224,320,140725,1,8,0:0:0:0:
272,128,140915,1,10,0:0:0:0:
333,317,141105,5,4,0:0:0:0:
376,298,141199,1,0,0:0:0:0:
416,272,141294,1,0,0:0:0:0:
450,239,141389,1,0,0:0:0:0:
469,205,141485,1,8,0:0:0:0:
272,128,141674,1,8,0:0:0:0:
464,96,141864,6,4,B|416:80|368:80,1,95,10|8,0:0|0:0,0:0:0:0:
176,96,142244,2,0,B|224:88|272:96,1,95,10|0,0:0|0:0,0:0:0:0:
296,128,142529,1,0,0:0:0:0:
320,160,142624,2,0,B|368:168|416:160,1,95,8|0,0:0|0:0,0:0:0:0:
432,232,143004,5,8,0:0:0:0:
392,240,143098,1,0,0:0:0:0:
352,248,143193,1,8,0:0:0:0:
312,256,143288,1,0,0:0:0:0:
272,264,143383,2,4,B|176:264,1,95,8|8,0:0|0:0,0:0:0:0:
176,96,143763,5,8,0:0:0:0:
277,75,143953,1,0,0:0:0:0:
312,96,144048,1,8,0:0:0:0:
346,116,144143,1,8,0:0:0:0:
360,208,144333,5,0,0:0:0:0:
321,235,144427,1,0,0:0:0:0:
287,264,144522,1,0,0:0:0:0:
232,128,144712,5,0,0:0:0:0:
264,144,144807,1,0,0:0:0:0:
296,160,144902,2,0,B|344:152|392:160,1,95,12|8,0:0|0:0,0:0:0:0:
432,224,145282,1,12,0:0:0:0:
408,144,145471,6,0,L|384:96,1,47.5,12|0,0:0|0:0,0:0:0:0:
320,104,145661,2,0,L|296:168,1,47.5,12|0,0:0|0:0,0:0:0:0:
240,144,145851,2,0,L|216:88|216:88,1,47.5,12|0,0:0|0:0,0:0:0:0:
160,104,146041,2,0,B|136:160|136:160,1,47.5,12|0,0:0|0:0,0:0:0:0:
112,232,146231,1,12,0:0:0:0:
128,264,146325,1,0,0:0:0:0:
160,288,146420,1,4,0:0:0:0:
256,192,146516,12,0,148699,0:0:0:0:
