osu file format v13

[General]
AudioFilename: BRIGHT STREAM 192.mp3
AudioLeadIn: 0
PreviewTime: 41971
Countdown: 0
SampleSet: Soft
StackLeniency: 0.7
Mode: 0
LetterboxInBreaks: 1
WidescreenStoryboard: 1

[Editor]
Bookmarks: 5345,8098,13510,21421,30294,35990,44534,47762,57541,63332,69027,76623,78711,85546,91927,99027,103699,110040,119059,121337,126844,133299,140325
DistanceSpacing: 1.4
BeatDivisor: 4
GridSize: 8
TimelineZoom: 2.6

[Metadata]
Title:Bright Stream
TitleUnicode:Bright Stream
Artist:Mizuki Nana
ArtistUnicode:Mizuki Nana
Creator:Peur du noir
Version:Hard
Source:Magical Girl Lyrical Nanoha The Movie 2nd
Tags:Magical Girl Lyrical Nanoha The Movie 2nd Mahou Shoujo
BeatmapID:609699
BeatmapSetID:266581

[Difficulty]
HPDrainRate:4
CircleSize:3.3
OverallDifficulty:6
ApproachRate:7.6
SliderMultiplier:0.9
SliderTickRate:1

[Events]
//Background and Video events
0,0,"aba96527.jpg",0,0
//Break Periods
2,73709,78775
//Storyboard Layer 0 (Background)
//Storyboard Layer 1 (Fail)
//Storyboard Layer 2 (Pass)
//Storyboard Layer 3 (Foreground)
//Storyboard Sound Samples

[TimingPoints]
-920,379.746835443038,4,2,0,66,1,0
13890,-66.6666666666667,4,2,0,66,0,0
49206,379.746835443038,4,2,0,66,1,0
49206,-100,4,2,0,66,0,1
51484,-66.6666666666667,4,2,0,66,0,1
70566,-100,4,2,0,5,0,1
73509,-100,4,2,0,66,0,0
76168,-100,4,2,0,66,0,0
80724,-66.6666666666667,4,2,0,66,0,0
121737,-66.6666666666667,4,2,0,66,0,0
122117,-100,4,2,0,66,0,1
122687,-66.6666666666667,4,2,0,66,0,1
146421,-100,4,2,0,66,0,1
146611,-100,4,2,0,66,0,0

[HitObjects]
392,288,12750,5,0,0:0:0:0:
352,192,12940,1,0,0:0:0:0:
296,96,13130,1,0,0:0:0:0:
184,96,13320,1,0,0:0:0:0:
112,192,13510,1,0,0:0:0:0:
80,288,13700,1,0,0:0:0:0:
176,328,13890,2,0,P|196:255|264:224,1,135.000005149842
392,104,14649,1,0,0:0:0:0:
144,120,15029,1,0,0:0:0:0:
152,216,15219,1,0,0:0:0:0:
232,160,15409,2,0,P|234:249|200:288,1,135.000005149842
48,128,16168,5,0,0:0:0:0:
200,56,16548,1,0,0:0:0:0:
360,112,16928,1,0,0:0:0:0:
224,248,17307,1,0,0:0:0:0:
288,176,17687,1,0,0:0:0:0:
224,248,18067,1,0,0:0:0:0:
112,168,18257,1,0,0:0:0:0:
112,168,18352,1,0,0:0:0:0:
112,168,18447,1,0,0:0:0:0:
80,72,18636,2,0,L|168:40,1,67.5000025749208
264,48,19206,5,0,0:0:0:0:
392,80,19586,1,0,0:0:0:0:
424,176,19966,2,0,P|416:248|352:280,1,135.000005149842
248,272,20725,2,0,P|207:237|224:152,1,135.000005149842
184,64,21485,1,0,0:0:0:0:
112,184,21864,1,0,0:0:0:0:
256,192,22244,12,0,24143,0:0:0:0:
256,192,24523,5,0,0:0:0:0:
256,192,24617,1,0,0:0:0:0:
256,192,24712,1,0,0:0:0:0:
240,104,24902,1,0,0:0:0:0:
144,96,25092,1,0,0:0:0:0:
80,160,25282,1,0,0:0:0:0:
64,256,25472,1,0,0:0:0:0:
160,288,25662,2,0,P|227:254|240:192,1,135.000005149842
360,128,26421,5,0,0:0:0:0:
392,48,26611,1,0,0:0:0:0:
448,104,26801,1,0,0:0:0:0:
424,200,26991,1,0,0:0:0:0:
368,280,27181,1,0,0:0:0:0:
224,144,27561,1,0,0:0:0:0:
416,96,27940,6,0,P|384:48|304:48,1,135.000005149842
304,232,28700,2,0,P|275:277|192:280,1,135.000005149842
304,80,29459,1,0,0:0:0:0:
232,64,29649,1,0,0:0:0:0:
160,88,29839,1,0,0:0:0:0:
104,144,30029,1,0,0:0:0:0:
88,224,30219,1,0,0:0:0:0:
128,304,30409,5,0,0:0:0:0:
128,304,30504,1,0,0:0:0:0:
128,304,30599,1,0,0:0:0:0:
376,112,30978,1,0,0:0:0:0:
240,184,31358,1,0,0:0:0:0:
168,160,31548,1,0,0:0:0:0:
112,104,31738,1,0,0:0:0:0:
72,256,32117,1,0,0:0:0:0:
240,184,32497,5,0,0:0:0:0:
336,64,32877,1,0,0:0:0:0:
400,112,33067,1,0,0:0:0:0:
432,192,33257,1,0,0:0:0:0:
352,304,33636,1,0,0:0:0:0:
216,296,34016,6,0,P|144:280|168:256,1,135.000005149842
216,192,34586,1,0,0:0:0:0:
176,120,34776,2,0,P|176:56|232:96,1,135.000005149842
248,192,35345,1,0,0:0:0:0:
328,216,35535,2,0,P|352:280|304:264,1,135.000005149842
96,184,36295,1,0,0:0:0:0:
88,88,36485,1,0,0:0:0:0:
176,56,36674,1,0,0:0:0:0:
264,104,36864,1,0,0:0:0:0:
360,192,37054,5,0,0:0:0:0:
368,96,37434,1,0,0:0:0:0:
264,168,37814,1,0,0:0:0:0:
240,280,38193,1,0,0:0:0:0:
144,256,38573,1,0,0:0:0:0:
80,176,38763,1,0,0:0:0:0:
184,160,38953,1,0,0:0:0:0:
120,72,39143,1,0,0:0:0:0:
120,72,39238,1,0,0:0:0:0:
120,72,39333,1,0,0:0:0:0:
240,64,39712,1,0,0:0:0:0:
376,128,40092,5,0,0:0:0:0:
360,200,40282,2,0,P|344:248|312:248,1,75
256,256,40662,1,0,0:0:0:0:
198,300,40852,2,0,P|144:296|135:273,1,75
96,232,41231,1,0,0:0:0:0:
88,152,41421,1,0,0:0:0:0:
112,80,41611,1,0,0:0:0:0:
184,56,41801,1,0,0:0:0:0:
248,96,41991,1,0,0:0:0:0:
384,32,42371,6,0,P|424:88|400:128,1,101.250003862381
408,117,42750,1,0,0:0:0:0:
320,160,42940,1,0,0:0:0:0:
336,256,43130,2,0,P|288:280|272:280,1,67.5000025749208
240,264,43415,1,0,0:0:0:0:
216,304,43510,2,0,P|163:313|136:304,1,67.5000025749208
96,280,43890,1,0,0:0:0:0:
192,160,44269,1,0,0:0:0:0:
128,32,44649,6,0,P|80:88|120:136,1,135.000005149842
176,256,45408,2,0,P|224:280|256:280,1,67.5000025749208
296,304,45788,2,0,P|348:313|376:304,1,67.5000025749208
416,280,46168,1,0,0:0:0:0:
256,192,46358,12,0,48067,0:0:0:0:
176,72,48447,5,0,0:0:0:0:
328,72,48826,2,0,L|328:192,1,101.250003862381
360,216,49206,1,0,0:0:0:0:
304,288,49395,1,0,0:0:0:0:
216,256,49585,1,0,0:0:0:0:
188,260,49679,1,0,0:0:0:0:
161,255,49774,1,0,0:0:0:0:
137,243,49869,1,0,0:0:0:0:
117,224,49964,1,0,0:0:0:0:
112,112,50155,1,0,0:0:0:0:
264,128,50345,1,0,0:0:0:0:
320,264,50535,1,0,0:0:0:0:
144,240,50724,5,0,0:0:0:0:
232,288,50914,1,0,0:0:0:0:
224,192,51104,1,0,0:0:0:0:
144,240,51294,1,0,0:0:0:0:
88,152,51484,2,0,P|64:88|128:72,1,135.000005149842
320,48,52243,6,0,L|384:96,1,67.5000025749208
456,120,52623,2,0,L|416:192,1,67.5000025749208
360,240,53003,1,0,0:0:0:0:
440,304,53193,1,0,0:0:0:0:
352,264,53383,1,0,0:0:0:0:
376,168,53573,1,0,0:0:0:0:
440,96,53762,2,0,P|384:48|312:56,1,135.000005149842
352,160,54332,1,0,0:0:0:0:
328,48,54522,2,0,P|254:53|209:110,1,135.000005149842
120,288,55281,6,0,L|80:184,1,101.250003862381
64,128,55661,1,0,0:0:0:0:
144,48,55851,1,0,0:0:0:0:
240,48,56041,2,0,P|304:88|304:120,1,101.250003862381
288,152,56421,1,0,0:0:0:0:
208,176,56611,1,0,0:0:0:0:
32,256,56800,2,0,P|32:320|104:304,1,135.000005149842
128,176,57370,1,0,0:0:0:0:
192,80,57560,2,0,P|256:96|272:168,1,135.000005149842
144,280,58319,5,0,0:0:0:0:
344,280,58699,1,0,0:0:0:0:
344,80,59079,1,0,0:0:0:0:
324,60,59173,1,0,0:0:0:0:
300,47,59268,1,0,0:0:0:0:
274,39,59363,1,0,0:0:0:0:
246,38,59458,1,0,0:0:0:0:
219,42,59553,1,0,0:0:0:0:
193,52,59648,1,0,0:0:0:0:
170,67,59743,1,0,0:0:0:0:
150,85,59838,1,0,0:0:0:0:
104,280,60218,1,0,0:0:0:0:
144,192,60408,1,0,0:0:0:0:
208,272,60598,2,0,P|272:256|304:192,1,135.000005149842
304,104,61168,5,0,0:0:0:0:
192,104,61357,1,0,0:0:0:0:
256,192,61547,1,0,0:0:0:0:
248,32,61737,1,0,0:0:0:0:
144,184,61927,1,0,0:0:0:0:
344,192,62117,1,0,0:0:0:0:
256,128,62307,1,0,0:0:0:0:
256,128,62402,1,0,0:0:0:0:
256,128,62497,1,0,0:0:0:0:
344,192,62687,5,0,0:0:0:0:
144,184,62876,1,0,0:0:0:0:
248,32,63067,1,0,0:0:0:0:
256,192,63257,1,0,0:0:0:0:
192,104,63447,1,0,0:0:0:0:
320,96,63636,2,0,B|392:136|376:160|376:160|336:216,1,135.000005149842
208,152,64395,5,0,0:0:0:0:
312,264,64585,1,0,0:0:0:0:
392,136,64775,1,0,0:0:0:0:
272,48,64965,1,0,0:0:0:0:
184,168,65155,2,0,L|128:232|128:232,2,67.5000025749208,0|0|0,0:0|0:0|0:0,0:0:0:0:
272,48,65724,5,0,0:0:0:0:
392,136,65914,1,0,0:0:0:0:
373,190,66008,1,0,0:0:0:0:
328,228,66103,1,0,0:0:0:0:
280,256,66199,1,0,0:0:0:0:
224,272,66294,1,0,0:0:0:0:
88,208,66484,1,0,0:0:0:0:
96,56,66674,2,0,P|160:24|232:56,1,135.000005149842
400,296,67433,5,0,0:0:0:0:
304,176,67623,1,0,0:0:0:0:
216,296,67813,1,0,0:0:0:0:
120,176,68003,1,0,0:0:0:0:
208,56,68193,1,0,0:0:0:0:
304,176,68383,1,0,0:0:0:0:
216,296,68573,1,0,0:0:0:0:
120,176,68762,1,0,0:0:0:0:
64,312,68952,1,0,0:0:0:0:
64,312,69047,1,0,0:0:0:0:
64,312,69142,1,0,0:0:0:0:
256,192,69332,12,0,70471,0:0:0:0:
256,192,70566,12,0,73509,0:0:0:0:
256,152,79585,5,0,0:0:0:0:
336,112,79775,1,0,0:0:0:0:
328,200,79965,1,0,0:0:0:0:
256,152,80155,1,0,0:0:0:0:
256,152,80250,1,0,0:0:0:0:
256,152,80345,1,0,0:0:0:0:
184,96,80535,1,0,0:0:0:0:
211,204,80724,2,0,P|140:208|136:208,1,67.5
104,144,81104,2,0,P|160:80|224:72,1,135.000005149842
232,160,81674,1,0,0:0:0:0:
232,160,81769,1,0,0:0:0:0:
232,160,81864,6,0,L|392:160,1,135.000005149842
256,192,82433,12,0,84142,0:0:0:0:
256,192,84237,12,0,85661,0:0:0:0:
112,184,86041,5,0,0:0:0:0:
232,48,86421,1,0,0:0:0:0:
352,184,86800,1,0,0:0:0:0:
240,328,87180,2,0,P|152:296|168:264,1,135.000005149842
256,112,87940,2,0,P|344:144|328:176,1,135.000005149842
248,192,88509,1,0,0:0:0:0:
248,192,88604,1,0,0:0:0:0:
248,192,88699,6,0,P|144:192|144:176,1,135.000005149842
144,96,89269,1,0,0:0:0:0:
248,192,89459,1,0,0:0:0:0:
144,96,89649,1,0,0:0:0:0:
248,192,89838,2,0,L|304:256,1,67.5000025749208
368,184,90218,1,0,0:0:0:0:
328,104,90408,1,0,0:0:0:0:
248,64,90598,1,0,0:0:0:0:
168,104,90788,1,0,0:0:0:0:
168,104,90883,1,0,0:0:0:0:
168,104,90978,1,0,0:0:0:0:
136,184,91168,6,0,B|184:264|272:264|320:184,1,202.500007724762
368,112,91927,1,0,0:0:0:0:
368,112,92022,1,0,0:0:0:0:
368,112,92117,1,0,0:0:0:0:
304,176,92307,1,0,0:0:0:0:
240,112,92497,1,0,0:0:0:0:
240,112,92592,1,0,0:0:0:0:
240,112,92687,1,0,0:0:0:0:
176,176,92876,1,0,0:0:0:0:
224,248,93066,1,0,0:0:0:0:
224,248,93161,1,0,0:0:0:0:
224,248,93256,6,0,P|304:256|344:200,1,135.000005149842
240,112,93826,1,0,0:0:0:0:
224,248,94016,2,0,P|304:256|344:200,1,135.000005149842,0|0,0:0|0:0,0:0:0:0:
224,72,94775,6,0,P|144:64|112:128,1,135.000005149842
256,192,95345,12,0,97433,0:0:0:0:
160,104,97813,5,0,0:0:0:0:
88,48,98003,1,0,0:0:0:0:
48,128,98193,1,0,0:0:0:0:
96,200,98383,1,0,0:0:0:0:
160,264,98573,1,0,0:0:0:0:
224,200,98762,1,0,0:0:0:0:
224,200,98857,1,0,0:0:0:0:
224,200,98952,6,0,P|288:136|344:88,1,135.000005149842
400,40,99522,1,0,0:0:0:0:
416,128,99712,1,0,0:0:0:0:
360,200,99902,1,0,0:0:0:0:
296,256,100092,1,0,0:0:0:0:
224,312,100281,1,0,0:0:0:0:
224,312,100376,1,0,0:0:0:0:
224,312,100471,2,0,L|144:264|144:264,2,67.5000025749208,0|0|0,0:0|0:0|0:0,0:0:0:0:
224,128,101231,1,0,0:0:0:0:
144,288,101611,5,0,0:0:0:0:
208,224,101800,1,0,0:0:0:0:
256,296,101990,1,0,0:0:0:0:
344,296,102180,1,0,0:0:0:0:
344,296,102275,1,0,0:0:0:0:
344,296,102370,2,0,L|344:208,1,67.5000025749208
328,136,102750,2,0,L|280:88,1,67.5000025749208
192,56,103130,2,0,L|128:112,1,67.5000025749208
152,192,103509,1,0,0:0:0:0:
328,136,103889,5,0,0:0:0:0:
400,232,104079,1,0,0:0:0:0:
368,264,104174,1,0,0:0:0:0:
328,288,104269,1,0,0:0:0:0:
208,296,104459,1,0,0:0:0:0:
88,272,104649,2,0,P|48:184|88:144,1,135.000005149842
152,64,105218,2,0,L|232:80,1,67.5000025749208
344,88,105598,1,0,0:0:0:0:
344,88,105693,1,0,0:0:0:0:
344,88,105788,6,0,L|344:168,1,67.5000025749208,0|0,0:0|0:0,0:0:0:0:
296,272,106168,1,0,0:0:0:0:
216,184,106357,1,0,0:0:0:0:
136,272,106547,1,0,0:0:0:0:
64,176,106737,2,0,P|88:120|96:120,1,67.5000025749208
200,64,107117,2,0,P|259:49|272:64,1,67.5000025749208
344,136,107497,1,0,0:0:0:0:
432,216,107687,1,0,0:0:0:0:
352,304,107876,1,0,0:0:0:0:
240,256,108066,1,0,0:0:0:0:
240,256,108161,1,0,0:0:0:0:
240,256,108256,6,0,L|160:216,1,67.5000025749208
240,48,108636,1,0,0:0:0:0:
392,128,108826,1,0,0:0:0:0:
312,328,109016,1,0,0:0:0:0:
72,256,109206,1,0,0:0:0:0:
61,220,109300,1,0,0:0:0:0:
57,182,109395,1,0,0:0:0:0:
62,145,109490,1,0,0:0:0:0:
75,110,109585,1,0,0:0:0:0:
95,79,109680,1,0,0:0:0:0:
122,52,109775,1,0,0:0:0:0:
152,32,109870,1,0,0:0:0:0:
192,24,109965,6,0,L|288:24|344:24,1,135.000005149842
400,128,110535,1,0,0:0:0:0:
336,232,110724,1,0,0:0:0:0:
272,136,110914,1,0,0:0:0:0:
208,240,111104,1,0,0:0:0:0:
208,240,111199,1,0,0:0:0:0:
208,240,111294,2,0,L|128:192,1,67.5000025749208
40,136,111674,1,0,0:0:0:0:
208,240,111864,1,0,0:0:0:0:
40,136,112054,1,0,0:0:0:0:
48,256,112243,2,0,B|104:240|168:296|176:200,1,135.000005149842,0|0,0:0|0:0,0:0:0:0:
224,104,112813,1,0,0:0:0:0:
328,168,113003,1,0,0:0:0:0:
328,168,113098,1,0,0:0:0:0:
328,168,113193,6,0,L|280:240,1,67.5000025749208
216,328,113573,1,0,0:0:0:0:
112,272,113762,1,0,0:0:0:0:
48,168,113952,1,0,0:0:0:0:
128,80,114142,1,0,0:0:0:0:
128,80,114237,1,0,0:0:0:0:
128,80,114332,2,0,L|224:64,1,67.5000025749208
320,88,114712,1,0,0:0:0:0:
432,240,114902,1,0,0:0:0:0:
320,88,115092,1,0,0:0:0:0:
432,240,115281,1,0,0:0:0:0:
272,200,115471,1,0,0:0:0:0:
272,200,115566,1,0,0:0:0:0:
272,200,115661,6,0,L|224:264,1,67.5000025749208
136,320,116041,1,0,0:0:0:0:
136,320,116136,1,0,0:0:0:0:
136,320,116231,1,0,0:0:0:0:
40,248,116421,1,0,0:0:0:0:
144,184,116611,1,0,0:0:0:0:
144,184,116706,1,0,0:0:0:0:
144,184,116800,2,0,L|232:136,1,67.5000025749208
280,256,117180,1,0,0:0:0:0:
208,152,117370,1,0,0:0:0:0:
320,120,117560,1,0,0:0:0:0:
320,120,117655,1,0,0:0:0:0:
320,120,117750,6,0,L|368:192,1,67.5000025749208
320,288,118130,1,0,0:0:0:0:
96,280,118319,1,0,0:0:0:0:
112,96,118509,1,0,0:0:0:0:
264,40,118699,1,0,0:0:0:0:
432,192,118889,1,0,0:0:0:0:
256,192,119079,12,0,120978,0:0:0:0:
368,128,121357,5,0,0:0:0:0:
368,224,121547,1,0,0:0:0:0:
368,128,121737,2,0,P|288:80|224:72,1,135.000005149842
88,104,122307,1,0,0:0:0:0:
152,240,122497,1,0,0:0:0:0:
296,192,122687,2,0,L|360:128|360:128,1,67.5000025749207
408,264,123066,1,0,0:0:0:0:
408,264,123161,1,0,0:0:0:0:
408,264,123256,1,0,0:0:0:0:
280,296,123446,1,0,0:0:0:0:
152,256,123636,2,0,P|88:208|88:152,1,135.000005149841
192,72,124206,1,0,0:0:0:0:
280,176,124395,1,0,0:0:0:0:
280,176,124490,1,0,0:0:0:0:
280,176,124585,6,0,L|224:240,1,67.5000025749207
120,152,124965,1,0,0:0:0:0:
232,72,125155,1,0,0:0:0:0:
264,200,125345,1,0,0:0:0:0:
120,152,125535,1,0,0:0:0:0:
232,72,125724,1,0,0:0:0:0:
264,200,125914,1,0,0:0:0:0:
264,200,126009,1,0,0:0:0:0:
264,200,126104,1,0,0:0:0:0:
360,296,126294,1,0,0:0:0:0:
400,168,126484,1,0,0:0:0:0:
304,72,126674,1,0,0:0:0:0:
304,72,126769,1,0,0:0:0:0:
304,72,126864,2,0,B|208:80|216:80,1,67.5000025749207
120,144,127243,1,0,0:0:0:0:
56,264,127433,2,0,P|136:304|184:272,1,135.000005149841
336,72,128193,5,0,0:0:0:0:
344,208,128383,1,0,0:0:0:0:
344,208,128478,1,0,0:0:0:0:
344,208,128573,1,0,0:0:0:0:
240,296,128762,1,0,0:0:0:0:
120,232,128952,2,0,L|64:176,2,67.5000025749207
240,296,129522,1,0,0:0:0:0:
344,208,129712,6,0,P|352:128|320:88,1,135.000005149841
48,64,130471,2,0,P|24:144|40:208,1,135.000005149841
256,192,131041,12,0,132750,0:0:0:0:
384,112,133130,5,0,0:0:0:0:
432,208,133319,1,0,0:0:0:0:
360,328,133509,1,0,0:0:0:0:
326,334,133603,1,0,0:0:0:0:
293,336,133698,1,0,0:0:0:0:
259,334,133793,1,0,0:0:0:0:
226,326,133888,1,0,0:0:0:0:
195,314,133983,1,0,0:0:0:0:
166,297,134078,1,0,0:0:0:0:
139,277,134173,1,0,0:0:0:0:
115,252,134268,1,0,0:0:0:0:
80,120,134459,1,0,0:0:0:0:
192,48,134649,1,0,0:0:0:0:
320,96,134838,1,0,0:0:0:0:
320,96,134933,1,0,0:0:0:0:
320,96,135028,6,0,L|376:160,1,67.5000025749207
384,280,135408,1,0,0:0:0:0:
248,296,135598,1,0,0:0:0:0:
112,272,135788,1,0,0:0:0:0:
112,272,135883,1,0,0:0:0:0:
112,272,135978,2,0,L|64:192,1,67.5000025749207
128,88,136357,1,0,0:0:0:0:
304,40,136547,1,0,0:0:0:0:
408,176,136737,1,0,0:0:0:0:
336,288,136927,1,0,0:0:0:0:
304,40,137117,1,0,0:0:0:0:
168,56,137307,6,0,L|128:120,1,67.5000025749207
112,232,137687,2,0,L|200:200,1,67.5000025749207
304,192,138066,2,0,L|272:264,1,67.5000025749207
168,336,138446,1,0,0:0:0:0:
40,288,138636,1,0,0:0:0:0:
64,152,138826,1,0,0:0:0:0:
96,120,138921,1,0,0:0:0:0:
144,96,139016,1,0,0:0:0:0:
280,80,139206,1,0,0:0:0:0:
376,168,139395,5,0,0:0:0:0:
296,272,139585,1,0,0:0:0:0:
296,272,139680,1,0,0:0:0:0:
296,272,139775,1,0,0:0:0:0:
296,272,139870,1,0,0:0:0:0:
296,272,139965,1,0,0:0:0:0:
184,192,140155,1,0,0:0:0:0:
336,312,140345,5,0,0:0:0:0:
416,208,140535,1,0,0:0:0:0:
328,80,140724,1,0,0:0:0:0:
256,192,140914,1,0,0:0:0:0:
176,312,141104,5,0,0:0:0:0:
96,208,141294,1,0,0:0:0:0:
184,80,141483,1,0,0:0:0:0:
256,192,141674,1,0,0:0:0:0:
256,80,141864,1,0,0:0:0:0:
176,312,142243,1,0,0:0:0:0:
336,312,142623,1,0,0:0:0:0:
256,192,143003,1,0,0:0:0:0:
256,192,143193,12,0,144902,0:0:0:0:
224,264,145281,5,0,0:0:0:0:
144,208,145471,1,0,0:0:0:0:
184,120,145661,1,0,0:0:0:0:
272,96,145851,1,0,0:0:0:0:
328,168,146041,1,0,0:0:0:0:
312,264,146231,1,0,0:0:0:0:
312,264,146326,1,0,0:0:0:0:
312,264,146421,2,0,L|280:224,1,45
