osu file format v13

[General]
AudioFilename: BRIGHT STREAM 192.mp3
AudioLeadIn: 0
PreviewTime: 41971
Countdown: 0
SampleSet: None
StackLeniency: 0.7
Mode: 0
LetterboxInBreaks: 1
WidescreenStoryboard: 1

[Editor]
Bookmarks: 5345,8098,13510,21421,30294,35990,44534,47762,57541,63332,69027,76623,78711,85546,91927,99027,103699,110040,119059,121337,126844,133299,140325
DistanceSpacing: 1.2
BeatDivisor: 4
GridSize: 8
TimelineZoom: 2.6

[Metadata]
Title:Bright Stream
TitleUnicode:Bright Stream
Artist:Mizuki Nana
ArtistUnicode:Mizuki Nana
Creator:Peur du noir
Version:Easy
Source:Magical Girl Lyrical Nanoha The Movie 2nd
Tags:Magical Girl Lyrical Nanoha The Movie 2nd Mahou Shoujo
BeatmapID:617199
BeatmapSetID:266581

[Difficulty]
HPDrainRate:1
CircleSize:2
OverallDifficulty:1
ApproachRate:2
SliderMultiplier:0.7
SliderTickRate:1

[Events]
//Background and Video events
0,0,"aba96527.jpg",0,0
//Break Periods
2,73709,84101
//Storyboard Layer 0 (Background)
//Storyboard Layer 1 (Fail)
//Storyboard Layer 2 (Pass)
//Storyboard Layer 3 (Foreground)
//Storyboard Sound Samples

[TimingPoints]
-920,379.746835443038,4,2,0,66,1,0
49206,379.746835443038,4,2,0,66,1,0
49206,-100,4,2,0,66,0,1
73509,-100,4,2,0,66,0,0
76168,-100,4,2,0,66,0,0
122117,-100,4,2,0,66,0,1
146421,-100,4,2,0,66,0,0

[HitObjects]
88,56,12750,6,0,L|304:56,1,210,0|0,0:0|0:0,0:0:0:0:
360,144,14649,2,0,L|208:144,1,140
296,240,16168,2,0,P|320:200|280:120,1,140
168,120,17687,2,0,P|130:175|155:238,1,140
272,240,19206,1,0,0:0:0:0:
272,152,19966,1,0,0:0:0:0:
184,168,20725,1,0,0:0:0:0:
168,264,21485,1,0,0:0:0:0:
256,192,21864,12,0,24522,0:0:0:0:
320,72,25282,6,0,P|256:48|184:72,1,140
136,136,26801,6,0,P|107:198|126:271,1,140
240,256,28320,1,0,0:0:0:0:
328,216,29080,1,0,0:0:0:0:
304,128,29839,2,0,P|250:84|207:137,1,140
208,208,31358,1,0,0:0:0:0:
312,232,32117,1,0,0:0:0:0:
344,136,32877,1,0,0:0:0:0:
256,192,33636,12,0,37054,0:0:0:0:
128,104,37814,5,0,0:0:0:0:
136,200,38573,2,0,L|288:200,1,140
344,296,40092,1,0,0:0:0:0:
240,296,40851,1,0,0:0:0:0:
152,240,41611,1,0,0:0:0:0:
192,120,42750,6,0,P|144:184|152:248,1,140
256,256,44269,2,0,P|304:192|296:128,1,140
256,192,45788,12,0,48067,0:0:0:0:
144,56,49206,6,0,L|296:56,1,140
400,96,50724,2,0,L|296:208,1,140
256,280,52243,1,0,0:0:0:0:
168,224,53003,1,0,0:0:0:0:
96,128,53762,2,0,L|160:80,1,70,0|0,0:0|0:0,0:0:0:0:
248,56,54522,2,0,L|312:88,1,70
392,144,55281,5,0,0:0:0:0:
304,200,56041,1,0,0:0:0:0:
216,160,56800,1,0,0:0:0:0:
256,192,57180,12,0,59459,0:0:0:0:
128,176,60218,5,0,0:0:0:0:
80,80,60978,2,0,L|152:80,1,70
232,88,61737,6,0,L|296:136,1,70
368,200,62876,2,0,L|336:272,1,70
272,304,63636,1,0,0:0:0:0:
160,296,64395,2,0,L|24:224,1,140
40,144,65914,2,0,L|176:80,1,140
256,56,67433,5,0,0:0:0:0:
256,168,68193,1,0,0:0:0:0:
256,272,68952,1,0,0:0:0:0:
256,192,69332,12,0,73509,0:0:0:0:
112,80,85661,5,0,0:0:0:0:
192,120,86421,1,0,0:0:0:0:
272,72,87180,2,0,P|328:120|288:168,1,140
248,232,88699,2,0,P|200:280|152:232,1,140
144,160,90218,2,0,L|280:88,1,140
256,192,91547,12,0,93256,0:0:0:0:
136,232,94016,6,0,P|136:152|184:104,1,140
256,192,95155,12,0,97813,0:0:0:0:
304,260,98573,6,0,P|254:300|208:256,1,140
248,184,100091,5,0,0:0:0:0:
304,120,100851,1,0,0:0:0:0:
384,120,101611,2,0,P|400:187|371:250,1,140
320,312,103130,2,0,P|254:332|190:308,1,140
152,232,104649,1,0,0:0:0:0:
216,160,105408,1,0,0:0:0:0:
296,192,106168,1,0,0:0:0:0:
256,192,106547,12,0,109965,0:0:0:0:
374,106,111104,6,0,P|314:73|247:88,1,140
232,192,112623,2,0,P|292:225|359:210,1,140
304,112,114142,1,0,0:0:0:0:
216,80,114902,1,0,0:0:0:0:
168,160,115661,1,0,0:0:0:0:
256,200,116800,6,0,L|322:77,1,140
400,104,118319,1,0,0:0:0:0:
256,192,118699,12,0,120978,0:0:0:0:
216,64,122117,5,0,0:0:0:0:
312,72,122876,2,0,P|344:112|304:192,1,140
240,216,124395,1,0,0:0:0:0:
120,208,125155,6,0,P|80:176|80:144,1,70
120,96,125914,1,0,0:0:0:0:
240,112,126673,1,0,0:0:0:0:
304,160,127054,2,0,P|291:192|261:207,1,70
176,192,128192,2,0,L|176:48,1,140,0|0,0:0|0:0,0:0:0:0:
256,64,129711,2,0,L|256:204,1,140,0|0,0:0|0:0,0:0:0:0:
256,296,131230,1,0,0:0:0:0:
256,192,131610,12,0,134268,0:0:0:0:
264,160,135028,5,0,0:0:0:0:
256,80,135787,2,0,L|104:80,1,140
112,160,137306,1,0,0:0:0:0:
128,240,138066,1,0,0:0:0:0:
208,248,138825,2,0,L|352:248,1,140
424,208,140344,2,0,L|424:64,1,140
344,40,141863,2,0,L|216:120,1,140
256,192,143382,12,0,146421,0:0:0:0:
