osu file format v9

[General]
AudioFilename: Aoi Iro.mp3
AudioLeadIn: 0
PreviewTime: 59189
Countdown: 1
SampleSet: Normal
StackLeniency: 0.8
Mode: 0
LetterboxInBreaks: 1

[Editor]
DistanceSpacing: 0.8
BeatDivisor: 4
GridSize: 8

[Metadata]
Title:Aoi Iro
Artist:Mizuki Nana
Creator:minyeob
Version:Normal
Source:
Tags:

[Difficulty]
HPDrainRate:4
CircleSize:4
OverallDifficulty:5
ApproachRate:6
SliderMultiplier:1.2
SliderTickRate:0.5

[Events]
//Background and Video events
0,0,"Nana.png"
//Break Periods
2,85506,106845
//Storyboard Layer 0 (Background)
//Storyboard Layer 1 (Fail)
//Storyboard Layer 2 (Pass)
//Storyboard Layer 3 (Foreground)
//Storyboard Sound Samples
//Background Colour Transformations
3,100,163,162,255

[TimingPoints]
11895,352.941176470588,4,1,0,80,1,0

[Colours]
Combo1 : 255,0,255
Combo2 : 0,255,255
Combo3 : 255,255,255
Combo4 : 0,255,0

[HitObjects]
104,160,11894,1,4
102,64,12247,2,0,B|240:64,1,120
292,129,12953,2,0,B|294:190|348:244,2,120
363,64,14012,1,0
458,65,14365,1,0
409,148,14718,5,0
409,244,15071,2,0,B|409:314,1,60
360,303,15424,2,0,B|300:266|222:312,1,120
244,356,15953,1,0
147,355,16306,1,0
147,306,16483,2,0,B|147:237,1,60
98,244,16836,2,0,B|60:180|104:112,1,120
190,131,17542,5,0
190,131,17894,2,0,B|331:131,2,120
233,45,18953,1,0
233,45,19306,2,0,B|105:45,2,120
256,192,20365,12,4,23189
118,90,23542,5,0
214,89,23894,2,0,B|359:89,1,120
405,153,24600,1,0
408,248,24953,1,0
408,248,25130,1,0
360,247,25306,2,0,B|345:317|265:332,1,120
196,253,26012,6,0,B|186:177|99:167,2,120
196,253,27071,1,0
273,196,27424,2,0,B|350:188|349:104,1,120
438,82,28130,2,0,B|424:8|341:10,1,120
354,10,28659,1,0
354,10,28836,5,0
262,39,29189,2,0,B|122:39,2,120
261,135,30247,1,0
164,135,30600,1,0
164,135,30777,2,0,B|159:204|75:220,1,120
88,216,31306,1,0
126,303,31659,5,0
216,271,32012,1,0
395,202,32718,1,0
354,115,33071,2,0,B|231:68,1,120
148,93,33777,2,0,B|148:27,4,60
198,174,34836,6,0,B|86:225,2,120
285,133,35895,1,0
333,216,36247,1,0
414,164,36600,2,0,B|466:117,2,60
455,250,37306,5,0
421,339,37659,1,0
421,339,37836,1,0
421,339,38012,2,0,B|300:339,1,120
204,339,38718,1,0
252,256,39071,2,0,B|252:190,2,60
155,256,39777,6,0,B|31:256,2,120
196,169,40836,2,0,B|57:169,1,120
38,80,41542,2,0,B|174:81,1,120
206,81,42071,1,0
206,81,42247,2,0,B|206:18,2,60
284,134,42953,6,0,B|422:134,1,120
464,208,43659,1,0
367,208,44012,2,0,B|367:268,1,60
318,270,44365,2,0,B|313:336|224:355,1,120
192,351,44895,1,0
192,302,45071,2,0,B|180:224|87:228,1,120
55,149,45777,5,0
151,150,46130,1,0
228,93,46483,2,0,B|370:93,1,120
444,93,47189,1,0
390,172,47542,1,0
390,172,47718,2,0,B|190:172,1,180
152,98,48600,5,0
150,243,48953,1,0
256,196,49659,1,0
218,309,49306,2,0,B|349:307|384:148,1,240
256,196,50365,1,0
256,196,51071,1,0
294,75,50718,2,0,B|163:77|128:236,1,240
194,307,51777,6,0,B|337:307,1,120
347,205,52483,1,0
347,205,52659,1,0
166,205,53012,1,0
166,205,53189,1,0
205,117,53542,2,0,B|263:78|341:130,1,120
401,68,54247,5,0
401,68,54600,2,0,B|488:141|480:302,1,240
390,318,55659,1,0
390,318,56012,2,0,B|283:246|316:84,1,240
233,50,57071,1,0
134,154,57600,1,0
182,236,57953,1,0
182,236,58130,1,0
256,192,58483,12,0,59895
137,95,60600,5,0
192,173,60953,1,0
192,173,61130,1,0
192,173,61306,1,0
280,134,61659,2,0,B|348:131|392:54,1,120
379,74,62189,1,0
379,74,62365,1,0
415,163,62718,6,0,B|383:221|291:222,1,120
231,268,63424,2,0,B|165:275|111:337,2,120
181,185,64483,1,0
181,185,64659,2,0,B|124:143|124:71,1,120
124,83,65189,1,0
204,30,65542,6,0,B|244:86|326:88,1,120
387,137,66247,1,0
452,210,66600,2,0,B|398:251|401:326,1,120
305,297,67306,1,0
305,297,67483,1,0
271,206,67836,6,0,B|256:161|236:146,2,60
197,268,68542,2,0,B|159:279|147:314,2,60
158,180,69247,1,0
158,180,69424,2,0,B|80:180,2,60
158,83,70130,1,0
205,83,70306,1,0
253,83,70483,1,0
253,83,70659,1,0
253,83,70836,2,0,B|254:16,2,60
349,83,71542,6,0,B|479:83,2,120
349,83,72424,1,0
349,83,72600,1,0
293,161,72953,2,0,B|286:234|202:240,1,120
215,286,73483,2,0,B|215:352,1,60
120,326,74012,5,0
119,229,74365,1,0
119,229,74542,2,0,B|125:151|212:147,1,120
193,148,75071,1,0
289,148,75424,1,0
236,67,75777,2,0,B|368:67,2,120
114,76,76836,5,0
191,151,77189,1,0
287,151,77542,2,0,B|414:151,2,120
239,234,78600,1,0
239,234,78777,1,0
239,234,78953,2,0,B|98:234,1,120
22,237,79659,6,0,B|22:93,1,120
109,77,80365,2,0,B|109:221,1,120
192,244,81071,1,0
192,147,81424,1,0
192,147,81600,1,0
192,147,81777,1,0
268,88,82130,2,0,B|346:73|350:-14,2,120
322,167,83189,2,0,B|329:237|413:255,1,120
396,250,83895,5,0
348,122,84247,1,0
284,287,84600,1,0
283,52,84953,1,0
154,283,85306,1,4
95,81,107895,6,0,B|231:81,1,120
215,177,108600,1,0
311,177,108953,2,0,B|311:56,2,120
232,232,110012,2,0,B|154:238|164:339,1,120
259,314,110718,6,0,B|336:314,1,60
370,232,111247,1,0
370,232,111424,2,0,B|353:159|276:151,1,120
291,56,112130,2,0,B|221:56,1,60
149,116,112659,1,0
149,116,112836,2,0,B|64:103|80:16,2,120
113,205,113895,6,0,B|147:260|223:269,1,120
237,359,114600,2,0,B|366:336|406:201,1,240
489,159,115659,2,0,B|481:84|395:67,2,120
470,253,116718,1,0
470,253,117424,5,0
386,206,117777,1,0
320,276,118130,1,0
241,239,118483,1,0
221,252,118659,1,0
200,264,118836,1,0
178,275,119012,1,0
157,287,119189,1,4
87,220,119542,6,0,B|36:184|33:98,1,120
81,32,120247,1,0
173,58,120600,1,0
157,152,120953,2,0,B|189:216|279:218,1,120
320,147,121659,6,0,B|277:104|279:25,2,120
405,103,122718,1,0
466,176,123071,1,0
466,176,123247,2,0,B|428:228|366:239,1,120
313,318,123953,1,0
313,318,124130,2,0,B|243:319|190:279,1,120
153,200,124836,6,0,B|258:170|256:60,2,180
153,200,126247,1,0
81,135,126600,1,0
81,135,126777,1,0
152,70,127130,1,0
152,70,127306,1,0
152,70,127659,5,0
248,70,128012,2,0,B|499:69,1,240
463,162,129071,1,0
366,162,129424,2,0,B|228:162,1,120
246,162,129953,1,0
246,162,130130,1,0
210,72,130483,1,4
120,114,130836,6,0,B|43:100|47:20,2,120
119,210,131895,1,0
203,164,132247,1,0
204,68,132600,2,0,B|343:68,1,120
395,132,133306,6,0,B|464:117|470:48,2,120
395,228,134365,1,0
311,181,134718,1,0
311,277,135071,2,0,B|173:277,1,120
94,277,135777,6,0,B|94:202,1,60
142,216,136130,2,0,B|176:153|132:81,2,120
60,165,137189,1,0
91,74,137542,2,0,B|160:74,1,60
228,131,138071,1,0
228,131,138247,2,0,B|267:192|219:263,1,120
150,190,138953,5,0
103,273,139306,1,0
198,274,139659,1,0
244,190,140012,2,0,B|375:190,1,120
460,192,140718,1,0
414,107,141071,1,0
317,107,141424,6,0,B|171:106,1,120
194,202,142130,1,0
194,202,142306,1,0
112,151,142659,1,0
112,151,142836,1,0
256,192,143189,12,0,144247
34,191,144600,6,0,B|56:256|141:267,1,120
212,231,145306,1,0
194,325,145659,1,0
194,325,145836,2,0,B|260:329|317:264,1,120
345,299,146365,2,0,B|371:323|406:329,1,60
438,240,146895,5,0
438,240,147071,2,0,B|493:202|502:124,2,120
396,214,147953,2,0,B|356:165|284:156,1,120
293,157,148483,1,0
230,84,148836,1,0
193,172,149189,1,0
193,172,149365,2,0,B|154:223|73:226,1,120
89,224,149895,1,0
120,134,150247,6,0,B|117:70|64:22,2,120
203,86,151306,2,0,B|252:39|338:44,1,120
407,26,152012,1,0
407,26,152189,1,0
373,115,152542,1,0
373,115,152718,1,0
373,115,152895,1,0
373,115,153071,5,0
452,168,153424,2,0,B|478:199|483:223,2,60
386,238,154130,2,0,B|380:279|330:292,1,60
305,299,154483,2,0,B|276:272|240:270,1,60
209,293,154836,2,0,B|196:326|157:334,1,60
121,314,155189,1,0
50,248,155542,1,0
110,174,155895,6,0,B|91:69|3:15,2,180
202,201,157306,1,0
178,107,157659,1,0
178,107,157836,2,0,B|222:55|301:49,1,120
281,51,158365,1,0
374,73,158718,5,0
347,165,159071,1,0
347,165,159247,2,0,B|312:220|241:224,1,120
246,223,159777,1,0
168,279,160130,5,0
210,365,160483,1,0
306,365,160836,1,0
353,281,161189,1,0
342,192,161542,6,0,B|342:47,1,120
342,72,162071,1,0
342,72,162247,1,0
256,30,162600,1,0
168,70,162953,2,0,B|168:193,1,120
168,190,163483,1,0
168,190,163659,1,0
168,286,164012,6,0,B|44:286,2,120
249,235,165071,1,0
191,158,165424,2,0,B|216:103,1,60
294,48,165953,2,0,B|328:104,1,60
419,117,166483,6,0,B|457:260,2,120
378,204,167542,2,0,B|464:316,2,120
386,299,168600,2,0,B|509:356,2,120
302,251,169659,1,0
218,298,170012,1,0
