osu file format v9

[General]
AudioFilename: Aoi Iro.mp3
AudioLeadIn: 0
PreviewTime: 59189
Countdown: 1
SampleSet: Normal
StackLeniency: 0.8
Mode: 0
LetterboxInBreaks: 1

[Editor]
DistanceSpacing: 0.6
BeatDivisor: 4
GridSize: 8

[Metadata]
Title:Aoi Iro
Artist:Mizuki Nana
Creator:minyeob
Version:Easy
Source:
Tags:

[Difficulty]
HPDrainRate:2
CircleSize:3
OverallDifficulty:3
ApproachRate:4
SliderMultiplier:0.8
SliderTickRate:1

[Events]
//Background and Video events
0,0,"Nana.png"
//Break Periods
2,85506,106575
//Storyboard Layer 0 (Background)
//Storyboard Layer 1 (Fail)
//Storyboard Layer 2 (Pass)
//Storyboard Layer 3 (Foreground)
//Storyboard Sound Samples
//Background Colour Transformations
3,100,163,162,255

[TimingPoints]
11895,352.941176470588,4,1,0,80,1,0

[Colours]
Combo1 : 255,0,255
Combo2 : 0,255,255
Combo3 : 255,255,255
Combo4 : 0,255,0

[HitObjects]
50,112,11894,6,0,B|84:192|176:204,1,160
235,168,13130,1,0
235,168,13483,1,0
192,110,14012,2,0,B|238:41,1,80
282,30,14718,6,0,B|378:37|414:123,1,160
388,181,15953,1,0
388,181,16306,1,0
425,242,16836,2,0,B|394:317,1,80
306,277,17894,5,0
215,309,18600,1,0
125,273,19306,1,0
35,308,20012,1,0
256,192,20365,12,4,23189
79,303,23894,2,0,B|237:303,1,160
286,302,24953,1,0
286,205,25659,2,0,B|286:41,2,160
189,206,27777,2,0,B|27:206,1,160
30,157,28836,5,0
29,60,29542,2,0,B|201:60,1,160
237,60,30600,1,0
237,156,31306,1,0
237,156,31659,5,0
326,120,32365,1,0
414,82,33071,2,0,B|465:154|417:241,1,160
421,233,34130,1,0
421,233,34483,1,4
342,287,35189,6,0,B|264:331|183:282,1,160
186,189,36600,2,0,B|100:190,2,80
188,92,38012,2,0,B|262:45|354:102,1,160
398,135,39247,1,0
355,193,39777,6,0,B|360:276|447:328,2,160
270,239,41895,2,0,B|96:239,1,160
61,239,42953,5,0
113,158,43659,1,0
113,158,44012,2,0,B|287:159,1,160
273,110,45071,2,0,B|272:56|217:48,2,80,0|0|4
369,112,46483,6,0,B|369:280,1,160
369,368,47895,2,0,B|455:368,2,80
289,314,49306,6,0,B|289:146,1,160
288,57,50718,2,0,B|202:57,2,80
384,58,52130,5,0
384,58,52483,1,0
385,153,53189,2,0,B|313:210|230:144,1,160
235,54,54600,6,0,B|65:53,1,160
74,149,56012,2,0,B|74:314,1,160
110,340,57071,1,0
174,308,57600,1,0
239,337,58130,1,0
256,192,58483,12,0,59895
76,68,60600,5,0
118,91,60953,1,0
160,112,61306,1,0
228,88,61836,2,0,B|300:91|314:175,1,120
285,201,62718,6,0,B|271:266|193:288,1,120
142,249,63777,1,0
142,249,64130,2,0,B|81:219|78:144,1,120
155,61,65542,6,0,B|266:-1|390:73,1,240
383,165,67306,1,0
383,165,67483,1,0
311,165,68012,6,0,B|312:252,2,80
311,67,69424,2,0,B|231:67,1,80
182,68,70130,1,0
134,68,70483,1,0
85,68,70836,1,0
36,68,71189,1,4
74,155,71895,6,0,B|119:234|220:240,1,160
251,238,72953,1,0
337,196,73659,1,0
337,196,74012,5,0
368,131,74542,2,0,B|338:71|263:61,1,120
184,30,75777,2,0,B|141:105,1,80
124,143,76483,5,0
96,192,76836,1,0
130,281,77542,2,0,B|89:361,2,80
217,241,78953,2,0,B|183:164,2,80
265,242,80012,2,0,B|519:242,1,240
507,145,81777,6,0,B|506:58,1,80
414,35,82836,2,0,B|261:80,1,160
214,93,83895,5,0
168,108,84247,1,0
124,128,84600,1,0
124,128,84953,1,0
124,128,85306,1,4
5,256,107895,6,0,B|100:245|116:139,1,160,4|0
199,112,109306,1,0
215,206,110012,2,0,B|251:284|351:296,1,160
433,272,111424,6,0,B|401:95|191:117,1,320
147,200,113542,6,0,B|147:270|81:302,2,120
81,130,115306,2,0,B|104:48|199:22,1,160
228,54,116365,6,0,B|253:195|406:211,1,240
482,189,118130,1,0
440,275,118836,1,0
361,219,119542,6,0,B|278:247|240:331,1,160
163,270,120953,1,0
163,270,121306,2,0,B|74:240|64:152,1,160
127,83,122718,5,0
127,83,123071,2,0,B|108:35|58:32,2,80
190,155,124483,1,0
190,155,124836,6,0,B|236:86|336:76,1,160
372,78,125895,2,0,B|516:100|496:313|425:340,1,320
353,286,128012,1,0
265,324,128718,1,0
256,192,129071,12,0,130483
99,74,131189,1,0
97,169,131895,1,0
179,120,132600,2,0,B|264:120,2,80
178,216,134012,6,0,B|178:299,1,80
250,296,134895,2,0,B|346:245|448:305,1,200
441,349,136130,1,0
478,260,136836,6,0,B|515:171,1,80
472,154,137542,2,0,B|435:84,1,80
386,88,138247,1,0
346,60,138600,1,0
271,120,139306,6,0,B|224:207|265:334|421:354,1,320
451,265,141424,2,0,B|440:174|339:152,1,160
279,141,142659,1,0
279,141,142836,1,0
256,192,143189,12,0,144600
416,78,145306,1,0
416,78,145659,2,0,B|466:157|411:244,1,160
448,295,146895,2,0,B|419:352|343:362,1,120
299,311,147953,1,0
235,344,148483,1,0
178,300,149012,1,0
109,321,149542,2,0,B|60:317|45:277,2,80
144,191,150953,5,0
144,191,151306,2,0,B|137:138|100:122,1,80
67,63,152189,2,0,B|162:16|271:72,1,200
337,122,153777,5,0
254,170,154483,1,0
254,170,154836,2,0,B|226:168|211:140,2,40
289,202,155542,1,0
335,214,155895,1,0
407,111,156600,5,0
407,111,156953,2,0,B|353:55|265:38,1,160
171,28,158365,1,0
171,28,158718,5,0
195,95,159247,1,0
160,158,159777,2,0,B|203:226|302:239,1,160
386,214,161189,1,0
386,214,161542,6,0,B|387:48,1,160
290,54,162953,2,0,B|199:53,1,80
161,54,163659,1,0
161,54,164012,2,0,B|112:130|167:222,1,160
230,207,165247,1,0
230,207,165600,1,0
255,89,166483,6,0,B|254:5,1,80
256,192,167542,12,0,170012
