osu file format v12

[General]
AudioFilename: Girlish Lover (TV Size).mp3
AudioLeadIn: 2000
PreviewTime: 2654
Countdown: 0
SampleSet: Soft
StackLeniency: 0.7
Mode: 0
LetterboxInBreaks: 0
WidescreenStoryboard: 0

[Editor]
DistanceSpacing: 1.1
BeatDivisor: 4
GridSize: 4

[Metadata]
Title:Girlish Lover (TV Size)
TitleUnicode:Girlish Lover (TV Size)
Artist:Mizukara wo Enshutsu Suru Otome no Kai
ArtistUnicode:自らを演出する乙女の会
Creator:sKZy
Version:Normal
Source:Ore no Kanojo to Osananajimi ga Shuraba Sugiru
Tags:俺の彼女と幼なじみが修羅場すぎる opening akasaki chinatsu tamura yukari kanemoto hisako kayano ai
BeatmapID:272128
BeatmapSetID:101805

[Difficulty]
HPDrainRate:3
CircleSize:3
OverallDifficulty:4
ApproachRate:5
SliderMultiplier:1.1
SliderTickRate:1

[Events]
//Background and Video events
0,0,"BG.jpg",0,0
Video,0,"OP.avi"
//Break Periods
//Storyboard Layer 0 (Background)
//Storyboard Layer 1 (Fail)
//Storyboard Layer 2 (Pass)
//Storyboard Layer 3 (Foreground)
//Storyboard Sound Samples
//Background Colour Transformations
3,100,163,162,255

[TimingPoints]
-527,363.636363636364,4,2,1,65,1,0
2382,-100,4,2,1,75,0,0
3836,-100,4,2,1,75,0,1
12563,-100,4,2,1,75,0,1
12927,-100,4,2,1,80,0,1
13836,-100,4,2,1,75,0,0
16018,-100,4,2,1,50,0,0
16200,-100,4,2,1,65,0,0
18927,-100,4,2,1,50,0,0
19109,-100,4,2,1,65,0,0
20745,-100,4,2,1,50,0,0
20927,-100,4,2,1,70,0,0
21291,-100,4,2,1,60,0,0
31291,-100,4,2,1,70,0,0
32927,-100,4,2,1,65,0,0
37836,-100,4,2,1,50,0,0
38018,-100,4,2,1,65,0,0
42927,-100,4,2,1,70,0,0
43654,-100,4,2,1,75,0,0
44563,-100,4,2,1,60,0,0
45654,-100,4,2,0,60,0,0
45836,-100,4,2,1,60,0,0
47109,-100,4,2,0,60,0,0
47473,-100,4,2,1,75,0,0
48563,-100,4,2,0,60,0,0
48745,-100,4,2,1,70,0,0
50018,-100,4,2,0,60,0,0
50200,-100,4,2,1,60,0,0
51473,-100,4,2,0,60,0,0
51654,-100,4,2,1,70,0,0
52927,-100,4,2,0,50,0,0
53109,-100,4,2,1,75,0,0
57654,-100,4,2,1,50,0,0
58018,-100,4,2,1,55,0,0
58382,-100,4,2,1,60,0,0
58745,-100,4,2,1,65,0,0
59109,-100,4,2,1,75,0,0
60563,-100,4,2,1,80,0,1
82200,-100,4,2,1,75,0,0
86745,-100,4,2,1,75,0,0
87473,-100,4,2,1,65,0,0
87836,-100,4,2,1,55,0,0
88200,-100,4,2,1,45,0,0
88563,-100,4,2,1,35,0,0
88927,-100,4,2,1,25,0,0
89291,-100,4,2,1,15,0,0
89473,-100,4,2,1,5,0,0

[Colours]
Combo1 : 255,68,166
Combo2 : 251,255,89
Combo3 : 0,69,251
Combo4 : 201,159,35

[HitObjects]
448,180,200,2,0,P|392:160|328:184,1,110,0|4,3:0|0:0,0:0:0:0:
252,240,927,5,4,0:0:0:0:
140,120,1473,1,4,0:0:0:0:
80,272,2018,1,4,0:0:0:0:
180,320,2382,1,10,0:0:0:0:
284,352,2745,2,0,B|384:352|320:228|444:220,1,220
512,156,3836,6,0,P|446:126|396:140,1,110,4|8,0:0|0:0,0:0:0:0:
304,164,4563,2,0,P|248:144|208:104,1,110,0|2,0:0|0:0,0:0:0:0:
168,84,5109,2,0,P|96:100|64:192,1,165,0|8,0:0|0:0,0:0:0:0:
88,284,6018,1,0,0:0:0:0:
180,224,6382,1,2,0:0:0:0:
208,332,6745,6,0,L|320:300,1,110,2|8,0:0|0:0,0:0:0:0:
286,194,7473,2,0,L|178:226,1,110,0|8,0:0|0:0,0:0:0:0:
89,284,8200,2,0,P|85:188|190:121,2,220,2|0|4,0:0|0:0|0:0,0:0:0:0:
304,324,10382,6,0,P|336:256|328:212,1,110,0|8,0:0|0:0,0:0:0:0:
272,132,11109,1,0,0:0:0:0:
200,212,11473,1,10,0:0:0:0:
128,132,11836,1,0,0:0:0:0:
200,52,12200,1,10,0:0:0:0:
308,44,12563,6,0,P|360:88|372:140,1,110,4|8,0:0|0:0,0:0:0:0:
416,228,13291,2,0,B|388:264|388:264|344:224|272:252,1,165,0|4,0:0|0:0,0:0:0:0:
116,208,14382,5,0,0:0:0:0:
152,104,14745,1,0,0:0:0:0:
260,88,15109,2,0,P|316:88|376:124,1,110,0|4,0:0|0:0,0:0:0:0:
388,220,15836,6,0,L|336:280,2,55,8|8|0,0:0|0:0|0:0,0:0:0:0:
460,132,16563,1,8,0:0:0:0:
476,240,16927,2,0,P|488:288|512:352,2,110,2|8|0,0:0|0:0|0:0,0:0:0:0:
460,132,18018,1,8,0:0:0:0:
392,216,18382,6,0,P|324:264|244:272,2,165,4|8|12,0:0|0:0|0:0,0:0:0:0:
344,116,19836,1,0,0:0:0:0:
256,184,20200,1,8,0:0:0:0:
168,120,20563,2,0,L|132:177,1,55,4|12,0:0|0:0,0:0:0:0:
108,212,20927,1,12,0:0:0:0:
112,324,21291,6,0,P|200:304|292:320,1,165,4|0,0:0|0:0,0:0:0:0:
384,324,22200,1,0,0:0:0:0:
456,240,22563,2,0,B|472:136|372:108,1,165,0|8,0:0|0:0,0:0:0:0:
336,212,23473,2,0,P|288:216|220:200,1,110,0|8,0:0|0:0,0:0:0:0:
204,96,24200,5,2,0:0:0:0:
96,76,24563,1,8,0:0:0:0:
108,184,24927,1,0,0:0:0:0:
4,148,25291,1,10,0:0:0:0:
20,256,25654,2,0,P|68:312|76:352,1,110,0|10,0:0|0:0,0:0:0:0:
188,344,26382,2,0,P|195:310|243:254,1,110,0|10,0:0|0:0,0:0:0:0:
332,188,27109,1,4,0:0:0:0:
156,56,27836,6,0,P|108:76|44:64,1,110,0|8,0:0|0:0,0:0:0:0:
40,176,28563,2,0,P|128:184|204:156,2,165,0|0|8,0:0|0:0|0:0,0:0:0:0:
0,272,30018,1,2,0:0:0:0:
68,360,30382,1,8,0:0:0:0:
160,300,30745,2,0,P|216:284|284:308,1,110,2|8,0:0|0:0,0:0:0:0:
312,324,31291,1,4,0:0:0:0:
428,200,31836,6,0,P|364:188|324:140,1,110,8|0,0:0|0:0,0:0:0:0:
320,44,32563,2,0,P|288:52|256:68,1,55,8|8,0:0|0:0,0:0:0:0:
228,100,32927,1,4,0:0:0:0:
180,200,33291,1,8,0:0:0:0:
84,148,33654,2,0,P|71:101|83:41,2,110,0|8|0,0:0|0:0|0:0,0:0:0:0:
80,260,34745,5,8,0:0:0:0:
168,328,35109,2,0,B|260:284|320:352|396:316,1,220,2|0,0:0|0:0,0:0:0:0:
448,232,36200,1,8,0:0:0:0:
504,136,36563,2,0,P|404:136|340:236,1,220,2|0,0:0|0:0,0:0:0:0:
336,336,37654,2,0,L|400:352,2,55
272,248,38382,1,12,0:0:0:0:
192,320,38745,2,0,P|136:324|60:304,1,110,0|8,0:0|0:0,0:0:0:0:
80,204,39473,2,0,P|136:200|212:220,1,110,0|8,0:0|0:0,0:0:0:0:
292,244,40200,2,0,P|352:200|368:160,1,110,2|8,0:0|0:0,0:0:0:0:
332,124,40745,2,0,B|256:88|256:88|168:128,1,165,2|8,0:0|0:0,0:0:0:0:
72,144,41654,5,4,0:0:0:0:
32,248,42018,1,8,0:0:0:0:
112,328,42382,2,0,P|152:296|224:296,1,110,0|8,0:0|0:0,0:0:0:0:
256,312,42927,2,0,P|331:296|399:230,1,165,4|8,0:0|0:0,0:0:0:0:
396,184,43654,2,0,P|333:124|259:109,1,165,4|8,0:0|0:0,0:0:0:0:
160,152,44563,5,4,0:0:0:0:
160,264,44927,1,0,0:0:0:0:
256,320,45291,2,0,L|256:388,2,55,0|0|8,0:0|0:0|0:0,0:0:0:0:
256,264,45836,1,2,0:0:0:0:
360,296,46200,1,0,0:0:0:0:
428,208,46563,2,0,L|384:152,1,55,0|2,0:0|0:0,0:0:0:0:
284,148,47109,1,8,0:0:0:0:
232,52,47473,1,2,0:0:0:0:
108,160,48018,5,0,0:0:0:0:
108,160,48200,2,0,P|188:152|232:156,1,110,0|8,0:0|0:0,0:0:0:0:
240,204,48745,2,0,P|232:280|260:324,1,110,0|0,0:0|0:0,0:0:0:0:
348,352,49473,1,0,0:0:0:0:
348,352,49654,2,0,P|420:348|456:304,1,110,0|8,0:0|0:0,0:0:0:0:
360,252,50382,6,0,P|340:176|364:140,1,110,4|8,0:0|0:0,0:0:0:0:
404,52,51109,1,0,0:0:0:0:
296,24,51473,2,0,L|236:32,1,55,8|2,0:0|0:0,0:0:0:0:
196,132,52018,1,0,0:0:0:0:
92,92,52382,2,0,L|72:156,1,55,2|2,0:0|0:0,0:0:0:0:
80,256,52927,5,8,0:0:0:0:
188,264,53291,2,0,P|244:264|288:224,1,110,4|8,0:0|0:0,0:0:0:0:
356,148,54018,1,0,0:0:0:0:
360,36,54382,2,0,P|448:72|472:192,1,220,8|8,0:0|0:0,0:0:0:0:
456,296,55473,5,2,0:0:0:0:
368,228,55836,1,8,0:0:0:0:
256,192,56200,12,4,59109,0:0:0:0:
80,288,60563,5,4,0:0:0:0:
184,224,60927,1,8,0:0:0:0:
236,336,61291,2,0,L|364:292,1,110,0|2,0:0|0:0,0:0:0:0:
400,288,61836,2,0,B|444:240|444:240|404:224|396:148,1,165,0|8,0:0|0:0,0:0:0:0:
504,96,62745,2,2,P|452:32|416:32,1,110,0|2,0:0|0:0,0:0:0:0:
320,84,63473,6,0,P|256:92|200:84,1,110,4|8,0:0|0:0,0:0:0:0:
92,80,64200,2,0,P|86:134|94:188,1,110,0|8,0:0|0:0,0:0:0:0:
164,288,64927,1,4,0:0:0:0:
284,300,65291,1,0,0:0:0:0:
320,184,65654,2,0,P|236:184|164:296,2,220,0|4|0,0:0|0:0|0:0,0:0:0:0:
440,208,67473,5,8,0:0:0:0:
376,104,67836,2,0,P|320:48|316:12,1,110,0|8,0:0|0:0,0:0:0:0:
196,20,68563,2,0,P|191:47|135:103,1,110,0|8,0:0|0:0,0:0:0:0:
44,184,69291,5,2,0:0:0:0:
156,224,69654,1,8,0:0:0:0:
60,300,70018,1,2,0:0:0:0:
176,340,70382,2,0,P|216:328|248:324,1,55,8|4,0:0|0:0,0:0:0:0:
324,172,71109,2,0,P|340:209|340:277,2,110,8|0|8,0:0|0:0|0:0,0:0:0:0:
208,204,72200,6,0,P|120:212|80:204,1,110,4|8,0:0|0:0,0:0:0:0:
92,88,72927,2,0,P|180:80|220:88,1,110,0|2,0:0|0:0,0:0:0:0:
240,128,73473,2,0,P|324:152|388:108,1,165,2|8,0:0|0:0,0:0:0:0:
504,108,74382,2,0,P|488:160|432:212,1,110,0|2,0:0|0:0,0:1:0:0:
340,248,75109,6,0,P|280:248|228:264,1,110,4|8,0:0|0:0,0:0:0:0:
152,352,75836,2,0,P|97:352|44:338,1,110,0|8,0:0|0:0,0:0:0:0:
44,216,76563,2,8,P|123:204|69:94,2,220,4|2|4,0:0|0:0|0:0,0:0:0:0:
264,316,78745,6,0,L|140:328,2,110,0|8|2,0:0|0:0|0:0,0:0:0:0:
372,268,79836,1,8,0:0:0:0:
448,176,80200,1,2,0:0:0:0:
372,84,80563,1,8,0:0:0:0:
292,176,80927,6,0,P|252:116|252:68,1,110,6|8,0:0|0:0,0:0:0:0:
128,80,81654,2,0,P|125:116|85:176,1,110,0|8,0:0|0:0,0:0:0:0:
48,224,82200,1,4,0:0:0:0:
196,328,82745,5,0,0:0:0:0:
296,260,83109,2,0,P|344:176|280:76,1,220
212,172,84200,1,8,0:0:0:0:
136,80,84563,2,0,P|96:120|96:188,1,110,2|8,0:0|0:0,0:0:0:0:
164,268,85291,2,8,P|76:292|12:252,2,165,2|8|8,0:0|0:0|0:0,0:0:0:0:
256,192,86745,12,0,89473,0:0:0:0:
