osu file format v11

[General]
AudioFilename: Shura.mp3
AudioLeadIn: 2300
PreviewTime: 2657
Countdown: 0
SampleSet: Soft
StackLeniency: 0.3
Mode: 0
LetterboxInBreaks: 0

[Editor]
DistanceSpacing: 0.9
BeatDivisor: 4
GridSize: 4

[Metadata]
Title:Girlish Lover (TV Size)
TitleUnicode:Girlish Lover (TV Size)
Artist:Mizukara wo Enshutsu Suru Otome no Kai
ArtistUnicode:自らを演出する乙女の会
Creator:Fumika
Version:Insane
Source:Ore no Kanojo to Osananajimi ga Shuraba Sugiru
Tags:Netsukawa OreShura Opening Chinatsu Akasaki Yukari Tamura Hisako Kanemoto Ai Kayano
BeatmapID:207299
BeatmapSetID:72574

[Difficulty]
HPDrainRate:7
CircleSize:4
OverallDifficulty:7
ApproachRate:8
SliderMultiplier:1.67
SliderTickRate:1

[Events]
//Background and Video events
0,0,"shuraa.jpg"
Video,182,"OreShura.avi"
//Break Periods
//Storyboard Layer 0 (Background)
//Storyboard Layer 1 (Fail)
//Storyboard Layer 2 (Pass)
//Storyboard Layer 3 (Foreground)
//Storyboard Sound Samples
//Background Colour Transformations
3,100,163,162,255

[TimingPoints]
-527,363.636363636364,4,2,1,85,1,0
2381,-100,4,2,1,85,0,0
3836,-100,4,2,1,85,0,1
13836,-100,4,2,1,85,0,0
32018,-100,4,2,1,55,0,0
32109,-100,4,2,1,85,0,0
32745,-100,4,3,0,55,0,0
32927,-100,4,2,1,85,0,0
44382,-100,4,3,1,55,0,0
44563,-133.333333333333,4,2,2,85,0,0
44745,-133.333333333333,4,2,2,65,0,0
49836,-133.333333333333,4,2,1,85,0,0
50200,-133.333333333333,4,2,1,65,0,0
50382,-133.333333333333,4,2,2,85,0,0
50473,-133.333333333333,4,2,2,65,0,0
53109,-100,4,2,1,85,0,0
60563,-100,4,2,1,85,0,1
72018,-100,4,3,1,55,0,1
72109,-100,4,3,1,55,0,0
72200,-100,4,2,1,85,0,1
82200,-100,4,2,1,85,0,0
83291,-100,4,3,1,55,0,0
83654,-100,4,2,1,75,0,0
83836,-100,4,2,1,85,0,1
83927,-100,4,2,1,85,0,0
86836,-100,4,2,1,20,0,0
89473,-100,4,2,1,5,0,0

[Colours]
Combo1 : 0,64,128
Combo2 : 206,206,255
Combo3 : 250,160,179
Combo4 : 255,191,128
Combo5 : 128,255,128
Combo6 : 230,134,203
Combo7 : 128,128,255
Combo8 : 255,255,128

[HitObjects]
16,156,200,2,0,P|56:168,3,41.75,8|4|4|4,0:0|0:3|0:3|0:3,0:0:0
72,156,563,2,0,P|152:128|228:176,1,167,4|4,0:0|0:0,0:0:0
232,248,1109,2,0,P|224:340,1,83.5,0|2,0:0|0:0,0:0:0
312,240,1473,5,4,0:0:0
304,156,1654,2,0,P|312:64,1,83.5,0|2,0:0|0:0,0:0:0
388,148,2018,5,4,0:0:0
396,232,2200,2,0,P|388:324,1,83.5,0|4,0:0|0:0,0:0:0
396,232,2745,5,2,0:0:0
388,148,3109,1,2,0:0:0
388,148,3291,2,0,P|416:112,2,41.75,4|4|8,0:3|0:3|0:0,0:0:0
388,148,3836,6,0,P|308:160|236:120,1,167,4|8,0:0|0:0,0:0:0
196,44,4382,1,8,0:0:0
116,68,4563,2,0,P|84:96|68:144,1,83.5,2|0,0:0|0:0,0:0:0
92,292,4927,2,0,P|124:264|140:216,1,83.5,8|2,0:0|0:0,0:0:0
56,216,5291,1,0,0:0:0
160,144,5473,1,0,0:0:0
216,256,5654,2,0,P|260:268|304:260,1,83.5,8|8,0:0|0:0,0:0:0
372,224,6018,2,0,P|416:212|460:220,1,83.5,2|0,0:0|0:0,0:0:0
420,296,6382,6,0,P|404:116,2,167,8|4|8,0:0|0:0|0:0,0:0:0
348,340,7291,1,8,0:0:0
300,272,7473,2,0,P|260:264|196:280,1,83.5,2|0,0:0|0:0,0:0:0
88,344,7836,2,0,P|168:356|252:344,1,167,8|2,0:0|0:0,0:0:0
300,272,8382,2,0,P|304:188,1,83.5,0|8,0:0|0:0,0:0:0
152,148,8745,2,0,P|148:232,1,83.5,8|2,0:0|0:0,0:0:0
88,344,9109,1,0,1:0:0
32,232,9291,2,0,P|36:148,1,83.5,0|2,1:0|0:0,0:0:0
88,36,9654,6,0,P|168:24|248:56,1,167,4|8,0:0|0:0,0:0:0
292,124,10200,1,8,0:0:0
360,172,10382,2,0,P|400:180|452:168,1,83.5,2|0,0:0|0:0,0:0:0
400,292,10745,2,0,P|392:332|404:384,1,83.5,8|0,0:0|0:0,0:0:0
292,312,11109,2,0,P|252:304|200:316,1,83.5,2|0,0:0|0:0,0:0:0
136,348,11473,2,0,P|140:240,1,83.5,8|8,0:0|0:0,0:0:0
44,180,11836,2,0,P|40:288,1,83.5,2|0,0:0|0:0,0:0:0
40,348,12200,1,8,0:0:0
40,348,12563,6,0,P|84:352|128:336,1,83.5,4|2,0:0|0:0,0:0:0
204,244,12927,1,8,0:0:0
208,328,13109,1,2,0:0:0
156,176,13291,5,8,0:0:0
276,204,13473,5,2,0:0:0
284,288,13654,1,8,0:0:0
228,140,13836,5,4,0:0:0
228,140,14382,2,0,P|176:100|84:136,1,167,2|2,0:0|0:0,0:0:0
156,176,14927,1,8,0:0:0
228,140,15109,1,8,0:0:0
288,200,15291,5,8,0:0:0
300,216,15382,1,8,0:0:0
312,232,15473,2,0,P|352:244|404:232,1,83.5,4|0,0:0|0:0,0:0:0
440,168,15836,1,8,0:0:0
356,152,16018,2,0,P|352:324,1,167,8|0,0:0|0:0,0:0:0
284,368,16563,1,8,0:0:0
252,292,16745,1,0,0:0:0
172,320,16927,2,0,P|132:328|80:316,1,83.5,2|0,0:0|0:0,0:0:0
44,252,17291,1,8,0:0:0
64,172,17473,6,0,P|84:128|84:128|124:80|192:100,1,167,8|0,0:0|0:0,0:0:0
240,168,18018,2,0,P|288:176|332:164,1,83.5,8|0,0:0|0:0,0:0:0
372,104,18382,2,0,P|428:64|440:140,1,167,2|8,0:0|0:0,0:0:0
356,264,18927,2,0,P|292:272|292:272|240:260|240:260|176:268,1,167,8|0,0:0|0:0,0:0:0
68,232,19473,1,8,0:0:0
184,184,19654,2,0,P|252:176|252:176|300:188|300:188|360:180,1,167,4|0,0:0|0:0,0:0:0
432,168,20200,1,8,0:0:0
388,96,20382,6,0,P|296:108,1,83.5,0|10,0:0|1:2,0:0:0
160,268,20745,2,0,P|252:256,1,83.5,10|10,1:2|1:2,0:2:0
408,268,21291,6,0,P|224:292,1,167,4|8,0:0|0:0,0:0:0
160,268,21836,2,0,P|140:232|140:184,1,83.5,8|2,0:0|0:0,0:0:0
196,128,22200,1,0,0:0:0
220,208,22382,1,8,0:0:0
160,268,22563,2,0,P|76:280,1,83.5,2|0,0:0|0:0,0:0:0
32,160,22927,2,0,P|116:148,1,83.5,0|8,0:0|0:0,0:0:0
196,128,23291,1,8,0:0:0
244,60,23473,5,2,0:0:0
316,104,23654,1,0,0:0:0
268,172,23836,1,8,0:0:0
316,20,24018,5,0,0:0:0
396,116,24200,2,0,P|408:200,1,83.5,2|0,0:0|0:0,0:0:0
316,328,24563,2,0,P|304:244,1,83.5,8|8,0:0|0:0,0:0:0
268,172,24927,1,2,0:0:0
196,128,25109,1,0,0:0:0
112,132,25291,2,0,P|72:148|44:184,1,83.5,8|0,0:0|0:0,0:0:0
128,352,25654,2,0,P|164:272|120:212,1,167,2|8,0:0|0:0,0:0:0
80,284,26200,1,8,0:0:0
128,352,26382,1,2,0:0:0
204,320,26563,6,0,P|248:312|288:320,1,83.5,0|8,0:0|0:0,0:0:0
364,344,26927,2,0,P|384:348|408:344,2,41.75,8|8|2,0:0|0:0|0:0,0:0:0
384,264,27291,1,0,0:0:0
344,188,27473,2,0,P|340:144|356:104,1,83.5,8|8,0:0|0:0,0:0:0
500,164,27836,2,0,P|412:156,1,83.5,2|0,0:0|0:0,0:0:0
316,32,28200,2,0,P|404:40,1,83.5,8|0,0:0|0:0,0:0:0
240,52,28563,6,0,P|152:44,1,83.5,2|0,0:0|0:0,0:0:0
40,88,28927,1,8,0:0:0
140,164,29109,2,0,P|228:172,1,83.5,8|2,0:0|0:0,0:0:0
292,224,29473,1,0,0:0:0
368,192,29654,2,0,P|432:200|432:200|476:228|480:288,2,167,8|2|8,0:0|0:0|0:0,0:0:0
292,224,30563,1,8,0:0:0
228,172,30745,2,0,P|212:132|216:92,1,83.5,2|0,0:0|0:0,0:0:0
296,124,31109,1,8,0:0:0
164,36,31291,6,0,P|124:32|76:44,1,83.5,4|2,0:0|0:0,0:0:0
8,144,31654,1,0,0:0:0
124,192,31836,2,0,P|132:152|124:104,1,83.5,8|12,0:0|0:0,0:0:0
64,256,32200,2,0,P|100:276|152:276,1,83.5,2|0,0:0|3:0,0:0:0
172,252,32473,1,0,3:0:0
200,224,32563,2,0,P|288:228,1,83.5,8|4,0:0|3:0,0:0:0
312,244,32836,5,4,3:0:0
312,244,32927,2,0,P|324:284|316:328,1,83.5,4|0,0:0|0:0,0:0:0
240,360,33291,1,8,0:0:0
164,324,33473,2,0,P|112:316|64:332,1,83.5,8|2,0:0|0:0,0:0:0
92,240,33836,2,0,P|96:196|84:156,1,83.5,0|8,0:0|0:0,0:0:0
20,108,34200,1,2,0:0:0
96,72,34382,2,0,P|140:68|180:84,1,83.5
252,116,34745,2,0,P|296:120|336:104,1,83.5,8|8,0:0|0:0,0:0:0
284,40,35109,6,0,P|304:212,1,167,2|8,0:0|0:0,0:0:0
336,284,35654,1,8,0:0:0
348,300,35745,1,8,0:0:0
364,316,35836,2,0,P|432:316|480:280,1,125.25,2|0,0:0|0:0,0:0:0
480,264,36200,2,0,P|484:176,1,83.5,8|8,0:0|0:0,0:0:0
336,120,36563,2,0,P|332:208,1,83.5,2|0,0:0|0:0,0:0:0
284,280,36927,1,8,0:0:0
404,240,37109,1,0,0:0:0
300,360,37291,2,0,P|248:352|216:324,1,83.5,2|0,0:0|0:0,0:0:0
208,304,37563,1,0,0:0:0
208,304,37654,2,0,P|204:220,1,83.5,8|8,0:0|0:0,0:0:0
48,192,38018,6,0,P|52:276,1,83.5,2|0,0:0|0:0,0:0:0
124,316,38382,1,8,0:0:0
208,304,38563,1,8,0:0:0
208,304,38654,1,8,0:0:0
208,304,38745,2,0,P|268:308|316:344,1,83.5,2|0,0:0|0:0,0:0:0
300,336,39018,1,0,0:0:0
312,352,39109,2,0,P|352:360|396:348,1,83.5,8|8,0:0|0:0,0:0:0
444,284,39473,6,0,P|440:196,1,83.5,2|0,0:0|0:0,0:0:0
320,172,39836,2,0,P|324:260,1,83.5,8|0,0:0|0:0,0:0:0
240,164,40200,2,0,P|200:148|152:152,1,83.5,2|0,0:0|0:0,0:0:0
140,272,40563,2,0,P|180:288|228:284,1,83.5,8|8,0:0|0:0,0:0:0
296,252,40927,1,2,0:0:0
320,172,41109,1,0,0:0:0
384,120,41291,6,0,P|424:112|472:116,1,83.5,8|0,0:0|0:0,0:0:0
320,172,41654,2,0,P|280:180|236:176,1,83.5,2|0,0:0|0:0,0:0:0
168,128,42018,1,8,0:0:0
88,152,42200,1,8,0:0:0
72,236,42382,2,0,P|76:324,1,83.5,2|0,0:0|0:0,0:0:0
228,368,42745,6,0,P|224:280,1,83.5,8|4,0:0|0:0,0:0:0
240,204,43109,1,2,0:0:0
240,204,43291,2,0,P|292:192|336:208,1,83.5,0|8,0:0|0:0,0:0:0
456,280,43654,1,12,0:0:0
456,280,43836,2,0,P|404:292|360:276,1,83.5,2|0,0:0|0:0,0:0:0
344,272,44109,1,8,0:0:0
312,276,44200,2,0,P|260:288,2,41.75,8|8|4,0:0|0:0|3:0,0:0:0
412,212,44563,6,0,P|424:152|396:92,1,125.250004777909,4|0,0:0|0:0,0:0:0
324,60,45109,1,0,1:0:0
260,108,45291,2,0,P|200:120|140:104,1,125.250004777909,0|8,1:0|0:0,0:0:0
84,44,45836,1,0,1:0:0
4,188,46200,1,0,1:0:0
76,332,46563,1,0,1:0:0
148,292,46745,2,0,P|188:280|276:296,1,125.250004777909,0|8,1:0|0:0,0:0:0
332,348,47291,5,0,1:0:0
344,268,47472,2,0,P|356:188,1,62.6250023889543,0|0,1:0|0:0,0:0:0
416,152,47836,1,2,0:0:0
452,224,48018,2,0,P|440:304,1,62.6250023889543,0|0,1:0|1:0,0:0:0
292,352,48563,1,8,0:0:0
260,276,48745,2,0,P|200:260|128:268,2,125.250004777909,0|0|0,1:0|1:0|1:0,0:0:0
292,352,49654,1,0,1:0:0
368,320,49836,2,0,P|432:316,1,62.6250023889543,8|8,0:0|0:0,0:0:0
424,196,50200,6,0,P|360:200,1,62.6250023889543,0|4,1:0|0:0,0:0:0
220,116,50745,1,2,0:0:0
300,128,50927,2,0,P|364:124,1,62.6250023889543,0|0,1:0|1:0,0:0:0
216,196,51472,1,8,0:0:0
148,152,51654,2,0,P|16:160,2,125.250004777909,0|0|0,1:0|1:0|1:0,0:0:0
216,196,52563,2,0,P|236:256|224:324,1,125.250004777909,0|8,1:0|0:0,0:0:0
128,360,53109,5,8,0:0:0
128,360,53200,1,8,0:0:0
128,360,53291,2,0,P|116:320|128:272,1,83.5,4|0,0:0|0:0,0:0:0
176,216,53654,2,0,P|272:204,1,83.5,8|8,0:0|0:0,0:0:0
244,80,54018,2,0,P|148:92,1,83.5,2|0,0:0|0:0,0:0:0
308,24,54382,1,8,0:0:0
388,44,54563,2,0,P|484:32,2,83.5,2|0|0,0:0|0:0|0:0,0:0:0
328,100,55109,6,0,P|320:160|340:208,1,83.5,8|8,0:0|0:0,0:0:0
360,256,55472,2,0,P|368:316|348:364,1,83.5,2|0,0:0|0:0,0:0:0
204,340,55836,2,0,P|196:280|216:232,1,83.5,8|0,0:0|0:0,0:0:0
272,212,56200,5,4,0:0:0
276,296,56382,1,2,0:0:0
204,340,56563,2,0,P|120:344,1,83.5,8|2,0:0|0:0,0:0:0
112,184,56927,2,0,P|196:180,1,83.5,8|2,0:0|0:0,0:0:0
272,212,57291,1,8,0:0:0
284,128,57472,1,2,0:0:0
348,180,57654,6,0,P|392:184|440:160,1,83.5,4|2,0:0|1:2,0:0:0
404,12,58018,6,0,P|360:8|312:32,1,83.5,8|4,0:0|0:0,0:0:0
244,120,58382,6,0,P|200:124|152:100,1,83.5,2|2,0:0|1:2,0:0:0
152,0,58745,6,0,P|172:184,1,167,8|4,0:0|0:0,0:0:0
170,166,59472,5,2,0:0:0
170,166,59836,5,2,0:0:0
216,236,60018,1,8,0:0:0
184,312,60200,1,8,0:0:0
104,284,60382,5,0,1:0:0
104,284,60472,1,0,1:0:0
104,284,60563,2,0,P|64:276|20:284,1,83.5,4|0,0:0|0:0,0:0:0
184,312,60927,2,0,P|232:320|268:304,1,83.5,8|8,0:0|0:0,0:0:0
300,232,61291,1,2,0:0:0
344,348,61472,1,0,0:0:0
376,192,61654,5,8,0:0:0
376,192,61836,2,0,P|380:148|368:108,1,83.5,2|0,0:0|0:0,0:0:0
140,132,62200,2,0,P|136:176|148:216,1,83.5,0|8,0:0|0:0,0:0:0
300,160,62563,2,0,P|204:168,1,83.5,8|2,0:0|0:0,0:0:0
160,56,62927,1,0,0:0:0
60,176,63109,2,0,P|48:220|52:264,1,83.5,8|0,0:0|0:0,0:0:0
168,368,63472,6,0,P|180:324|176:280,1,83.5,2|0,0:0|0:0,0:0:0
276,364,63836,2,0,P|320:372|380:348,1,83.5,8|8,0:0|0:0,0:0:0
352,236,64200,2,0,P|308:228|248:252,1,83.5,2|0,0:0|0:0,0:0:0
424,280,64563,2,0,P|432:240|424:192,1,83.5,8|0,0:0|0:0,0:0:0
364,52,64927,2,0,P|352:96|364:140,1,83.5,2|0,0:0|0:0,0:0:0
436,100,65291,1,8,0:0:0
364,52,65472,1,8,0:0:0
280,60,65654,2,0,P|248:80|228:120,1,83.5,2|0,0:0|0:0,0:0:0
252,200,66018,2,0,P|264:264|252:296,1,83.5,8|0,0:0|0:0,0:0:0
16,252,66382,6,0,P|188:248,1,167,4|8,0:0|0:0,0:0:0
252,200,66927,1,8,0:0:0
312,260,67109,2,0,P|360:272|404:260,1,83.5,2|0,0:0|0:0,0:0:0
400,104,67472,2,0,P|352:92|308:104,1,83.5,8|0,0:0|0:0,0:0:0
244,136,67836,2,0,P|196:148|152:136,1,83.5,2|0,0:0|0:0,0:0:0
112,76,68200,1,8,0:0:0
196,68,68382,1,8,0:0:0
48,128,68563,2,0,P|24:164|24:220,1,83.5,2|0,0:0|0:0,0:0:0
52,280,68927,1,8,0:0:0
52,280,69291,6,0,P|96:268|152:280,1,83.5,4|0,0:0|0:0,0:0:0
212,372,69654,1,8,0:0:0
216,288,69836,1,8,0:0:0
304,156,70018,5,2,0:0:0
188,208,70200,1,0,0:0:0
312,236,70382,2,0,P|360:216|380:176,1,83.5,8|4,0:0|0:0,0:0:0
372,108,70745,6,0,P|380:300,1,167,2|8,0:0|0:0,0:0:0
460,296,71291,2,0,P|456:192,1,83.5,8|2,0:0|0:0,0:0:0
296,212,71654,2,0,P|300:316,1,83.5,0|8,0:0|0:0,0:0:0
292,328,71927,1,8,0:0:0
264,348,72018,1,4,0:0:0
232,348,72109,1,4,0:0:0
204,332,72200,6,0,P|116:320|36:344,1,167,4|8,0:0|0:0,0:0:0
41,340,72745,1,8,0:0:0
44,256,72927,2,0,P|46:171,1,83.5,2|0,0:0|0:0,0:0:0
200,128,73291,6,0,P|197:212,1,83.5,8|2,0:0|0:0,0:0:0
244,280,73654,1,0,0:0:0
328,276,73836,2,0,P|372:264|400:232,1,83.5,0|8,0:0|0:0,0:0:0
436,80,74200,2,0,P|392:92|364:124,1,83.5,8|2,0:0|0:0,0:0:0
328,192,74563,1,0,0:0:0
204,208,74745,6,0,P|164:200|128:152,1,83.5,8|0,0:0|0:0,0:0:0
188,56,75109,2,0,P|228:64|264:112,1,83.5,2|0,0:0|0:0,0:0:0
280,176,75472,2,0,P|276:260,1,83.5,8|8,0:0|0:0,0:0:0
360,264,75836,2,0,P|364:180,1,83.5,2|0,0:0|0:0,0:0:0
328,24,76200,6,0,P|324:108,1,83.5,8|0,0:0|0:0,0:0:0
240,104,76563,2,0,P|244:20,1,83.5,2|0,0:0|0:0,0:0:0
168,56,76927,2,0,P|124:68|72:56,1,83.5,8|8,0:0|0:0,0:0:0
20,12,77291,1,2,0:0:0
28,136,77472,2,0,P|36:232,1,83.5,0|8,0:0|0:0,0:0:0
84,288,77836,1,8,0:0:0
100,300,77927,1,8,0:0:0
120,312,78018,6,0,P|160:320|212:304,1,83.5,4|0,0:0|0:0,0:0:0
272,264,78382,2,0,P|312:256|364:272,1,83.5,8|8,0:0|0:0,0:0:0
312,340,78745,2,0,P|316:148,1,167,2|8,0:0|0:0,0:0:0
344,96,79291,1,0,0:0:0
420,64,79472,2,0,P|480:64|512:80,1,83.5,2|0,0:0|0:0,0:0:0
344,96,79836,2,0,P|284:96|252:80,1,83.5,8|8,0:0|0:0,0:0:0
192,44,80200,2,0,P|148:40|108:48,1,83.5,2|0,0:0|0:0,0:0:0
48,104,80563,1,8,0:0:0
48,104,80927,6,0,P|44:192,1,83.5,4|2,0:0|0:0,0:0:0
180,268,81291,2,0,P|184:180,1,83.5,8|2,0:0|0:0,0:0:0
300,140,81654,6,0,P|296:228,1,83.5,8|2,0:0|0:0,0:0:0
444,280,82018,2,0,P|448:192,1,83.5,8|4,0:0|0:0,0:0:0
447,196,82745,5,2,0:0:0
447,196,83109,2,0,P|432:152,3,41.75,8|8|4|4,0:0|0:0|3:0|3:0,0:0:0
440,76,83472,2,0,P|388:72,3,41.75,4|4|8|8,3:0|3:0|0:0|0:0,0:0:0
332,32,83836,6,0,P|272:44|244:144,1,167,4|8,0:0|0:0,0:0:0
324,116,84382,2,0,P|152:104,1,167,8|0,0:0|0:0,0:0:0
80,132,84927,1,8,0:0:0
44,208,85109,2,0,P|40:256|56:300,1,83.5,0|2,0:0|0:0,0:0:0
136,292,85472,2,0,P|180:264|236:268,1,83.5,0|8,0:0|0:0,0:0:0
292,284,85836,1,8,0:0:0
368,248,86018,5,10,0:0:0
380,228,86109,1,8,0:0:0
392,208,86200,2,8,P|412:172,1,41.75
492,152,86382,5,10,0:0:0
488,132,86472,1,8,0:0:0
484,112,86563,2,8,P|472:52,2,41.75,8|8|4,0:0|0:0|0:0,0:0:0
256,192,86836,12,0,89472,0:0:0
