osu file format v12

[General]
AudioFilename: 01 - Girlish Lover.mp3
AudioLeadIn: 1000
PreviewTime: 60750
Countdown: 0
SampleSet: Normal
StackLeniency: 0.7
Mode: 0
LetterboxInBreaks: 1

[Editor]
DistanceSpacing: 1
BeatDivisor: 2
GridSize: 8

[Metadata]
Title:Girlish Lover
TitleUnicode:Girlish Lover
Artist:Mizukara wo Enshutsu Suru Otome no Kai
ArtistUnicode:自らを演出する乙女の会
Creator:Silynn
Version:Normal
Source:Ore no Kanojo to Osananajimi ga Shuraba Sugiru
Tags:Akasaki Chinatsu Tamura Yukari Kanemoto Hisako Kayano Ai fuyuumi akishino himeka harusaki chiwa chiwawa natsukawa masuzu heart love horo CXu moe opening
BeatmapID:225938
BeatmapSetID:80963

[Difficulty]
HPDrainRate:3
CircleSize:3
OverallDifficulty:3
ApproachRate:5
SliderMultiplier:1.3
SliderTickRate:2

[Events]
//Background and Video events
0,0,"ai is love.jpg",1,1
//Break Periods
2,85687,88651
2,155324,165742
//Storyboard Layer 0 (Background)
//Storyboard Layer 1 (Fail)
//Storyboard Layer 2 (Pass)
//Storyboard Layer 3 (Foreground)
//Storyboard Sound Samples
//Background Colour Transformations
3,100,0,0,0

[TimingPoints]
1124,363.636363636364,4,1,0,70,1,0
4033,-100,4,1,0,70,0,1
14214,-100,4,1,0,70,0,0
60760,-100,4,1,0,70,0,1
82578,-100,4,1,0,70,0,0
89851,-100,4,2,0,70,0,0
127669,-100,4,1,0,40,0,0
129124,-100,4,1,0,70,0,1
140669,-100,4,1,0,70,0,0
140760,-100,4,1,0,70,0,1
150942,-100,4,1,0,70,0,0
184396,-100,4,2,0,70,0,1
184487,-100,4,2,0,70,0,0
189487,-100,4,1,0,70,0,0
190214,-100,4,1,0,70,0,1
195942,-100,4,1,0,70,0,0
196033,-100,4,1,0,70,0,1
206214,-100,4,1,0,70,0,0
230578,-100,4,2,0,10,0,0

[Colours]
Combo1 : 130,192,255
Combo2 : 255,186,117
Combo3 : 255,128,192
Combo4 : 128,255,159

[HitObjects]
96,120,1124,2,0,L|96:40,2,65,4|0|8,0:0|0:0|0:0,0:0:0:0:
161,120,1669,2,0,L|161:192,2,65,4|0|0,0:0|0:0|0:0,0:0:0:0:
226,120,2214,2,0,L|320:120,2,65,8|0|4,0:0|0:0|0:0,0:0:0:0:
280,240,2942,6,0,P|344:280|384:368,1,130,8|0,0:0|0:0,0:0:0:0:
432,344,3487,2,0,L|432:248,1,65,0|8,0:0|0:0,0:0:0:0:
464,152,4033,6,0,P|400:72|256:160,1,260,4|0,0:0|0:0,0:0:0:0:
336,232,5124,1,8,0:0:0:0:
248,328,5487,2,0,B|112:224|208:160|384:128|256:16|192:16,1,390,0|8,0:0|0:0,0:0:0:0:
97,86,6942,6,0,L|73:262,2,130,4|8|0,0:0|0:0|0:0,0:0:0:0:
224,128,8033,1,8,0:0:0:0:
328,48,8396,2,0,P|424:120|416:240,1,195,0|8,0:0|0:0,0:0:0:0:
464,248,9124,2,0,P|408:320|272:304,1,195
248,336,9851,6,0,B|200:264|128:272|128:272|72:224|112:104,1,260,4|0,0:0|0:0,0:0:0:0:
152,48,10942,1,8,0:0:0:0:
280,72,11305,1,0,0:0:0:0:
399,124,11669,1,8,0:0:0:0:
288,192,12033,2,0,P|320:264|400:232,1,130,0|8,0:0|0:0,0:0:0:0:
248,336,12760,6,0,L|80:240,1,130,4|8,0:0|0:0,0:0:0:0:
96,216,13305,1,8,0:0:0:0:
68,157,13487,2,0,B|148:77|148:77|180:109|268:109,1,195
413,63,14578,5,8,0:0:0:0:
454,186,14942,1,0,0:0:0:0:
387,297,15305,1,0,0:0:0:0:
256,192,15669,12,0,20396,0:0:0:0:
256,192,21487,6,0,L|256:32,2,130,0|8|0,0:0|0:0|0:0,0:0:0:0:
256,192,22578,1,8,0:0:0:0:
128,192,22942,2,0,P|200:304|336:312,1,260
432,256,24033,1,8,0:0:0:0:
475,133,24396,6,0,B|419:37|323:37|323:37|243:133|99:109,1,390,0|8,0:0|0:0,0:0:0:0:
64,216,25851,2,0,P|72:280|168:336,1,130,0|8,0:0|0:0,0:0:0:0:
177,302,26396,2,0,P|321:326|361:254,1,195,8|8,0:0|0:0,0:0:0:0:
456,240,27305,6,0,P|472:112|368:40,1,260
256,90,28396,1,8,0:0:0:0:
135,40,28760,2,0,P|40:112|56:240,1,260
160,320,29851,1,8,0:0:0:0:
288,336,30214,6,0,L|440:264,2,130,0|8|0,0:0|0:0|0:0,0:0:0:0:
320,208,31305,2,0,L|208:192,1,65,8|4,0:0|0:0,0:0:0:0:
144,128,31851,6,0,L|72:192,2,65,0|12|8,0:0|0:0|0:0,0:0:0:0:
152,64,32396,2,0,P|240:104|304:80,1,130,4|8,0:0|0:0,0:0:0:0:
269,229,33124,5,4,0:0:0:0:
321,347,33487,2,0,L|408:328,1,65,0|8,0:0|0:0,0:0:0:0:
476,240,34033,1,0,0:0:0:0:
488,112,34396,2,0,P|408:48|280:192,1,325
272,308,35669,1,8,0:0:0:0:
146,276,36033,6,0,P|185:183|73:103,1,260
195,51,37124,1,8,0:0:0:0:
312,112,37487,2,0,L|312:248,2,130,0|8|0,0:0|0:0|0:0,0:0:0:0:
312,46,38396,1,0,0:0:0:0:
377,46,38578,2,0,L|449:134,2,65,8|0|0,0:0|0:0|0:0,0:0:0:0:
461,292,39669,6,0,B|373:188|373:188|293:324|133:268|133:268|133:212|93:164,1,520
192,80,41487,1,8,0:0:0:0:
315,37,41851,6,0,P|395:133|379:301,1,260
280,320,42942,1,8,0:0:0:0:
280,320,43124,2,0,P|248:192|128:112,1,260,4|0,0:0|0:0,0:0:0:0:
72,224,44214,1,0,0:0:0:0:
72,224,44396,2,0,L|72:304,1,65,8|0,0:0|0:0,0:0:0:0:
72,352,44760,6,0,P|256:304|320:200,1,260,4|0,0:0|0:0,0:0:0:0:
184,192,45851,2,0,L|200:104,1,65,8|0,0:0|0:0,0:0:0:0:
304,56,46396,1,0,0:0:0:0:
416,112,46760,2,0,L|440:192,1,65,8|0,0:0|0:0,0:0:0:0:
432,304,47305,1,8,0:0:0:0:
432,304,47487,6,0,L|320:280,1,65
176,328,48214,2,0,L|160:248,1,65,8|0,0:0|0:0,0:0:0:0:
80,160,48760,6,0,L|152:192,1,65,8|0,0:0|0:0,0:0:0:0:
190,66,49305,1,0,0:0:0:0:
320,64,49669,2,0,L|312:152,1,65,8|0,0:0|0:0,0:0:0:0:
104,280,50578,6,0,P|256:304|336:192,1,260,0|0,0:0|0:0,0:0:0:0:
200,192,51669,1,8,0:0:0:0:
200,192,51851,2,0,L|256:64,1,130
126,106,52578,2,0,L|54:162,1,65
40,272,53124,6,0,L|88:344,1,65,8|0,0:0|0:0,0:0:0:0:
104,272,53487,2,0,B|168:216|256:240|256:240|256:120,1,260,4|0,0:0|0:0,0:0:0:0:
384,144,54578,1,8,0:0:0:0:
408,272,54942,2,0,B|344:216|256:240|256:240|256:120,1,260
128,144,56033,1,8,0:0:0:0:
160,312,56396,6,0,B|304:288|384:192|384:192|296:152|312:40,1,390,0|8,0:0|0:0,0:0:0:0:
256,192,57851,12,4,59305,0:0:0:0:
64,192,60760,6,0,L|184:48,2,130,4|8|0,0:0|0:0|0:0,0:0:0:0:
256,192,62033,6,0,P|288:280|416:336,1,195,0|8,0:0|0:0,0:0:0:0:
440,224,62942,1,0,0:0:0:0:
408,96,63305,5,8,0:0:0:0:
288,48,63669,6,0,P|128:136|128:208,1,260,4|0,0:0|0:0,0:0:0:0:
256,192,64760,1,8,0:0:0:0:
224,336,65124,2,0,P|384:248|384:176,1,260
144,272,66578,6,0,P|216:152|200:24,2,260,0|0|0,0:0|0:0|0:0,0:0:0:0:
264,312,68396,5,8,0:0:0:0:
328,200,68760,2,0,P|432:216|456:184,1,130,0|8,0:0|0:0,0:0:0:0:
392,88,69487,6,0,B|248:16|144:152,1,260
80,232,70578,2,0,L|64:328,1,65,8|4,0:0|0:0,0:0:0:0:
264,312,71305,6,0,P|336:304|368:216,2,130,8|0|8,0:0|0:0|0:0,0:0:0:0:
136,344,72396,6,0,P|168:272|152:192,1,130,0|8,0:0|0:0,0:0:0:0:
80,120,73124,1,0,0:0:0:0:
198,67,73487,5,8,0:0:0:0:
198,67,73669,2,0,P|326:83|390:171,1,195,0|8,0:0|0:0,0:0:0:0:
369,256,74578,1,0,0:0:0:0:
120,336,75305,6,0,P|192:288|184:192,1,130,0|8,0:0|0:0,0:0:0:0:
202,119,76033,2,0,P|248:64|312:64,1,130,0|8,0:0|0:0,0:0:0:0:
432,88,76760,2,0,B|376:192|376:192|392:288|328:352,1,260
88,327,78214,6,0,B|144:223|144:223|128:127|192:63,1,260,4|0,0:0|0:0,0:0:0:0:
299,63,79305,1,8,0:0:0:0:
299,193,79669,2,0,P|315:305|355:345,2,130,0|8|0,0:0|0:0|0:0,0:0:0:0:
384,96,80760,1,8,0:0:0:0:
476,188,81124,6,0,B|356:332|212:188|212:188|244:124|244:28,1,455,4|0,0:0|0:0,0:0:0:0:
105,185,82942,6,0,L|129:345,2,130,8|0|8,0:0|0:0|0:0,0:0:0:0:
79,57,84033,1,4,0:0:0:0:
79,57,84578,2,0,P|127:169|359:201,1,325
64,192,89851,6,0,P|96:264|272:288,2,260,2|0|2,0:0|0:0|0:0,0:0:0:0:
464,64,92760,6,0,L|432:200,1,130,4|8,0:0|0:0,0:0:0:0:
304,160,93487,2,0,L|336:224,1,65,2|0,0:0|0:0,0:0:0:0:
224,288,94033,2,0,L|296:320,1,65,2|0,0:0|0:0,0:0:0:0:
152,304,94578,2,0,L|72:312,1,65,8|0,0:0|0:0,0:0:0:0:
32,192,95124,6,0,P|112:200|144:152,1,130,2|0,0:0|0:0,0:0:0:0:
296,48,96033,1,8,0:0:0:0:
424,80,96396,6,0,P|424:176|320:304,1,260,2|0,0:0|0:0,0:0:0:0:
136,272,97669,1,8,0:0:0:0:
64,88,98214,5,8,0:0:0:0:
184,48,98578,1,0,0:0:0:0:
256,152,98942,1,8,0:0:0:0:
384,120,99305,2,0,P|432:184|432:304,1,195,2|4,0:0|0:0,0:0:0:0:
32,312,101487,5,4,0:0:0:0:
136,240,101851,2,0,L|88:176,1,65,8|8,0:0|0:0,0:0:0:0:
160,72,102396,2,0,P|192:128|248:184,1,130,2|0,0:0|0:0,0:0:0:0:
392,56,103305,5,8,0:0:0:0:
440,176,103669,1,0,0:0:0:0:
432,304,104033,1,8,0:0:0:0:
304,328,104396,6,0,L|160:288,1,130,2|8,0:0|0:0,0:0:0:0:
48,288,105124,2,0,P|112:224|128:160,1,130,0|8,0:0|0:0,0:0:0:0:
104,56,105851,5,0,0:0:0:0:
232,40,106214,2,0,L|208:144,1,65,8|8,0:0|0:0,0:0:0:0:
392,192,106942,1,8,0:0:0:0:
408,328,107305,5,0,0:0:0:0:
280,344,107669,2,0,L|301:248,1,65,8|8,0:0|0:0,0:0:0:0:
120,192,108396,1,8,0:0:0:0:
184,80,108760,5,0,0:0:0:0:
312,64,109124,2,0,L|288:168,1,65,8|8,0:0|0:0,0:0:0:0:
472,216,109851,1,8,0:0:0:0:
408,328,110214,6,0,P|256:256|144:288,1,260,4|0,0:0|0:0,0:0:0:0:
48,120,111487,6,0,P|120:152|232:112,1,195,4|8,0:0|0:0,0:0:0:0:
280,88,112214,2,0,P|352:56|464:96,1,195,12|8,0:0|0:0,0:0:0:0:
480,216,113124,6,0,B|336:216|336:216|256:336,1,260,4|0,0:0|0:0,0:0:0:0:
200,128,114396,2,0,B|416:128|416:128|488:232,1,325,2|0,0:0|0:0,0:0:0:0:
312,312,115851,6,0,L|224:264,1,65,2|0,0:0|0:0,0:0:0:0:
64,240,116578,2,0,L|112:184,1,65,8|0,0:0|0:0,0:0:0:0:
168,80,117124,2,0,L|232:136,1,65,8|0,0:0|0:0,0:0:0:0:
328,56,117669,1,0,0:0:0:0:
440,120,118033,2,0,L|448:224,1,65,8|0,0:0|0:0,0:0:0:0:
208,288,118942,6,0,P|280:264|192:144,1,260,4|0,0:0|0:0,0:0:0:0:
400,192,120214,2,0,P|336:72|144:64,1,325,2|2,0:0|0:0,0:0:0:0:
161,54,121851,6,0,P|152:200|48:296,1,260,4|0,0:0|0:0,0:0:0:0:
208,304,122942,1,8,0:0:0:0:
336,320,123305,2,0,P|424:272|376:128,1,260,2|0,0:0|0:0,0:0:0:0:
272,88,124396,1,8,0:0:0:0:
256,192,124760,12,4,127669,0:0:0:0:
440,336,129124,6,0,L|440:168,1,130,4|8,0:0|0:0,0:0:0:0:
440,72,129851,1,0,0:0:0:0:
310,72,130214,5,0,0:0:0:0:
310,72,130396,2,0,P|214:176|238:280,1,195,0|8,0:0|0:0,0:0:0:0:
91,267,131305,1,0,0:0:0:0:
201,336,131669,1,0,0:0:0:0:
322,289,132033,6,0,P|250:273|202:185,2,130,0|8|0,0:0|0:0|0:0,0:0:0:0:
387,176,133124,1,8,0:0:0:0:
423,51,133487,2,0,B|287:43|263:131|175:211|47:139,1,390,0|8,0:0|0:0,0:0:0:0:
157,55,134942,6,0,P|237:95|277:295,1,260,4|0,0:0|0:0,0:0:0:0:
383,340,136033,1,8,0:0:0:0:
446,226,136396,2,0,P|390:154|374:66,1,130,0|8,0:0|0:0,0:0:0:0:
264,56,137124,2,0,P|224:128|176:152,1,130,0|8,0:0|0:0,0:0:0:0:
77,224,137851,6,0,B|133:384|381:384|429:224,1,455,0|4,0:0|0:0,0:0:0:0:
237,240,139669,2,0,P|189:128|285:160,1,260,8|8,0:0|0:0,0:0:0:0:
382,68,140760,6,0,L|382:340,1,260,4|0,0:0|0:0,0:0:0:0:
186,328,142033,2,0,P|122:288|82:224,1,130
25,244,142578,2,0,L|44:167,2,65,8|8|0,0:0|0:0|0:0,0:0:0:0:
251,116,143669,6,0,P|331:156|363:220,2,130,0|8|0,0:0|0:0|0:0,0:0:0:0:
128,72,144760,1,8,0:0:0:0:
40,168,145124,6,0,P|104:264|248:216,1,260
352,280,146214,1,8,0:0:0:0:
464,344,146578,6,0,P|456:200|320:136,1,260,4|0,0:0|0:0,0:0:0:0:
240,112,147669,1,8,0:0:0:0:
112,136,148033,2,0,P|80:208|88:280,2,130,0|8|0,0:0|0:0|0:0,0:0:0:0:
240,112,149124,1,8,0:0:0:0:
256,192,149487,12,4,150760,0:0:0:0:
256,144,151305,6,0,L|256:320,2,130,8|0|8,0:0|0:0|0:0,0:0:0:0:
256,192,152396,12,4,155124,0:0:0:0:
136,296,166942,6,0,P|240:240|232:80,1,260,4|0,0:0|0:0,0:0:0:0:
424,192,168214,5,0,0:0:0:0:
352,304,168578,1,0,0:0:0:0:
224,312,168942,2,0,L|144:352,1,65,8|0,0:0|0:0,0:0:0:0:
64,176,169669,6,0,L|64:88,1,65
256,72,170396,2,0,L|256:152,1,65,8|0,0:0|0:0,0:0:0:0:
360,216,170942,2,0,L|360:128,1,65,8|0,0:0|0:0,0:0:0:0:
416,32,171487,1,0,0:0:0:0:
472,152,171851,2,0,L|472:232,1,65,8|0,0:0|0:0,0:0:0:0:
240,328,172760,6,0,P|112:304|136:160,1,260,4|0,0:0|0:0,0:0:0:0:
256,64,174033,2,0,L|256:224,1,130
344,288,174760,2,0,P|392:248|400:208,1,65,8|0,0:0|0:0,0:0:0:0:
208,64,175669,6,0,P|80:112|80:248,1,260,4|0,0:0|0:0,0:0:0:0:
192,184,176760,1,8,0:0:0:0:
176,312,177124,2,0,P|304:264|304:128,1,260
192,184,178214,1,8,0:0:0:0:
256,72,178578,6,0,B|320:184|440:144|440:144|440:360,1,390,4|8,0:0|0:0,0:0:0:0:
309,316,180033,6,0,B|245:204|125:244|125:244|125:28,1,390,4|8,0:0|0:0,0:0:0:0:
256,48,181487,6,0,P|432:192|256:336,1,520
80,96,184396,6,0,P|64:256|240:176,1,390,4|8,0:0|0:0,0:0:0:0:
256,88,185851,2,0,P|416:72|336:248,1,390,4|8,0:0|0:0,0:0:0:0:
264,296,187305,5,4,0:0:0:0:
64,128,188033,1,4,0:0:0:0:
312,48,188760,1,4,0:0:0:0:
288,344,190214,6,0,P|256:240|272:88,1,260,4|0,0:0|0:0,0:0:0:0:
400,56,191305,1,8,0:0:0:0:
464,168,191669,2,0,P|320:240|238:160,1,260
184,80,192760,1,8,0:0:0:0:
56,88,193124,6,0,B|136:208|88:280|88:280|224:392|320:224,1,455,0|4,0:0|0:0,0:0:0:0:
248,64,194942,2,0,P|320:168|368:168,2,130,8|0|8,0:0|0:0|0:0,0:0:0:0:
376,64,196033,6,0,P|448:176|400:336,2,260,4|0|0,0:0|0:0|0:0,0:0:0:0:
256,112,197851,1,8,0:0:0:0:
136,56,198214,1,0,0:0:0:0:
48,152,198578,1,8,0:0:0:0:
96,272,198942,6,0,P|192:328|256:304,1,130,0|8,0:0|0:0,0:0:0:0:
256,208,199669,1,0,0:0:0:0:
368,272,200033,1,8,0:0:0:0:
472,192,200396,2,0,P|400:80|248:80,1,260
80,232,201851,6,0,P|176:184|160:32,2,260,4|0|0,0:0|0:0|0:0,0:0:0:0:
192,304,203669,1,8,0:0:0:0:
312,256,204033,1,0,0:0:0:0:
440,280,204396,1,8,0:0:0:0:
488,160,204760,6,0,B|360:56|288:136|216:248|56:128,1,455,4|0,0:0|0:0,0:0:0:0:
48,328,206578,5,8,0:0:0:0:
168,280,206942,1,0,0:0:0:0:
296,312,207305,1,8,0:0:0:0:
256,192,207669,12,0,210578,0:0:0:0:
360,248,211305,5,0,0:0:0:0:
136,120,212033,2,0,L|88:232,2,65,0|0|8,0:0|0:0|0:0,0:0:0:0:
112,56,212578,2,0,P|184:136|400:80,1,325,0|4,0:0|0:0,0:0:0:0:
464,200,213851,5,8,0:0:0:0:
376,296,214214,1,0,0:0:0:0:
248,304,214578,1,8,0:0:0:0:
128,264,214942,2,0,P|192:184|152:32,1,260
416,80,216396,6,0,P|352:224|400:328,1,260,4|0,0:0|0:0,0:0:0:0:
256,320,217487,2,0,L|256:224,1,65,8|0,0:0|0:0,0:0:0:0:
144,192,218033,2,0,L|176:112,2,65,0|8|8,0:0|0:0|0:0,0:0:0:0:
40,264,218760,2,0,L|72:336,1,65,0|8,0:0|0:0,0:0:0:0:
192,288,219305,6,0,P|280:192|376:216,1,195,4|8,0:0|0:0,0:0:0:0:
448,264,220214,1,0,0:0:0:0:
440,136,220578,2,0,P|376:120|320:40,1,130
208,48,221305,2,0,P|80:120|80:160,1,195,0|8,0:0|0:0,0:0:0:0:
256,192,222214,12,0,230578,0:0:0:0:
