osu file format v12

[General]
AudioFilename: OreShura.mp3
AudioLeadIn: 0
PreviewTime: 2654
Countdown: 0
SampleSet: Soft
StackLeniency: 0.7
Mode: 0
LetterboxInBreaks: 0
WidescreenStoryboard: 1

[Editor]
Bookmarks: 745,77927
DistanceSpacing: 1
BeatDivisor: 1
GridSize: 4

[Metadata]
Title:Girlish Lover (TV Size)
TitleUnicode:Girlish Lover (TV Size)
Artist:Mizukara o Enshutsu Suru Otome no Kai
ArtistUnicode:自らを演出する乙女の会
Creator:No Dap
Version:Normal
Source:Ore no Kanojo to Osananajimi ga Shuraba Sugiru
Tags:oreshura op opening anime chinatsu akasaki yukari tamura hisako kanemoto ai kayano w_h_i_t_e
BeatmapID:368830
BeatmapSetID:148922

[Difficulty]
HPDrainRate:3
CircleSize:3
OverallDifficulty:3
ApproachRate:4
SliderMultiplier:1
SliderTickRate:1

[Events]
//Background and Video events
Video,0,"OreShura.avi"
0,0,"BG.jpg",0,0
//Break Periods
//Storyboard Layer 0 (Background)
//Storyboard Layer 1 (Fail)
//Storyboard Layer 2 (Pass)
//Storyboard Layer 3 (Foreground)
//Storyboard Sound Samples
//Background Colour Transformations
3,100,163,162,255

[TimingPoints]
-527,363.636363636364,4,2,1,60,1,0
3836,-100,4,2,1,85,0,1
7291,-100,4,2,3,85,0,1
7473,-100,4,2,1,85,0,1
8563,-100,4,2,3,85,0,1
8745,-100,4,2,1,85,0,1
13836,-100,4,2,1,70,0,0
21291,-100,4,2,1,60,0,0
42018,-100,4,2,3,60,0,0
42200,-100,4,2,1,60,0,0
44563,-153.846153846154,4,2,2,45,0,0
53291,-100,4,2,1,70,0,0
60563,-100,4,2,1,85,0,1
62563,-100,4,2,3,85,0,1
62745,-100,4,2,1,85,0,1
64018,-100,4,2,3,85,0,1
64200,-100,4,2,1,85,0,1
65291,-100,4,2,3,85,0,1
65473,-100,4,2,1,85,0,1
66745,-100,4,2,3,85,0,1
67109,-100,4,2,1,85,0,1
68382,-100,4,2,3,85,0,1
68563,-100,4,2,1,85,0,1
71836,-100,4,2,1,85,0,0
72200,-100,4,2,1,85,0,1
76927,-100,4,2,3,85,0,1
77109,-100,4,2,1,85,0,1
78382,-100,4,2,3,85,0,1
78745,-100,4,2,1,85,0,1
82200,-100,4,2,1,85,0,0
87109,-100,4,2,1,75,0,0
87473,-100,4,2,1,65,0,0
87836,-100,4,2,1,55,0,0
88200,-100,4,2,1,45,0,0
88563,-100,4,2,1,35,0,0
88927,-100,4,2,1,25,0,0
89291,-100,4,2,1,15,0,0
89654,-100,4,2,1,5,0,0

[Colours]
Combo1 : 0,0,255
Combo2 : 255,255,0
Combo3 : 255,128,192
Combo4 : 255,128,0

[HitObjects]
112,84,200,2,0,L|112:184,1,100,8|4,0:0|0:0,0:0:0:0:
64,271,927,2,0,P|112:283|160:270,1,100,12|0,0:0|0:0,0:0:0:0:
196,235,1473,2,0,P|244:222|292:235,1,100,12|0,0:0|0:0,0:0:0:0:
328,270,2018,2,0,P|376:282|424:269,1,100,12|4,0:0|0:0,0:0:0:0:
424,270,3291,6,0,L|424:206,1,50,0|8,0:0|0:0,0:0:0:0:
403,122,3836,6,0,P|356:136|331:178,1,100,4|8,0:0|0:0,0:0:0:0:
331,228,4382,1,8,0:0:0:0:
331,277,4563,2,0,P|283:292|219:276,1,100,0|8,0:0|0:0,0:0:0:0:
200,248,5109,2,0,P|191:199|207:152,1,100
222,105,5654,2,0,L|222:41,2,50,8|8|0,0:0|0:0|0:0,0:0:0:0:
222,105,6382,1,8,0:0:0:0:
223,204,6745,6,0,L|223:313,2,100,0|8|0,0:0|0:0|0:0,0:0:0:0:
223,105,7836,1,8,0:0:0:0:
146,170,8200,2,0,P|114:105|145:40,2,150,0|8|8,0:0|0:0|0:0,0:0:0:0:
246,170,9654,6,0,L|246:270,1,100,4|8,0:0|0:0,0:0:0:0:
281,305,10200,1,8,0:0:0:0:
316,340,10382,2,0,L|416:340,1,100,0|8,0:0|0:0,0:0:0:0:
486,269,11109,2,0,L|486:169,1,100,0|8,0:0|0:0,0:0:0:0:
451,134,11655,1,8,0:0:0:0:
416,99,11837,2,0,L|316:99,1,100,0|8,0:0|0:0,0:0:0:0:
282,193,12563,6,0,L|246:228,1,50,12|0,0:0|0:0,0:0:0:0:
211,192,12927,2,0,L|175:227,1,50,8|0,0:0|0:0,0:0:0:0:
140,191,13291,2,0,L|104:226,1,50,12|0,0:0|0:0,0:0:0:0:
69,190,13655,2,0,L|33:225,1,50,8|4,0:0|0:0,0:0:0:0:
69,190,14927,6,0,L|33:154,2,50
108,157,15473,2,0,P|156:145|204:158,1,100,4|8,0:0|0:0,0:0:0:0:
240,193,16019,2,0,P|288:206|336:193,1,100,8|0,0:0|0:0,0:0:0:0:
370,158,16563,1,8,0:0:0:0:
440,228,16927,5,0,0:0:0:0:
369,298,17291,2,0,L|319:298,1,50,8|8,0:0|0:0,0:0:0:0:
248,227,17836,2,0,L|198:227,1,50,0|8,0:0|0:0,0:0:0:0:
109,275,18382,6,0,P|97:226|109:179,1,100,0|8,0:0|0:0,0:0:0:0:
145,143,18927,1,8,0:0:0:0:
245,143,19291,2,0,L|295:143,2,50,0|8|0,0:0|0:0|0:0,0:0:0:0:
145,143,20018,2,0,L|95:143,1,50,0|8,0:0|0:0,0:0:0:0:
52,233,20563,1,8,0:0:0:0:
52,233,20745,2,0,L|102:233,1,50,8|8,0:0|0:0,0:0:0:0:
145,323,21291,6,0,P|192:335|240:323,1,100,4|8,0:0|0:0,0:0:0:0:
273,286,21836,1,8,0:0:0:0:
299,243,22018,2,0,P|347:231|394:243,2,100,0|8|0,0:0|0:0|0:0,0:0:0:0:
347,330,23109,1,8,0:0:0:0:
246,330,23473,6,0,P|197:341|150:329,1,100,0|8,0:0|0:0,0:0:0:0:
87,251,24200,2,0,P|75:202|87:155,1,100,0|8,0:0|0:0,0:0:0:0:
123,119,24745,2,0,L|172:89,1,50,8|0,0:0|0:0,0:0:0:0:
252,41,25291,5,8,0:0:0:0:
322,111,25654,1,0,0:0:0:0:
252,181,26018,1,8,0:0:0:0:
322,251,26382,1,0,0:0:0:0:
252,321,26745,1,8,0:0:0:0:
150,321,27109,6,0,B|104:321|104:321|65:282,1,100,0|8,0:0|0:0,0:0:0:0:
65,232,27654,1,8,0:0:0:0:
100,196,27836,2,0,B|146:196|146:196|184:234,1,100,0|8,0:0|0:0,0:0:0:0:
284,234,28563,5,0,0:0:0:0:
354,163,28927,2,0,L|404:163,2,50
283,92,29654,1,8,0:0:0:0:
184,93,30018,5,0,0:0:0:0:
111,163,30382,2,0,L|61:163,2,50,8|8|0,0:0|0:0|0:0,0:0:0:0:
181,234,31109,1,8,0:0:0:0:
216,269,31291,6,0,P|268:333|320:333,1,100,12|0,0:0|0:0,0:0:0:0:
330,336,31836,2,0,L|365:300,1,50,0|4,0:0|0:0,0:0:0:0:
365,250,32200,2,0,L|329:214,2,50
435,179,32927,6,0,L|364:108,1,100,4|8,0:0|0:0,0:0:0:0:
313,108,33473,1,8,0:0:0:0:
263,108,33654,2,0,L|192:179,1,100,0|8,0:0|0:0,0:0:0:0:
94,202,34382,2,0,P|114:248|158:269,1,100,0|8,0:0|0:0,0:0:0:0:
254,242,35109,6,0,P|297:263|317:308,1,100,0|8,0:0|0:0,0:0:0:0:
221,337,35836,1,0,0:0:0:0:
128,296,36200,2,0,L|86:323,2,50,8|8|0,0:0|0:0|0:0,0:0:0:0:
139,196,36927,1,8,0:0:0:0:
237,176,37291,5,0,0:0:0:0:
287,262,37654,2,0,L|336:263,2,50,8|8|0,0:0|0:0|0:0,0:0:0:0:
221,337,38382,1,8,0:0:0:0:
122,354,38745,2,0,P|121:304|150:265,1,100,0|8,0:0|0:0,0:0:0:0:
221,337,39473,6,0,P|250:297|249:248,1,100,0|8,0:0|0:0,0:0:0:0:
198,162,40200,2,0,P|197:112|226:73,1,100,0|8,0:0|0:0,0:0:0:0:
273,61,40745,2,0,P|341:84|350:155,1,150,8|8,0:0|0:0,0:0:0:0:
445,180,41654,6,0,P|407:243|335:258,2,150,0|8|8,0:0|0:0|0:0,0:0:0:0:
445,129,42927,2,0,P|414:62|344:39,1,150,12|8,0:0|0:0,0:0:0:0:
295,38,43654,2,0,P|225:61|195:128,1,150,12|8,0:0|0:0,0:0:0:0:
180,225,44563,6,0,L|168:293,2,64.9999970245363,4|0|0,0:0|0:0|0:0,0:0:0:0:
264,277,45654,1,8,0:0:0:0:
264,277,45836,2,0,L|275:213,1,64.9999970245363
372,193,46563,1,0,0:0:0:0:
372,193,46745,1,0,0:0:0:0:
400,285,47109,1,8,0:0:0:0:
400,285,47291,6,0,L|348:313,1,32.4999985122681
224,300,48018,2,0,L|196:248,1,32.4999985122681
160,185,48563,2,0,L|132:133,1,32.4999985122681,8|0,0:0|0:0,0:0:0:0:
236,121,49109,1,0,0:0:0:0:
332,117,49473,2,0,L|372:145,1,32.4999985122681
396,169,49836,1,8,0:0:0:0:
416,213,50018,1,8,0:0:0:0:
375,301,50382,6,0,P|345:311|313:318,2,64.9999970245363,4|0|0,0:0|0:0|0:0,0:0:0:0:
416,213,51473,1,8,0:0:0:0:
416,213,51654,2,0,L|440:137,1,64.9999970245363
340,125,52382,2,0,L|324:69,1,32.4999985122681
232,89,52927,1,8,0:0:0:0:
184,101,53109,1,8,0:0:0:0:
148,133,53291,6,0,P|145:182|120:225,1,100,4|8,0:0|0:0,0:0:0:0:
120,277,53836,1,8,0:0:0:0:
152,317,54018,2,0,P|194:341|244:342,1,100,0|8,0:0|0:0,0:0:0:0:
344,329,54745,1,0,0:0:0:0:
420,261,55109,2,0,L|488:305,2,50,8|8|0,0:0|0:0|0:0,0:0:0:0:
424,161,55836,1,8,0:0:0:0:
256,192,56200,12,4,59109,0:0:0:0:
310,198,60563,2,0,P|280:238|233:253,2,100,4|8|0,0:0|0:0|0:0,0:0:0:0:
288,100,61654,1,8,0:0:0:0:
243,75,61836,2,0,P|194:83|154:113,1,100
132,156,62382,2,0,P|139:205|169:245,1,100,8|0,0:0|0:0,0:0:0:0:
264,276,63109,1,8,0:0:0:0:
335,204,63473,6,0,P|379:180|408:139,2,100,0|8|0,0:0|0:0|0:0,0:0:0:0:
316,108,64563,1,8,0:0:0:0:
239,43,64927,2,0,P|206:108|238:173,2,150,0|8|8,0:0|0:0|0:0,0:0:0:0:
315,108,66382,6,0,P|330:203|263:272,1,200,4|0,0:0|0:0,0:0:0:0:
238,173,67473,1,8,0:0:0:0:
168,101,67836,2,0,P|116:96|66:101,2,100,0|8|0,0:0|0:0|0:0,0:0:0:0:
238,173,68927,1,8,0:0:0:0:
238,273,69291,6,0,L|274:308,1,50,4|0,0:0|0:0,0:0:0:0:
309,272,69654,2,0,L|345:307,1,50,8|0,0:0|0:0,0:0:0:0:
380,271,70019,2,0,L|416:306,1,50,4|0,0:0|0:0,0:0:0:0:
451,270,70382,2,0,L|487:305,1,50,8|4,0:0|0:0,0:0:0:0:
451,159,71109,6,0,L|487:124,2,50,8|8|0,0:0|0:0|0:0,0:0:0:0:
416,192,71654,2,0,L|380:227,1,50,0|8,0:0|0:0,0:0:0:0:
311,152,72200,6,0,P|267:176|217:178,1,100,4|8,0:0|0:0,0:0:0:0:
179,145,72745,1,8,0:0:0:0:
144,108,72927,2,0,P|94:109|50:133,1,100,0|8,0:0|0:0,0:0:0:0:
16,169,73473,2,0,P|10:219|31:263,1,100
58,306,74018,2,0,P|75:323|96:336,2,50,8|8|0,0:0|0:0|0:0,0:0:0:0:
58,306,74745,1,8,0:0:0:0:
107,218,75109,6,0,L|214:225,1,100,0|8,0:0|0:0,0:0:0:0:
282,158,75836,2,0,L|389:151,1,100,0|8,0:0|0:0,0:0:0:0:
480,150,76563,2,0,P|461:220|393:246,1,150,0|8,0:0|0:0,0:0:0:0:
344,236,77290,2,0,L|327:341,1,100,0|8,0:0|0:0,0:0:0:0:
231,304,78018,6,0,P|134:307|58:245,1,200,4|0,0:0|0:0,0:0:0:0:
58,145,79109,1,8,0:0:0:0:
128,74,79473,1,0,0:0:0:0:
198,145,79836,1,8,0:0:0:0:
128,214,80200,2,0,L|128:314,1,100,0|8,0:0|0:0,0:0:0:0:
228,320,80927,6,0,P|326:322|358:302,1,100,4|8,0:0|0:0,0:0:0:0:
358,284,81473,2,0,L|403:263,2,50,0|4|0,0:0|0:0|0:0,0:0:0:0:
292,208,82200,1,4,0:0:0:0:
292,208,83109,5,8,0:0:0:0:
203,254,83473,1,8,0:0:0:0:
114,207,83836,2,0,P|94:142|96:88,1,100,4|8,0:0|0:0,0:0:0:0:
135,83,84382,1,8,0:0:0:0:
232,62,84745,2,0,L|292:65,1,50,0|8,0:0|0:0,0:0:0:0:
378,92,85291,6,0,P|388:140|377:188,1,100,0|8,0:0|0:0,0:0:0:0:
352,232,85836,2,0,P|303:242|255:231,1,100,8|0,0:0|0:0,0:0:0:0:
216,198,86382,1,8,0:0:0:0:
216,198,86745,1,4,0:0:0:0:
256,192,86927,12,0,89654,0:0:0:0:
