osu file format v12

[General]
AudioFilename: OreShura.mp3
AudioLeadIn: 0
PreviewTime: 2654
Countdown: 0
SampleSet: Soft
StackLeniency: 0.7
Mode: 0
LetterboxInBreaks: 0
WidescreenStoryboard: 1

[Editor]
Bookmarks: 745,77927
DistanceSpacing: 1.2
BeatDivisor: 2
GridSize: 4

[Metadata]
Title:Girlish Lover (TV Size)
TitleUnicode:Girlish Lover (TV Size)
Artist:Mizukara o Enshutsu Suru Otome no Kai
ArtistUnicode:自らを演出する乙女の会
Creator:No Dap
Version:Hard
Source:Ore no Kanojo to Osananajimi ga Shuraba Sugiru
Tags:oreshura op opening anime chinatsu akasaki yukari tamura hisako kanemoto ai kayano w_h_i_t_e
BeatmapID:368039
BeatmapSetID:148922

[Difficulty]
HPDrainRate:5
CircleSize:4
OverallDifficulty:6
ApproachRate:7
SliderMultiplier:1.5
SliderTickRate:1

[Events]
//Background and Video events
Video,0,"OreShura.avi"
0,0,"BG.jpg",0,0
//Break Periods
//Storyboard Layer 0 (Background)
//Storyboard Layer 1 (Fail)
//Storyboard Layer 2 (Pass)
//Storyboard Layer 3 (Foreground)
//Storyboard Sound Samples
//Background Colour Transformations
3,100,163,162,255

[TimingPoints]
-527,363.636363636364,4,2,1,60,1,0
3836,-100,4,2,1,85,0,1
13836,-100,4,2,1,70,0,0
21291,-100,4,2,1,60,0,0
44563,-153.846153846154,4,2,2,45,0,0
53291,-100,4,2,1,70,0,0
60563,-100,4,2,1,85,0,1
71836,-100,4,1,1,85,0,0
72200,-100,4,2,1,85,0,1
82200,-100,4,2,1,85,0,0
87109,-100,4,2,1,75,0,0
87473,-100,4,2,1,65,0,0
87836,-100,4,2,1,55,0,0
88200,-100,4,2,1,45,0,0
88563,-100,4,2,1,35,0,0
88927,-100,4,2,1,25,0,0
89291,-100,4,2,1,15,0,0
89654,-100,4,2,1,5,0,0

[Colours]
Combo1 : 0,0,255
Combo2 : 255,255,0
Combo3 : 255,128,192
Combo4 : 255,128,0

[HitObjects]
397,100,200,2,8,L|417:61,3,37.5,8|0|0|0,0:0|0:0|0:0|0:0,0:0:0:0:
372,121,563,2,0,P|335:125|298:121,1,75,4|0,0:0|0:0,0:0:0:0:
200,78,927,5,4,0:0:0:0:
200,78,1109,2,0,L|123:142,1,75
148,236,1473,1,4,0:0:0:0:
148,236,1654,2,0,L|206:189,1,75
212,300,2018,1,4,0:0:0:0:
212,300,2200,2,0,L|135:364,1,75,0|4,0:0|0:0,0:0:0:0:
380,284,2745,5,0,0:0:0:0:
440,114,3109,1,0,0:0:0:0:
440,114,3291,2,8,L|461:67,2,37.5
259,109,3836,6,0,P|199:151|129:133,1,150,4|8,0:0|0:0,0:0:0:0:
182,60,4382,1,8,0:0:0:0:
182,60,4563,2,0,P|111:41|52:83,1,150,0|8,0:0|0:0,0:0:0:0:
129,133,5109,2,0,L|153:281,1,150,0|0,0:0|0:0,0:0:0:0:
153,281,5654,1,8,0:0:0:0:
236,314,5836,1,8,0:0:0:0:
321,285,6018,2,0,L|385:346,1,75
461,309,6382,2,0,L|406:257,1,75,8|0,0:0|0:0,0:0:0:0:
260,175,6745,6,0,P|206:125|211:52,1,150,0|8,0:0|0:0,0:0:0:0:
291,93,7291,1,8,0:0:0:0:
291,93,7473,2,0,P|344:142|339:215,1,150,0|8,0:0|0:0,0:0:0:0:
260,175,8018,1,0,0:0:0:0:
177,211,8200,2,0,L|153:282,2,75,0|0|8,0:0|0:0|0:0,0:0:0:0:
259,175,8745,5,8,0:0:0:0:
340,213,8927,1,0,0:0:0:0:
402,147,9109,1,8,0:0:0:0:
358,68,9291,1,8,0:0:0:0:
270,85,9473,1,8,0:0:0:0:
260,175,9654,6,0,B|223:167|223:167|225:199|217:229|196:250|174:258,1,150,4|8,0:0|0:0,0:0:0:0:
132,177,10200,1,8,0:0:0:0:
63,117,10382,2,0,P|90:93|127:89,1,75
216,84,10745,1,8,0:0:0:0:
385,145,11109,6,0,L|352:235,1,75
323,314,11473,2,0,L|233:281,1,75,8|8,0:0|0:0,0:0:0:0:
154,253,11836,2,0,L|187:163,1,75
216,84,12200,1,8,0:0:0:0:
216,84,12563,5,4,0:0:0:0:
302,111,12745,1,0,0:0:0:0:
302,201,12927,1,8,0:0:0:0:
216,229,13109,1,8,0:0:0:0:
163,156,13291,1,4,0:0:0:0:
216,84,13473,2,0,L|190:13,2,75,0|8|4,0:0|0:0|0:0,0:0:0:0:
364,125,14927,5,8,0:0:0:0:
280,92,15109,1,8,0:0:0:0:
197,125,15291,1,8,0:0:0:0:
197,125,15382,1,8,0:0:0:0:
197,123,15473,2,0,P|135:162|64:144,1,150,4|8,0:0|0:0,0:0:0:0:
122,75,16018,1,8,0:0:0:0:
114,255,16382,2,0,L|197:243,1,75,8|8,0:0|0:0,0:0:0:0:
354,312,16927,6,0,P|408:299|450:263,1,112.5
450,263,17291,2,8,L|450:184,1,75
322,63,17836,2,8,L|322:138,1,75
219,286,18382,6,0,P|153:253|158:175,1,150,0|8,0:0|0:0,0:0:0:0:
241,196,18927,2,0,L|120:285,1,150,8|8,0:0|0:0,0:0:0:0:
120,285,19473,1,8,0:0:0:0:
49,229,19654,1,0,0:0:0:0:
101,155,19836,1,0,0:0:0:0:
25,105,20018,2,8,L|88:44,1,75
256,84,20563,5,10,0:0:0:0:
186,202,20745,1,10,0:0:0:0:
321,202,20927,1,10,0:0:0:0:
256,36,21291,6,0,L|256:186,1,150,4|8,0:0|0:0,0:0:0:0:
322,247,21836,2,0,P|255:277|189:246,1,150
256,186,22382,1,8,0:0:0:0:
170,159,22563,1,0,0:0:0:0:
105,221,22745,1,0,0:0:0:0:
124,309,22927,1,0,0:0:0:0:
189,246,23109,2,0,L|248:294,1,75,8|0,0:0|0:0,0:0:0:0:
392,345,23473,6,0,P|449:298|455:225,1,150,0|8,0:0|0:0,0:0:0:0:
403,139,24018,1,0,0:0:0:0:
376,51,24200,2,0,P|319:98|319:170,1,150,0|8,0:0|0:0,0:0:0:0:
403,139,24745,1,0,0:0:0:0:
277,268,25109,5,0,0:0:0:0:
277,268,25291,2,0,L|193:226,1,75,8|0,0:0|0:0,0:0:0:0:
192,323,25655,2,0,L|108:365,1,75
130,266,26018,2,0,L|46:224,2,75,8|0|0,0:0|0:0|0:0,0:0:0:0:
190,199,26563,5,0,0:0:0:0:
258,257,26745,1,8,0:0:0:0:
345,234,26927,1,0,0:0:0:0:
425,195,27109,2,0,P|368:149|296:160,1,150,0|8,0:0|0:0,0:0:0:0:
228,100,27654,1,0,0:0:0:0:
138,113,27836,6,0,P|92:170|103:242,1,150,0|8,0:0|0:0,0:0:0:0:
177,193,28382,1,0,0:0:0:0:
190,281,28563,2,0,P|255:312|320:281,1,150,0|8,0:0|0:0,0:0:0:0:
335,193,29109,1,0,0:0:0:0:
374,113,29291,2,0,P|420:170|409:242,1,150,0|8,0:0|0:0,0:0:0:0:
297,322,30018,6,0,P|222:314|147:319,1,150,0|8,0:0|0:0,0:0:0:0:
70,273,30563,1,0,0:0:0:0:
87,184,30745,2,0,L|106:84,2,75,0|0|8,0:0|0:0|0:0,0:0:0:0:
70,273,31291,1,4,0:0:0:0:
70,273,31654,5,0,0:0:0:0:
156,297,31836,2,0,L|245:286,1,75,8|12,0:0|0:0,0:0:0:0:
185,208,32200,2,0,L|274:197,1,75,0|0,0:0|0:0,0:0:0:0:
218,118,32563,2,0,L|307:107,1,75,8|0,0:0|0:0,0:0:0:0:
441,66,32927,6,0,P|428:139|442:226,1,150,4|8,0:0|0:0,0:0:0:0:
412,300,33473,1,0,0:0:0:0:
331,264,33654,2,0,P|298:279|260:280,1,75
198,215,34018,2,0,P|231:199|269:198,1,75,8|0,0:0|0:0,0:0:0:0:
332,264,34382,1,0,0:0:0:0:
383,190,34563,1,0,0:0:0:0:
332,115,34745,1,8,0:0:0:0:
383,41,34927,1,0,0:0:0:0:
248,64,35109,6,0,P|210:66|173:62,1,75
264,164,35473,2,0,P|301:161|338:165,1,75,8|0,0:0|0:0,0:0:0:0:
406,222,35836,2,0,P|404:294|468:340,1,150,0|8,0:0|0:0,0:0:0:0:
483,254,36382,2,0,P|484:181|424:140,1,150
337,158,36927,5,8,0:0:0:0:
249,179,37109,2,0,L|230:263,2,75
185,114,37654,2,0,L|204:30,2,75,8|0|0,0:0|0:0|0:0,0:0:0:0:
86,153,38200,5,0,0:0:0:0:
48,251,38382,1,8,0:0:0:0:
116,329,38563,1,0,0:0:0:0:
116,329,38654,1,0,0:0:0:0:
116,328,38745,2,0,P|153:328|190:333,1,75
272,294,39109,2,0,L|301:215,1,75,8|0,0:0|0:0,0:0:0:0:
387,212,39473,6,0,L|358:291,1,75
201,268,39836,2,0,L|272:294,1,75,8|0,0:0|0:0,0:0:0:0:
187,357,40200,2,0,L|116:331,1,75
81,192,40563,2,0,L|56:263,1,75,8|0,0:0|0:0,0:0:0:0:
163,231,40927,2,0,L|188:160,1,75
287,54,41291,5,8,0:0:0:0:
341,127,41473,1,0,0:0:0:0:
393,199,41654,2,0,L|479:182,1,75
341,271,42018,2,0,L|255:288,1,75,8|0,0:0|0:0,0:0:0:0:
120,225,42382,2,0,P|194:222|268:207,1,150,0|8,0:0|0:0,0:0:0:0:
252,56,42927,1,4,0:0:0:0:
252,57,43291,6,0,P|288:50|324:61,2,75,0|0|4,0:0|0:0|0:0,0:0:0:0:
126,151,44018,5,0,0:0:0:0:
126,151,44200,2,8,L|104:208,3,37.5,8|8|8|0,0:0|0:0|0:0|0:0,0:0:0:0:
93,222,44563,6,0,P|116:289|182:315,1,146.249993305207,4|0,0:0|0:0,0:0:0:0:
250,267,45291,1,0,0:0:0:0:
404,327,45654,1,8,0:0:0:0:
454,261,45836,2,0,L|465:162,2,97.4999955368044,0|0|0,0:0|0:0|0:0,0:0:0:0:
404,327,46745,1,0,0:0:0:0:
324,350,46927,1,0,0:0:0:0:
244,327,47109,1,8,0:0:0:0:
188,265,47291,6,0,L|158:329,1,48.7499977684022
257,169,47836,1,0,0:0:0:0:
337,127,48018,2,0,L|357:82,1,48.7499977684022,0|0,0:0|0:0,0:0:0:0:
443,214,48563,1,8,0:0:0:0:
381,269,48745,2,0,L|285:291,2,97.4999955368044
443,214,49654,1,0,0:0:0:0:
454,131,49836,1,8,0:0:0:0:
393,74,50018,2,0,L|410:13,1,48.7499977684022,8|0,0:0|0:0,0:0:0:0:
274,46,50382,6,0,P|206:68|180:134,1,146.249993305207,4|0,0:0|0:0,0:0:0:0:
229,202,51110,1,0,0:0:0:0:
391,169,51473,1,8,0:0:0:0:
455,220,51654,2,0,L|488:321,2,97.4999955368044
391,169,52563,1,0,0:0:0:0:
253,261,52927,5,8,0:0:0:0:
181,219,53109,1,8,0:0:0:0:
181,219,53200,1,8,0:0:0:0:
181,219,53291,2,0,L|143:68,1,150,0|8,0:0|0:0,0:0:0:0:
144,73,53836,1,8,0:0:0:0:
279,111,54018,2,0,P|316:113|350:98,2,75,0|0|8,0:0|0:0|0:0,0:0:0:0:
307,28,54563,2,0,P|379:21|426:76,1,150
442,165,55109,5,8,0:0:0:0:
442,165,55291,2,0,L|421:246,1,75,8|0,0:0|0:0,0:0:0:0:
335,213,55655,2,0,L|359:304,2,75,0|8|0,0:0|0:0|0:0,0:0:0:0:
328,131,56200,6,0,L|260:161,1,75,8|0,0:0|0:0,0:0:0:0:
146,127,56563,2,0,L|176:196,1,75,8|0,0:0|0:0,0:0:0:0:
141,308,56927,2,0,L|210:279,1,75,8|0,0:0|0:0,0:0:0:0:
322,312,57291,2,0,L|293:244,1,75,8|0,0:0|0:0,0:0:0:0:
328,131,57654,5,4,0:0:0:0:
237,127,57836,2,0,L|262:56,1,75,8|8,0:0|0:0,0:0:0:0:
328,131,58200,1,4,0:0:0:0:
373,53,58382,2,0,L|421:110,1,75,8|8,0:0|0:0,0:0:0:0:
328,131,58745,1,4,0:0:0:0:
376,206,58927,2,0,L|302:218,1,75,8|4,0:0|0:0,0:0:0:0:
446,93,60018,5,8,0:0:0:0:
470,179,60200,1,8,0:0:0:0:
418,253,60382,1,8,0:0:0:0:
418,253,60473,1,8,0:0:0:0:
418,253,60563,2,0,B|363:245|350:324|288:314,1,150,4|8,0:0|0:0,0:0:0:0:
235,240,61109,1,8,0:0:0:0:
235,240,61291,2,0,P|174:237|111:304,1,150,0|8,0:0|0:0,0:0:0:0:
45,153,61836,6,0,P|106:156|169:89,1,150
256,80,62382,2,0,L|256:160,1,75,8|8,0:0|0:0,0:0:0:0:
345,97,62745,2,0,P|394:151|467:153,1,150,0|8,0:0|0:0,0:0:0:0:
339,281,63473,6,0,B|257:258|257:258|185:280,1,150,0|8,0:0|0:0,0:0:0:0:
166,200,64018,1,8,0:0:0:0:
166,200,64200,2,0,B|103:218|103:218|21:195,1,150,0|8,0:0|0:0,0:0:0:0:
57,112,64745,1,0,0:0:0:0:
137,72,64927,6,0,L|212:72,1,75
351,136,65291,2,0,L|276:136,1,75,8|8,0:0|0:0,0:0:0:0:
137,199,65654,2,0,L|212:199,1,75
351,263,66018,2,0,L|276:263,1,75,8|0,0:0|0:0,0:0:0:0:
61,327,66382,6,0,L|211:327,1,150,4|8,0:0|0:0,0:0:0:0:
276,263,66927,1,8,0:0:0:0:
276,263,67109,2,0,L|351:263,2,75,0|0|8,0:0|0:0|0:0,0:0:0:0:
256,164,67654,1,0,0:0:0:0:
197,79,67836,6,0,P|139:123|136:196,1,150,0|8,0:0|0:0,0:0:0:0:
256,164,68382,1,8,0:0:0:0:
314,78,68563,2,0,P|371:123|374:195,1,150,0|8,0:0|0:0,0:0:0:0:
374,196,69291,5,4,0:0:0:0:
459,223,69473,1,0,0:0:0:0:
459,313,69654,1,8,0:0:0:0:
374,341,69836,1,8,0:0:0:0:
321,268,70018,1,4,0:0:0:0:
374,196,70200,2,0,L|348:125,2,75,0|8|4,0:0|0:0|0:0,0:0:0:0:
136,187,71109,6,0,L|162:258,2,75,0|8|0,0:0|0:0|0:0,0:0:0:0:
57,142,71654,1,0,0:0:0:0:
111,69,71836,2,0,L|84:42,3,37.5
153,83,72200,6,0,P|228:88|303:82,1,150,4|8,0:0|0:0,0:0:0:0:
367,145,72745,1,8,0:0:0:0:
303,208,72927,2,0,P|228:202|153:207,1,150,0|8,0:0|0:0,0:0:0:0:
108,284,73473,1,0,0:0:0:0:
256,332,73836,1,0,0:0:0:0:
340,304,74018,2,0,L|396:224,2,75,8|8|0,0:0|0:0|0:0,0:0:0:0:
256,332,74563,1,0,0:0:0:0:
256,235,74745,1,8,0:0:0:0:
256,138,74927,1,0,0:0:0:0:
182,204,75109,6,0,P|153:138|184:72,1,150,0|8,0:0|0:0,0:0:0:0:
256,138,75654,1,8,0:0:0:0:
328,204,75836,2,0,P|357:137|326:71,1,150,0|8,0:0|0:0,0:0:0:0:
256,138,76382,1,0,0:0:0:0:
256,138,76563,2,0,L|256:288,1,150,0|8,0:0|0:0,0:0:0:0:
256,288,77109,1,8,0:0:0:0:
338,353,77291,1,0,0:0:0:0:
421,289,77473,5,8,0:0:0:0:
339,222,77655,1,8,0:0:0:0:
256,288,77837,1,8,0:0:0:0:
256,288,77927,1,8,0:0:0:0:
256,288,78018,6,0,P|192:251|176:180,1,150,4|8,0:0|0:0,0:0:0:0:
192,92,78563,1,8,0:0:0:0:
272,52,78745,2,0,L|356:52,2,75,0|0|8,0:0|0:0|0:0,0:0:0:0:
192,92,79291,1,0,0:0:0:0:
110,132,79473,6,0,L|140:200,1,75
106,314,79836,2,0,L|175:284,1,75,8|8,0:0|0:0,0:0:0:0:
287,319,80200,2,0,L|258:250,1,75
291,138,80563,1,8,0:0:0:0:
291,138,80927,5,4,0:0:0:0:
371,177,81109,1,0,0:0:0:0:
434,112,81290,1,8,0:0:0:0:
392,33,81472,1,8,0:0:0:0:
303,48,81654,1,4,0:0:0:0:
291,138,81836,2,0,L|192:173,2,75,0|8|4,0:0|0:0|0:0,0:0:0:0:
118,211,83109,6,8,L|90:177,2,37.5
118,301,83473,2,8,L|84:329,2,37.5
196,257,83836,2,0,L|287:257,1,75,4|0,0:0|0:0,0:0:0:0:
345,308,84200,1,8,0:0:0:0:
430,280,84382,2,0,P|463:214|465:140,1,150,8|0,0:0|0:0,0:0:0:0:
389,91,84927,1,8,0:0:0:0:
300,109,85109,1,0,0:0:0:0:
221,65,85291,2,0,L|169:139,1,75
51,136,85654,2,0,L|103:210,1,75,8|0,0:0|0:0,0:0:0:0:
173,241,86018,6,8,L|171:291,2,37.5
256,192,86382,1,8,0:0:0:0:
256,192,86473,1,8,0:0:0:0:
256,192,86563,1,8,0:0:0:0:
256,192,86654,1,8,0:0:0:0:
256,192,86745,1,4,0:0:0:0:
256,192,86836,12,0,89654,0:0:0:0:
