osu file format v12

[General]
AudioFilename: OreShura.mp3
AudioLeadIn: 0
PreviewTime: 2654
Countdown: 0
SampleSet: Soft
StackLeniency: 0.7
Mode: 0
LetterboxInBreaks: 0
WidescreenStoryboard: 1

[Editor]
Bookmarks: 745,80745
DistanceSpacing: 1
BeatDivisor: 4
GridSize: 4

[Metadata]
Title:Girlish Lover (TV Size)
TitleUnicode:Girlish Lover (TV Size)
Artist:Mizukara o Enshutsu Suru Otome no Kai
ArtistUnicode:自らを演出する乙女の会
Creator:No Dap
Version:Easy
Source:Ore no Kanojo to Osananajimi ga Shuraba Sugiru
Tags:oreshura op opening anime chinatsu akasaki yukari tamura hisako kanemoto ai kayano w_h_i_t_e
BeatmapID:368370
BeatmapSetID:148922

[Difficulty]
HPDrainRate:2
CircleSize:3
OverallDifficulty:2
ApproachRate:3
SliderMultiplier:1
SliderTickRate:2

[Events]
//Background and Video events
Video,0,"OreShura.avi"
0,0,"BG.jpg",0,0
//Break Periods
//Storyboard Layer 0 (Background)
//Storyboard Layer 1 (Fail)
//Storyboard Layer 2 (Pass)
//Storyboard Layer 3 (Foreground)
//Storyboard Sound Samples
//Background Colour Transformations
3,100,163,162,255

[TimingPoints]
-527,363.636363636364,4,2,1,60,1,0
3836,-100,4,2,1,85,0,1
4200,-100,4,2,3,85,0,1
4563,-100,4,2,1,85,0,1
7109,-100,4,2,3,85,0,1
7473,-100,4,2,1,85,0,1
7836,-100,4,2,3,85,0,1
8018,-100,4,2,1,85,0,1
10018,-100,4,2,3,85,0,1
10382,-100,4,2,1,85,0,1
11654,-100,4,2,3,85,0,1
11836,-100,4,2,1,85,0,1
13654,-100,4,2,3,85,0,1
13836,-100,4,2,1,70,0,0
15836,-100,4,2,3,70,0,0
16018,-100,4,2,1,70,0,0
17291,-100,4,2,3,70,0,0
17473,-100,4,2,1,70,0,0
18745,-100,4,2,3,70,0,0
18927,-100,4,2,1,70,0,0
21291,-100,4,2,1,60,0,0
21654,-100,4,2,3,60,0,0
21836,-100,4,2,1,60,0,0
23109,-100,4,2,3,60,0,0
23291,-100,4,2,1,60,0,0
24563,-100,4,2,3,60,0,0
24745,-100,4,2,1,60,0,0
26018,-100,4,2,3,60,0,0
26200,-100,4,2,1,60,0,0
31109,-100,4,2,3,60,0,0
31291,-100,4,2,1,60,0,0
33291,-100,4,2,3,60,0,0
33473,-100,4,2,1,60,0,0
36200,-100,4,2,3,60,0,0
36382,-100,4,2,1,60,0,0
37654,-100,4,2,3,60,0,0
37836,-100,4,2,1,60,0,0
42745,-100,4,2,3,60,0,0
42845,-100,4,2,1,60,0,0
44563,-153.846153846154,4,2,2,45,0,0
49836,-153.846153846154,4,2,4,45,0,0
50018,-153.846153846154,4,2,2,45,0,0
53291,-100,4,2,1,70,0,0
53654,-100,4,2,3,70,0,0
53836,-100,4,2,1,70,0,0
55109,-100,4,2,3,70,0,0
55291,-100,4,2,1,70,0,0
60563,-100,4,2,1,85,0,1
61109,-100,4,2,3,85,0,1
61291,-100,4,2,1,85,0,1
62563,-100,4,2,3,85,0,1
62745,-100,4,2,1,85,0,1
65291,-100,4,2,3,85,0,1
65391,-100,4,2,1,85,0,1
66745,-100,4,2,3,85,0,1
66927,-100,4,2,1,85,0,1
68200,-100,4,2,3,85,0,1
68382,-100,4,2,1,85,0,1
70382,-100,4,2,3,85,0,1
70473,-100,4,2,1,85,0,1
71836,-100,4,2,1,85,0,0
72200,-100,4,2,1,85,0,1
72745,-100,4,2,3,85,0,1
72927,-100,4,2,1,85,0,1
75473,-100,4,2,3,85,0,1
75836,-100,4,2,1,85,0,1
76200,-100,4,2,3,85,0,1
76382,-100,4,2,1,85,0,1
78382,-100,4,2,3,85,0,1
78745,-100,4,2,1,85,0,1
79109,-100,4,2,3,85,0,1
79291,-100,4,2,1,85,0,1
80018,-100,4,2,3,85,0,1
80200,-100,4,2,1,85,0,1
82018,-100,4,2,3,85,0,1
82200,-100,4,2,1,85,0,0
84200,-100,4,2,3,85,0,0
84382,-100,4,2,1,85,0,0
85654,-100,4,2,3,85,0,0
85836,-100,4,2,1,85,0,0
87109,-100,4,2,1,75,0,0
87473,-100,4,2,1,65,0,0
87836,-100,4,2,1,55,0,0
88200,-100,4,2,1,45,0,0
88563,-100,4,2,1,35,0,0
88927,-100,4,2,1,25,0,0
89291,-100,4,2,1,15,0,0
89654,-100,4,2,1,5,0,0

[Colours]
Combo1 : 0,0,255
Combo2 : 255,255,0
Combo3 : 255,128,192
Combo4 : 255,128,0

[HitObjects]
184,294,200,2,0,P|230:309|278:297,1,100,8|4,0:0|0:0,0:0:0:0:
374,268,927,2,0,P|385:194|373:120,2,150,4|4|4,0:0|0:0|0:0,0:0:0:0:
278,297,2382,1,4,0:0:0:0:
278,297,3473,5,8,0:0:0:0:
178,313,3836,2,0,P|206:222|300:194,1,200,4|0,0:0|0:0,0:0:0:0:
376,266,4927,1,8,0:0:0:0:
456,205,5291,6,0,P|448:156|425:111,1,100,0|8,0:0|0:0,0:0:0:0:
347,51,6018,2,0,L|250:77,1,100,0|8,0:0|0:0,0:0:0:0:
167,20,6745,6,0,P|153:114|230:180,2,200,2|2|2,0:0|0:0|0:0,0:0:0:0:
251,79,8563,1,8,0:0:0:0:
351,81,8927,2,0,P|343:129|307:163,1,100,0|8,0:0|0:0,0:0:0:0:
279,259,9654,6,0,L|82:296,1,200,4|0,0:0|0:0,0:0:0:0:
64,197,10745,1,8,0:0:0:0:
21,105,11109,2,0,P|69:95|116:110,2,100,0|8|0,0:0|0:0|0:0,0:0:0:0:
64,197,12200,1,8,0:0:0:0:
64,296,12563,6,8,P|96:328|157:341,1,100,4|8,0:0|0:0,0:0:0:0:
152,241,13291,2,8,P|224:251|274:198,1,150,4|4,0:0|0:0,0:0:0:0:
429,203,15109,5,8,0:0:0:0:
429,203,15473,2,0,P|478:148|472:75,2,150,4|8|8,0:0|0:0|0:0,0:0:0:0:
343,255,16927,2,0,P|294:309|300:382,2,150,0|8|8,0:0|0:0|0:0,0:0:0:0:
394,341,18382,6,0,P|442:286|436:213,2,150,0|8|8,0:0|0:0|0:0,0:0:0:0:
343,255,19836,1,0,0:0:0:0:
242,255,20200,1,8,0:0:0:0:
142,255,20563,2,0,L|92:255,2,50
196,339,21291,6,0,P|244:257|196:175,1,200,4|0,0:0|0:0,0:0:0:0:
142,255,22382,1,8,0:0:0:0:
87,339,22745,2,0,P|39:257|87:174,1,200
142,255,23836,1,8,0:0:0:0:
214,186,24200,6,0,P|273:143|279:71,2,150,0|0|8,0:0|0:0|0:0,0:0:0:0:
182,90,25654,2,0,P|122:133|117:205,2,150,0|0|8,0:0|0:0|0:0,0:0:0:0:
215,186,27109,6,0,P|213:235|187:277,2,100,0|8|0,0:0|0:0|0:0,0:0:0:0:
315,188,28200,1,8,0:0:0:0:
373,268,28563,2,0,P|414:294|464:295,2,100,0|8|0,0:0|0:0|0:0,0:0:0:0:
445,198,29654,1,8,0:0:0:0:
396,112,30018,6,0,L|285:133,1,100,0|8,0:0|0:0,0:0:0:0:
208,175,30745,2,0,L|208:328,2,150,0|4|8,0:0|0:0|0:0,0:0:0:0:
168,83,32200,1,0,0:0:0:0:
69,98,32563,1,8,0:0:0:0:
36,192,32927,6,0,P|50:292|35:357,2,150,4|8|8,0:0|0:0|0:0,0:0:0:0:
69,98,34382,2,0,P|118:102|165:85,1,100,0|8,0:0|0:0,0:0:0:0:
264,84,35109,2,0,P|311:101|361:96,1,100,0|8,0:0|0:0,0:0:0:0:
440,157,35836,6,0,P|418:227|439:297,2,150,0|8|8,0:0|0:0|0:0,0:0:0:0:
360,98,37291,2,0,P|290:120|220:97,2,150,0|8|8,0:0|0:0|0:0,0:0:0:0:
450,53,38745,6,0,P|464:101|447:147,1,100,0|8,0:0|0:0,0:0:0:0:
367,206,39473,2,0,P|354:255|365:303,1,100,0|8,0:0|0:0,0:0:0:0:
265,303,40200,2,0,P|275:254|263:206,1,100,0|8,0:0|0:0,0:0:0:0:
182,147,40927,2,0,P|164:100|178:53,1,100,0|8,0:0|0:0,0:0:0:0:
268,98,41654,6,0,L|368:98,1,100,0|8,0:0|0:0,0:0:0:0:
440,28,42382,2,0,P|471:95|445:163,2,150,0|12|8,0:0|0:0|0:0,0:0:0:0:
368,98,43836,1,8,0:0:0:0:
268,98,44200,1,8,0:0:0:0:
232,188,44563,6,0,P|252:248|232:308,1,129.999994049073,4|0,0:0|0:0,0:0:0:0:
157,248,45654,1,8,0:0:0:0:
81,309,46018,6,0,P|60:248|81:188,1,129.999994049073,0|0,0:0|0:0,0:0:0:0:
157,248,47109,2,0,L|234:248,1,64.9999970245363,8|0,0:0|0:0,0:0:0:0:
319,248,47836,6,0,L|384:248,1,64.9999970245363
476,219,48563,2,0,P|441:166|378:149,2,129.999994049073,8|0|8,0:0|0:0|0:0,0:0:0:0:
384,248,50382,6,0,L|304:355,1,129.999994049073,4|0,0:0|0:0,0:0:0:0:
208,355,51473,1,8,0:0:0:0:
160,269,51836,6,0,L|240:162,1,129.999994049073
334,164,52927,1,8,0:0:0:0:
300,71,53291,6,0,P|227:84|154:71,2,150,4|8|8,0:0|0:0|0:0,0:0:0:0:
395,95,54745,2,0,P|426:174|393:239,2,150,0|0|8,0:0|0:0|0:0,0:0:0:0:
256,192,56200,12,4,59109,0:0:0:0:
163,156,60563,6,0,L|133:252,2,100,4|8|0,0:0|0:0|0:0,0:0:0:0:
256,114,61654,1,8,0:0:0:0:
348,156,62018,2,0,L|378:252,2,100,0|8|0,0:0|0:0|0:0,0:0:0:0:
256,114,63109,1,8,0:0:0:0:
256,214,63473,6,0,L|256:314,1,100,0|8,0:0|0:0,0:0:0:0:
163,353,64200,2,0,L|163:253,1,100,0|8,0:0|0:0,0:0:0:0:
62,249,64927,2,0,B|65:215|81:183|108:164|143:156|143:156|142:139,2,150,0|8|8,0:0|0:0|0:0,0:0:0:0:
163,253,66382,6,0,L|314:253,2,150,4|8|8,0:0|0:0|0:0,0:0:0:0:
163,152,67836,2,0,L|12:152,2,150,0|8|8,0:0|0:0|0:0,0:0:0:0:
233,81,69291,6,0,L|333:81,1,100,4|8,0:0|0:0,0:0:0:0:
431,72,70018,2,0,P|411:143|347:179,1,150,4|4,0:0|0:0,0:0:0:0:
337,326,71109,2,0,P|403:356|444:341,2,100,8|0|8,0:0|0:0|0:0,0:0:0:0:
403,251,72200,6,0,L|403:151,2,100,4|8|0,0:0|0:0|0:0,0:0:0:0:
337,325,73291,1,8,0:0:0:0:
300,232,73654,2,0,P|250:236|200:233,1,100,0|8,0:0|0:0,0:0:0:0:
230,136,74382,2,0,P|180:134|130:137,1,100,0|8,0:0|0:0,0:0:0:0:
32,163,75109,6,0,P|53:70|143:40,2,200,0|0|0,0:0|0:0|0:0,0:0:0:0:
130,137,76927,1,8,0:0:0:0:
211,195,77291,2,0,P|260:192|310:195,1,100,0|8,0:0|0:0,0:0:0:0:
406,225,78018,6,0,P|385:131|295:101,2,200,4|0|0,0:0|0:0|0:0,0:0:0:0:
310,195,79836,2,0,P|260:192|211:195,2,100,8|0|8,0:0|0:0|0:0,0:0:0:0:
300,294,80927,6,0,P|350:297|400:293,1,100,4|8,0:0|0:0,0:0:0:0:
495,324,81654,2,0,P|495:251|444:199,1,150,4|4,0:0|0:0,0:0:0:0:
251,204,83473,5,8,0:0:0:0:
251,204,83836,2,0,P|250:277|301:329,2,150,4|8|8,0:0|0:0|0:0,0:0:0:0:
345,238,85291,2,0,P|345:164|294:112,2,150,0|8|8,0:0|0:0|0:0,0:0:0:0:
256,192,86745,12,0,89654,0:0:0:0:
