osu file format v14

[General]
AudioFilename: Girlish Lover.mp3
AudioLeadIn: 1000
PreviewTime: 2830
Countdown: 0
SampleSet: Soft
StackLeniency: 0.4
Mode: 0
LetterboxInBreaks: 0
WidescreenStoryboard: 0

[Editor]
Bookmarks: 126830,207739
DistanceSpacing: 1.6
BeatDivisor: 4
GridSize: 4
TimelineZoom: 2.1

[Metadata]
Title:Girlish Lover
TitleUnicode:Girlish Lover
Artist:Mizukara o Enshutsu Suru Otome no Kai
ArtistUnicode:自らを演出する乙女の会
Creator:No Dap
Version:Burning Fighting Fighter
Source:俺の彼女と幼なじみが修羅場すぎる
Tags:Ore no Kanojo to Osananajimi ga Shuraba Sugiru OreShura Opening Chinatsu Akasaki Yukari Tamura Hisako Kanemoto Ai Kayano Kibbleru Frobe Himeka Akishino 秋篠姫香 Ai Fuyuumi 冬海愛衣 Chiwa Harusaki 春咲千和 Masuzu Natsukawa 夏川真涼
BeatmapID:459939
BeatmapSetID:193583

[Difficulty]
HPDrainRate:6.5
CircleSize:4
OverallDifficulty:8
ApproachRate:9
SliderMultiplier:1.8
SliderTickRate:2

[Events]
//Background and Video events
0,0,"bgggbbbgg.jpg",0,0
//Break Periods
2,90030,90867
2,155485,160503
2,183121,183776
//Storyboard Layer 0 (Background)
//Storyboard Layer 1 (Fail)
//Storyboard Layer 2 (Pass)
//Storyboard Layer 3 (Foreground)
//Storyboard Sound Samples

[TimingPoints]
-351,363.636363636364,4,2,1,45,1,0
1103,-100,4,2,1,70,0,0
2558,-100,4,2,1,60,0,0
4012,-100,4,2,1,80,0,1
15649,-100,4,2,1,70,0,0
21467,-100,4,2,1,60,0,0
44739,-142.857142857143,4,2,2,45,0,0
53103,-100,4,2,1,55,0,0
53467,-100,4,2,1,60,0,0
56376,-100,4,2,1,70,0,0
59285,-100,4,2,1,80,0,0
60739,-100,4,2,1,80,0,1
83285,-100,4,2,1,60,0,1
83649,-100,4,2,1,50,0,1
84012,-100,4,2,1,70,0,0
89649,-100,4,2,1,45,0,0
91467,-100,4,2,1,55,0,0
92739,-100,4,2,1,60,0,0
113103,-142.857142857143,4,2,2,45,0,0
121467,-100,4,2,1,55,0,0
121830,-100,4,2,1,60,0,0
124739,-100,4,2,1,70,0,0
128012,-100,4,2,1,50,0,0
129103,-100,4,2,1,80,0,1
151649,-100,4,2,1,60,0,1
152376,-100,4,2,1,70,0,0
152467,-100,4,2,1,5,0,0
155285,-100,4,2,1,70,0,0
161103,-100,4,2,1,50,0,0
164012,-100,4,2,1,60,0,0
165467,-100,4,2,1,70,0,0
166376,-100,4,2,1,55,0,0
166921,-142.857142857143,4,2,2,45,0,0
175285,-100,4,2,1,55,0,0
175649,-100,4,2,1,60,0,0
178558,-100,4,2,1,65,0,0
180012,-100,4,2,1,70,0,0
190194,-100,4,2,1,80,0,1
206921,-100,4,2,1,50,0,1
207649,-100,4,2,1,70,0,0
222285,-100,4,2,1,5,0,0

[Colours]
Combo1 : 121,121,255
Combo2 : 255,166,211
Combo3 : 233,233,233
Combo4 : 255,127,66
Combo5 : 0,0,181
Combo6 : 183,112,112

[HitObjects]
136,244,376,6,0,L|120:188,3,45,0|8|8|8,0:0|0:0|0:0|0:0,0:0:0:0:
204,292,739,2,0,P|248:285|284:260,1,90,12|0,0:0|0:0,0:0:0:0:
352,128,1103,5,4,0:0:0:0:
456,244,1285,2,0,L|449:333,1,90,2|2,0:0|0:0,0:0:0:0:
448,140,1649,5,4,0:0:0:0:
327,272,1830,2,0,L|240:304,1,90,2|2,0:0|0:0,0:0:0:0:
408,56,2194,5,4,0:0:0:0:
244,160,2376,2,0,L|152:148,1,90,2|4,0:0|0:0,0:0:0:0:
328,272,2921,6,0,P|396:264|444:172,1,180
408,56,3467,2,0,L|420:24,4,22.5,2|2|2|2|10,0:0|0:0|0:0|0:0|0:0,0:0:0:0:
308,116,3830,1,0,0:0:0:0:
287,232,4012,6,0,P|222:238|168:200,1,135,4|0,0:0|0:0,0:0:0:0:
128,128,4376,2,0,L|38:124,1,90,10|10,0:0|0:0,0:0:0:0:
196,56,4739,1,2,0:0:0:0:
88,216,4921,1,0,0:0:0:0:
244,160,5103,1,10,0:0:0:0:
183,327,5285,6,0,P|270:334|329:268,1,180,2|2,0:0|0:0,0:0:0:0:
332,124,5830,1,8,0:0:0:0:
176,96,6012,1,10,0:0:0:0:
244,236,6194,1,2,0:0:0:0:
260,24,6376,1,0,0:0:0:0:
236,244,6558,1,10,0:0:0:0:
228,256,6921,6,0,P|228:312|236:364,1,90,2|0,0:0|0:0,0:0:0:0:
396,160,7285,2,0,P|400:115|400:70,1,90,10|8,0:0|0:0,0:0:0:0:
336,260,7649,2,0,L|356:360,1,90,2|0,0:0|0:0,0:0:0:0:
319,111,8012,2,0,P|279:93|234:86,1,90,10|0,0:0|0:0,0:0:0:0:
72,127,8376,6,0,P|161:134|235:86,1,180,2|8,0:0|0:0,0:0:0:0:
308,192,8921,1,2,0:0:0:0:
308,192,9012,1,2,0:0:0:0:
308,192,9103,2,0,L|416:200,1,90,2|2,0:0|0:0,0:0:0:0:
432,332,9467,1,8,0:0:0:0:
480,148,9649,1,2,0:0:0:0:
344,303,9830,6,0,P|276:304|196:228,1,180,4|8,0:0|0:0,0:0:0:0:
188,80,10376,1,8,0:0:0:0:
104,172,10558,2,0,P|59:174|21:197,1,90,2|0,0:0|0:0,0:0:0:0:
188,80,10921,2,0,P|280:84|336:32,1,135,10|0,0:0|0:0,0:0:0:0:
324,52,11285,6,0,L|332:148,1,90,2|0,0:0|0:0,0:0:0:0:
380,343,11649,1,10,0:0:0:0:
438,217,11831,1,2,0:0:0:0:
251,188,12013,1,2,0:0:0:0:
425,90,12194,1,0,0:0:0:0:
304,272,12376,2,0,P|237:274|178:306,1,135,10|0,0:0|0:0,0:0:0:0:
116,355,12739,6,0,P|71:358|29:342,1,90,12|2,0:0|0:0,0:0:0:0:
112,143,13103,1,10,0:0:0:0:
28,262,13285,1,2,0:0:0:0:
224,228,13467,5,12,0:0:0:0:
28,164,13649,1,2,0:0:0:0:
156,360,13830,1,10,0:0:0:0:
132,92,14012,1,4,0:0:0:0:
116,72,14558,6,0,L|132:256,1,180
156,360,15103,5,2,0:0:0:0:
174,336,15194,1,2,0:0:0:0:
197,317,15285,1,8,0:0:0:0:
224,303,15376,1,8,0:0:0:0:
252,294,15467,1,8,0:0:0:0:
282,291,15558,1,8,0:0:0:0:
312,294,15649,6,0,P|408:248|432:200,1,135
421,227,16012,1,8,0:0:0:0:
372,72,16194,2,0,B|312:80|248:104|196:140,1,180,10|0,0:0|0:0,0:0:0:0:
64,176,16739,1,8,0:0:0:0:
112,84,16921,1,0,0:0:0:0:
156,240,17103,6,0,L|184:344,1,90,2|0,0:0|0:0,0:0:0:0:
64,176,17467,1,8,0:0:0:0:
272,256,17649,2,0,P|352:240|396:152,1,180,10|2,0:0|0:0,0:0:0:0:
392,48,18194,1,2,0:0:0:0:
292,152,18376,1,2,0:0:0:0:
488,104,18558,6,0,L|480:276,1,135,2|0,0:0|0:0,0:0:0:0:
481,238,18921,1,8,0:0:0:0:
275,339,19103,2,0,P|340:330|388:232,1,180,10|0,0:0|0:0,0:0:0:0:
376,104,19649,1,8,0:0:0:0:
284,188,19830,1,0,0:0:0:0:
148,40,20012,1,2,0:0:0:0:
176,144,20194,1,2,0:0:0:0:
376,104,20376,1,10,0:0:0:0:
376,104,20739,5,2,0:0:0:0:
176,144,20921,1,2,0:0:0:0:
336,328,21103,1,2,0:0:0:0:
352,344,21467,6,0,L|328:144,1,180,4|10,0:0|0:0,0:0:0:0:
148,256,22012,2,0,P|183:282|226:295,1,90,2|0,0:0|0:0,0:0:0:0:
176,128,22376,2,0,P|133:115|88:117,1,90,2|8,0:0|0:0,0:0:0:0:
256,224,22739,6,0,P|316:208|352:92,1,180,2|2,0:0|0:0,0:0:0:0:
352,97,23194,1,2,0:0:0:0:
348,89,23285,2,0,L|439:75,1,90,10|2,0:0|0:0,0:0:0:0:
232,61,23649,2,0,L|144:48,1,90,2|0,0:0|0:0,0:0:0:0:
40,184,24012,1,10,0:0:0:0:
60,64,24194,1,0,0:0:0:0:
146,186,24376,6,0,P|113:266|30:297,1,180,2|10,0:0|0:0,0:0:0:0:
257,240,24921,2,0,P|343:221|420:264,1,180,2|2,0:0|0:0,0:0:0:0:
424,270,25376,1,2,0:0:0:0:
428,276,25467,2,0,L|401:376,1,90,10|2,0:0|0:0,0:0:0:0:
352,192,25830,6,0,L|344:92,1,90,0|2,0:0|0:0,0:0:0:0:
408,24,26194,1,10,0:0:0:0:
243,124,26376,2,0,P|192:114|140:84,1,90,2|0,0:0|0:0,0:0:0:0:
344,102,26739,2,0,P|388:111|422:140,1,90,2|10,0:0|0:0,0:0:0:0:
296,260,27103,1,2,0:0:0:0:
296,260,27194,1,2,0:0:0:0:
296,260,27285,6,0,P|201:269|121:181,1,180,2|10,0:0|0:0,0:0:0:0:
64,120,27830,1,0,0:0:0:0:
16,232,28012,2,0,P|15:277|25:321,1,90,2|0,0:0|0:0,0:0:0:0:
64,120,28376,1,10,0:0:0:0:
16,233,28558,1,0,0:0:0:0:
116,332,28739,6,0,B|155:333|184:336|184:336|195:334|195:334|212:337|212:337|242:341|301:328,1,180,2|8,0:0|0:0,0:0:0:0:
360,208,29285,2,0,B|312:160|244:172|244:172|250:224,1,180,2|0,0:0|0:0,0:0:0:0:
348,344,29830,1,10,0:0:0:0:
216,308,30012,1,0,0:0:0:0:
348,344,30194,6,0,P|392:338|430:315,1,90,2|0,0:0|0:0,0:0:0:0:
371,121,30558,2,0,P|356:163|360:208,1,90,10|0,0:0|0:0,0:0:0:0:
464,180,30921,1,2,0:0:0:0:
392,32,31103,1,0,0:0:0:0:
496,72,31285,1,10,0:0:0:0:
359,208,31467,6,0,P|272:210|207:151,1,180,4|2,0:0|0:0,0:0:0:0:
232,36,32012,1,2,0:0:0:0:
311,104,32194,1,2,0:0:0:0:
392,32,32376,1,2,0:0:0:0:
207,151,32558,1,2,0:0:0:0:
360,208,32739,5,8,0:0:0:0:
360,208,32830,1,8,0:0:0:0:
360,208,32921,1,8,0:0:0:0:
360,208,33012,1,8,0:0:0:0:
360,208,33103,6,0,B|424:228|424:228|448:181|424:108,1,180,4|10,0:0|0:0,0:0:0:0:
225,164,33649,2,0,P|211:213|208:263,1,90,2|0,0:0|0:0,0:0:0:0:
319,68,34012,1,2,0:0:0:0:
225,164,34194,1,8,0:0:0:0:
304,276,34376,6,0,P|390:286|448:222,1,180,2|2,0:0|0:0,0:0:0:0:
456,208,34830,1,2,0:0:0:0:
460,192,34921,2,0,L|456:96,1,90,10|2,0:0|0:0,0:0:0:0:
360,208,35285,1,2,0:0:0:0:
232,156,35467,1,0,0:0:0:0:
332,92,35649,1,10,0:0:0:0:
248,256,35830,1,0,0:0:0:0:
380,195,36012,6,0,P|420:271|378:346,1,180,2|10,0:0|0:0,0:0:0:0:
263,233,36558,2,0,L|248:137,1,90,2|0,0:0|0:0,0:0:0:0:
382,62,36921,1,2,0:0:0:0:
382,62,37012,1,2,0:0:0:0:
382,62,37103,2,0,P|411:97|432:137,1,90,10|2,0:0|0:0,0:0:0:0:
352,320,37467,6,0,P|324:280|320:232,1,90,0|2,0:0|0:0,0:0:0:0:
236,164,37830,1,10,0:0:0:0:
188,356,38012,2,0,P|140:332|104:288,1,90,2|0,0:0|0:0,0:0:0:0:
116,164,38376,2,0,L|20:156,1,90,2|10,0:0|0:0,0:0:0:0:
236,164,38739,1,10,0:0:0:0:
236,164,38830,1,8,0:0:0:0:
236,164,38921,6,0,L|344:156,1,90,0|0,0:0|0:0,0:0:0:0:
472,112,39285,1,8,0:0:0:0:
376,48,39467,1,0,0:0:0:0:
436,216,39649,2,0,P|446:259|448:304,1,90,2|0,0:0|0:0,0:0:0:0:
236,164,40012,2,0,P|237:119|248:75,1,90,10|0,0:0|0:0,0:0:0:0:
327,236,40376,6,0,P|259:288|171:264,1,180,2|8,0:0|0:0,0:0:0:0:
60,132,40921,2,0,P|73:223|79:310,1,180,2|0,0:0|0:0,0:0:0:0:
201,258,41467,2,0,P|261:229|328:236,1,135,10|0,0:0|0:0,0:0:0:0:
400,272,41830,6,0,B|496:252,1,90,2|0,0:0|0:0,0:0:0:0:
318,145,42194,1,10,0:0:0:0:
400,272,42376,1,0,0:0:0:0:
443,143,42558,2,0,P|444:93|443:39,1,90,2|0,0:0|0:0,0:0:0:0:
293,119,42921,1,10,0:0:0:0:
288,308,43103,6,0,P|212:292|156:180,1,180,4|0,0:0|0:0,0:0:0:0:
192,104,43649,1,8,0:0:0:0:
392,48,43830,2,0,L|412:264,1,180,4|0,0:0|0:0,0:0:0:0:
301,303,44376,5,8,0:0:0:0:
270,291,44467,1,8,0:0:0:0:
236,287,44558,1,8,0:0:0:0:
203,292,44649,1,8,0:0:0:0:
172,303,44739,6,0,P|110:306|64:272,1,94.499997116089,4|0,0:0|0:0,0:0:0:0:
36,232,45103,2,0,L|32:160,1,62.9999980773926,2|0,0:0|0:0,0:0:0:0:
136,216,45467,1,2,0:0:0:0:
100,116,45649,1,0,0:0:0:0:
136,216,45830,1,8,0:0:0:0:
200,140,46012,6,0,P|268:116|332:152,2,125.999996154785,2|2|2,0:0|0:0|0:0,0:0:0:0:
136,216,46921,1,2,0:0:0:0:
216,281,47103,1,0,0:0:0:0:
136,216,47285,1,8,0:0:0:0:
76,304,47467,6,0,L|88:376,1,62.9999980773926,2|2,0:0|0:0,0:0:0:0:
136,216,48012,1,0,0:0:0:0:
200,140,48194,2,0,L|188:68,1,62.9999980773926,2|2,0:0|0:0,0:0:0:0:
392,92,48739,1,8,0:0:0:0:
328,171,48921,6,0,P|335:233|378:277,2,125.999996154785,2|2|2,0:0|0:0|0:0,0:0:0:0:
472,200,49830,1,2,0:0:0:0:
379,277,50012,1,8,0:0:0:0:
328,171,50194,1,8,0:0:0:0:
216,208,50376,1,8,0:3:0:0:
188,311,50558,6,0,P|131:338|84:336,1,94.499997116089,4|0,0:0|0:0,0:0:0:0:
36,296,50921,2,0,L|26:233,1,62.9999980773926,2|0,0:0|0:0,0:0:0:0:
91,108,51285,2,0,L|115:189,1,62.9999980773926,2|0,0:0|0:0,0:0:0:0:
220,52,51649,1,8,0:0:0:0:
308,100,51830,6,0,P|369:94|417:55,2,125.999996154785,2|2|2,0:0|0:0|0:0,0:0:0:0:
220,52,52739,2,0,B|136:48,1,62.9999980773926,2|0,0:0|0:0,0:0:0:0:
60,48,53103,1,8,0:0:0:0:
40,144,53285,1,8,0:0:0:0:
38,150,53376,1,8,0:0:0:0:
36,156,53467,6,0,P|51:240|120:268,1,135,4|0,0:0|0:0,0:0:0:0:
167,223,53830,2,0,P|211:215|255:219,1,90,8|8,0:0|0:0,0:0:0:0:
341,337,54194,1,2,0:0:0:0:
341,192,54376,1,0,0:0:0:0:
256,310,54558,1,10,0:0:0:0:
394,264,54739,6,0,P|433:188|386:116,1,180,2|0,0:0|0:0,0:0:0:0:
256,220,55285,1,10,0:0:0:0:
272,52,55467,1,8,0:0:0:0:
173,95,55649,2,0,P|127:87|64:84,1,90,2|0,0:0|0:0,0:0:0:0:
359,115,56012,2,0,P|400:112|464:100,1,90,10|0,0:0|0:0,0:0:0:0:
272,52,56376,5,10,0:0:0:0:
348,222,56558,1,0,0:0:0:0:
264,160,56739,1,8,0:0:0:0:
359,115,56921,1,0,0:0:0:0:
162,203,57103,1,8,0:0:0:0:
173,95,57285,1,0,0:0:0:0:
359,115,57467,1,10,0:0:0:0:
249,266,57649,1,0,0:0:0:0:
272,52,57830,5,10,0:0:0:0:
85,140,58012,2,0,P|40:139|-1:121,1,90,2|2,0:0|0:0,0:0:0:0:
196,16,58376,5,8,0:0:0:0:
162,218,58558,2,0,P|159:262|173:305,1,90,2|2,0:0|0:0,0:0:0:0:
112,36,58921,5,8,0:0:0:0:
267,247,59103,2,0,P|311:249|354:235,1,90,2|4,0:0|0:0,0:0:0:0:
440,80,59649,6,0,L|420:276,1,180
344,340,60194,2,0,L|352:372,4,22.5,2|2|2|2|10,0:0|0:0|0:0|0:0|0:0,0:0:0:0:
232,332,60558,1,8,0:0:0:0:
232,332,60649,1,8,0:0:0:0:
232,332,60739,6,0,P|166:332|119:280,1,135,4|0,0:0|0:0,0:0:0:0:
96,212,61103,2,0,L|-12:200,1,90,10|10,0:0|0:0,0:0:0:0:
160,144,61467,1,2,0:0:0:0:
24,296,61649,1,0,0:0:0:0:
196,264,61830,1,10,0:0:0:0:
87,191,62012,6,0,P|47:115|86:37,1,180,2|2,0:0|0:0,0:0:0:0:
308,88,62558,1,10,0:0:0:0:
216,152,62739,1,10,0:0:0:0:
216,40,62921,1,2,0:0:0:0:
308,88,63103,1,0,0:0:0:0:
152,240,63285,1,10,0:0:0:0:
140,248,63649,6,0,L|50:241,1,90,2|0,0:0|0:0,0:0:0:0:
212,128,64012,2,0,L|301:121,1,90,10|8,0:0|0:0,0:0:0:0:
100,128,64376,2,0,P|56:92|48:28,1,90,2|0,0:0|0:0,0:0:0:0:
28,224,64739,2,0,L|36:316,1,90,10|0,0:0|0:0,0:0:0:0:
240,264,65103,6,0,B|192:192|114:214|114:214|116:256,1,180,2|8,0:0|0:0,0:0:0:0:
232,348,65649,1,2,0:0:0:0:
236,352,65739,1,2,0:0:0:0:
240,356,65830,2,0,L|336:348,1,90,2|2,0:0|0:0,0:0:0:0:
148,356,66194,2,0,L|52:348,1,90,10|2,0:0|0:0,0:0:0:0:
393,236,66558,6,0,P|310:211|240:263,1,180,4|10,0:0|0:0,0:0:0:0:
392,364,67103,1,8,0:0:0:0:
466,304,67285,2,0,P|484:264|488:216,1,90,2|0,0:0|0:0,0:0:0:0:
500,100,67649,2,0,P|448:140|378:133,1,135,10|0,0:0|0:0,0:0:0:0:
316,88,68012,6,0,P|291:83|216:96,1,90,2|0,0:0|0:0,0:0:0:0:
76,128,68376,1,10,0:0:0:0:
172,168,68558,1,8,0:0:0:0:
156,60,68739,1,2,0:0:0:0:
88,228,68921,1,0,0:0:0:0:
272,196,69103,1,10,0:0:0:0:
280,204,69467,5,2,0:0:0:0:
352,104,69649,1,2,0:0:0:0:
380,264,69830,1,10,0:0:0:0:
264,112,70012,1,10,0:0:0:0:
424,156,70194,1,2,0:0:0:0:
304,292,70376,1,2,0:0:0:0:
184,188,70558,1,10,0:0:0:0:
305,31,70739,6,0,P|365:19|433:111,1,180,4|0,0:0|0:0,0:0:0:0:
292,176,71285,2,0,L|180:160,1,90,10|12,0:0|0:0,0:0:0:0:
352,104,71649,1,2,0:0:0:0:
432,232,71830,1,2,0:0:0:0:
308,332,72012,5,10,0:0:0:0:
304,336,72103,1,8,0:0:0:0:
300,340,72194,1,8,0:0:0:0:
296,344,72285,1,8,0:0:0:0:
292,348,72376,6,0,P|220:344|160:300,1,135,4|0,0:0|0:0,0:0:0:0:
144,240,72739,2,0,L|136:144,1,90,10|10,0:0|0:0,0:0:0:0:
128,28,73103,1,2,0:0:0:0:
212,140,73285,1,0,0:0:0:0:
40,96,73467,1,10,0:0:0:0:
227,43,73649,6,0,P|299:93|298:179,1,180,2|2,0:0|0:0,0:0:0:0:
208,256,74194,1,10,0:0:0:0:
212,140,74376,1,10,0:0:0:0:
298,179,74558,1,2,0:0:0:0:
116,180,74739,1,0,0:0:0:0:
323,165,74921,1,10,0:0:0:0:
120,272,75285,6,0,L|125:361,1,90,2|0,0:0|0:0,0:0:0:0:
264,168,75649,2,0,L|258:78,1,90,10|8,0:0|0:0,0:0:0:0:
228,280,76012,2,0,P|280:296|340:272,1,90,2|0,0:0|0:0,0:0:0:0:
479,180,76376,2,0,P|434:173|393:188,1,90,10|0,0:0|0:0,0:0:0:0:
358,352,76739,6,0,P|403:275|393:187,1,180,2|8,0:0|0:0,0:0:0:0:
320,80,77285,1,2,0:0:0:0:
316,76,77376,1,2,0:0:0:0:
312,72,77467,2,0,L|204:68,1,90,2|2,0:0|0:0,0:0:0:0:
112,180,77830,1,10,0:0:0:0:
148,64,78012,1,2,0:0:0:0:
216,184,78194,6,0,P|210:270|144:332,1,180,4|8,0:0|0:0,0:0:0:0:
40,264,78739,1,8,0:0:0:0:
102,92,78921,2,0,P|114:135|112:180,1,90,2|0,0:0|0:0,0:0:0:0:
32,32,79285,2,0,P|92:59|157:46,1,135,10|0,0:0|0:0,0:0:0:0:
228,20,79649,6,0,B|256:12|256:12|332:24,1,90,2|0,0:0|0:0,0:0:0:0:
448,172,80012,1,10,0:0:0:0:
352,108,80194,1,8,0:0:0:0:
500,72,80376,1,2,0:0:0:0:
408,16,80558,1,0,0:0:0:0:
352,204,80739,1,10,0:0:0:0:
360,215,81103,6,0,P|294:218|243:175,1,135,12|0,0:0|0:0,0:0:0:0:
208,104,81467,2,0,L|116:96,1,90,10|2,0:0|0:0,0:0:0:0:
24,192,81830,1,12,0:0:0:0:
132,328,82012,1,10,0:0:0:0:
128,176,82194,1,8,0:0:0:0:
8,360,82376,1,4,0:0:0:0:
128,176,82921,5,0,0:0:0:0:
240,324,83285,5,8,0:0:0:0:
269,340,83376,1,8,0:0:0:0:
301,349,83467,1,8,0:0:0:0:
335,349,83558,1,8,0:0:0:0:
367,341,83649,1,8,0:0:0:0:
397,324,83739,1,8,0:0:0:0:
420,300,83830,1,8,0:0:0:0:
437,271,83921,1,8,0:0:0:0:
446,239,84012,6,0,L|440:84,1,135,4|0,0:0|0:0,0:0:0:0:
440,104,84376,1,8,0:0:0:0:
296,180,84558,2,0,P|229:182|160:90,1,180,2|2,0:0|0:0,0:0:0:0:
268,74,85103,1,10,0:0:0:0:
396,144,85285,1,0,0:0:0:0:
336,272,85467,6,0,P|328:324|336:364,1,90
424,320,85830,1,8,0:0:0:0:
216,240,86012,2,0,P|136:268|120:344,1,135,10|0,0:0|0:0,0:0:0:0:
123,344,86376,1,2,0:0:0:0:
64,148,86558,2,0,L|48:40,1,90,10|2,0:0|0:0,0:0:0:0:
240,40,86921,6,0,P|229:105|140:148,1,135,2|0,0:0|0:0,0:0:0:0:
146,151,87285,1,8,0:0:0:0:
348,84,87467,2,0,P|433:94|464:184,1,180,10|0,0:0|0:0,0:0:0:0:
376,308,88012,1,8,0:0:0:0:
240,176,88194,1,0,0:0:0:0:
372,192,88376,1,2,0:0:0:0:
248,336,88558,1,2,0:0:0:0:
472,248,88739,1,10,0:0:0:0:
176,64,89103,5,2,0:0:0:0:
168,292,89285,1,2,0:0:0:0:
372,192,89467,1,2,0:0:0:0:
240,176,89649,6,0,L|232:140,3,30,2|2|2|2,0:0|0:0|0:0|0:0,0:0:0:0:
120,264,91467,5,8,0:0:0:0:
120,264,91558,1,8,0:0:0:0:
120,264,91649,1,8,0:0:0:0:
80,360,91830,2,0,L|52:160,1,180,4|0,0:0|0:0,0:0:0:0:
124,52,92376,5,10,0:0:0:0:
140,81,92467,1,8,0:0:0:0:
166,101,92558,1,8,0:0:0:0:
199,110,92649,1,8,0:0:0:0:
232,105,92739,6,0,P|276:100|317:82,1,90,4|0,0:0|0:0,0:0:0:0:
376,16,93103,1,10,0:0:0:0:
296,200,93285,2,0,P|284:268|348:364,1,180,2|2,0:0|0:0,0:0:0:0:
163,255,93830,2,0,P|119:260|82:285,1,90,10|2,0:0|0:0,0:0:0:0:
156,352,94194,5,0,0:0:0:0:
260,280,94376,2,0,L|268:172,1,90,2|10,0:0|0:0,0:0:0:0:
419,76,94739,2,0,P|338:108|264:63,1,180,2|2,0:0|0:0,0:0:0:0:
344,16,95285,1,10,0:0:0:0:
172,96,95467,1,2,0:0:0:0:
172,96,95558,1,2,0:0:0:0:
172,96,95649,6,0,P|116:112|36:32,1,180,2|8,0:0|0:0,0:0:0:0:
48,196,96194,1,0,0:0:0:0:
144,272,96376,2,0,P|200:276|252:292,1,90,2|0,0:0|0:0,0:0:0:0:
348,356,96739,2,0,L|353:266,1,90,10|0,0:0|0:0,0:0:0:0:
456,152,97103,6,0,P|372:88|280:112,1,180,2|8,0:0|0:0,0:0:0:0:
244,280,97649,2,0,P|320:344|420:320,1,180,2|0,0:0|0:0,0:0:0:0:
332,156,98194,2,0,L|344:248,1,90,10|0,0:0|0:0,0:0:0:0:
232,184,98558,6,0,P|240:112|308:60,1,135,2|0,0:0|0:0,0:0:0:0:
360,64,98921,2,0,P|408:60|448:28,1,90,10|0,0:0|0:0,0:0:0:0:
480,192,99285,2,0,L|496:316,1,90,2|0,0:0|0:0,0:0:0:0:
416,128,99649,1,10,0:0:0:0:
304,304,99830,6,0,P|220:312|160:212,1,180,4|2,0:0|0:0,0:0:0:0:
256,220,100376,1,2,0:0:0:0:
72,200,100558,1,2,0:0:0:0:
128,344,100739,1,2,0:0:0:0:
152,128,100921,1,2,0:0:0:0:
256,220,101103,5,8,0:0:0:0:
287,232,101194,1,8,0:0:0:0:
320,234,101285,1,8,0:0:0:0:
353,226,101376,1,8,0:0:0:0:
382,209,101467,6,0,P|468:208|508:284,1,180,4|10,0:0|0:0,0:0:0:0:
344,372,102012,2,0,P|299:375|257:360,1,90,2|0,0:0|0:0,0:0:0:0:
81,211,102376,2,0,P|123:196|168:200,1,90,2|8,0:0|0:0,0:0:0:0:
307,283,102739,6,0,P|220:270|167:199,1,180,2|2,0:0|0:0,0:0:0:0:
136,132,103194,1,2,0:0:0:0:
132,128,103285,2,0,L|24:116,1,90,10|2,0:0|0:0,0:0:0:0:
216,48,103649,2,0,L|305:38,1,90,2|0,0:0|0:0,0:0:0:0:
408,180,104012,1,10,0:0:0:0:
404,20,104194,1,0,0:0:0:0:
260,168,104376,6,0,P|256:255|318:317,1,180,2|10,0:0|0:0,0:0:0:0:
346,110,104921,2,0,P|267:71|182:95,1,180,2|2,0:0|0:0,0:0:0:0:
176,98,105376,1,2,0:0:0:0:
169,100,105467,2,0,P|128:84|101:48,1,90,10|2,0:0|0:0,0:0:0:0:
40,148,105830,5,0,0:0:0:0:
120,280,106012,2,0,P|114:324|88:360,1,90,2|10,0:0|0:0,0:0:0:0:
35,228,106376,2,0,P|111:183|193:212,1,180,2|2,0:0|0:0,0:0:0:0:
256,336,106921,1,10,0:0:0:0:
328,232,107103,1,10,0:0:0:0:
328,232,107194,1,8,0:0:0:0:
328,232,107285,6,0,L|324:132,1,90,0|0,0:0|0:0,0:0:0:0:
320,28,107649,1,8,0:0:0:0:
408,104,107830,1,0,0:0:0:0:
244,100,108012,2,0,P|200:76|176:24,1,90,2|0,0:0|0:0,0:0:0:0:
320,28,108376,2,0,L|326:117,1,90,10|0,0:0|0:0,0:0:0:0:
296,258,108739,6,0,P|298:169|244:100,1,180,2|8,0:0|0:0,0:0:0:0:
212,316,109285,2,0,P|272:352|380:312,1,180,2|0,0:0|0:0,0:0:0:0:
460,168,109830,2,0,L|472:272,1,90,10|0,0:0|0:0,0:0:0:0:
296,256,110194,6,0,P|232:232|192:136,1,135,4|0,0:0|0:0,0:0:0:0:
160,112,110558,2,0,P|136:100|72:108,1,90,8|0,0:0|0:0,0:0:0:0:
112,248,110921,1,10,0:0:0:0:
288,168,111103,1,8,0:0:0:0:
160,112,111285,1,10,0:0:0:0:
375,194,111467,6,0,P|442:189|459:84,1,180,4|0,0:0|0:0,0:0:0:0:
286,92,112012,1,8,0:0:0:0:
240,256,112194,2,0,P|324:264|392:336,1,180,4|0,0:0|0:0,0:0:0:0:
480,216,112739,2,0,L|516:152,1,45,8|8,0:0|0:0,0:0:0:0:
392,168,112921,2,0,L|412:104,1,45,8|8,0:0|0:0,0:0:0:0:
304,112,113103,6,0,P|261:109|208:124,1,94.499997116089,4|0,0:0|0:0,0:0:0:0:
184,192,113467,2,0,L|116:184,1,62.9999980773926,2|2,0:0|0:0,0:0:0:0:
20,172,113830,2,0,P|17:107|68:121,1,125.999996154785,2|8,0:0|0:0,0:0:0:0:
48,264,114376,6,0,P|88:311|147:329,2,125.999996154785,2|2|2,0:0|0:0|0:0,0:0:0:0:
144,232,115285,2,0,P|153:173|94:182,1,125.999996154785,2|8,0:0|0:0,0:0:0:0:
232,172,115830,6,0,L|312:184,1,62.9999980773926,2|2,0:0|0:0,0:0:0:0:
492,228,116376,1,0,0:0:0:0:
416,296,116558,2,0,L|332:300,1,62.9999980773926,2|2,0:0|0:0,0:0:0:0:
152,320,117103,1,8,0:0:0:0:
88,244,117285,6,0,P|81:183|56:108,2,125.999996154785,2|2|2,0:0|0:0|0:0,0:0:0:0:
152,320,118194,1,2,0:0:0:0:
224,184,118376,1,8,0:0:0:0:
348,356,118558,1,8,0:0:0:0:
476,224,118739,1,8,0:3:0:0:
344,188,118921,6,0,P|308:157|291:114,1,94.499997116089,4|0,0:0|0:0,0:0:0:0:
276,40,119285,2,0,L|200:36,1,62.9999980773926,2|2,0:0|0:0,0:0:0:0:
102,43,119649,2,0,P|109:105|149:77,1,125.999996154785,2|8,0:0|0:0,0:0:0:0:
45,155,120194,6,0,P|34:220|41:291,2,125.999996154785,2|2|2,0:0|0:0|0:0,0:0:0:0:
102,43,121103,1,2,0:0:0:0:
408,76,121467,5,8,0:0:0:0:
408,76,121558,1,8,0:0:0:0:
408,76,121649,1,8,0:0:0:0:
408,76,121739,1,8,0:0:0:0:
408,76,121830,6,0,L|436:244,1,135,4|0,0:0|0:0,0:0:0:0:
484,264,122194,2,0,P|443:283|399:277,1,90,8|8,0:0|0:0,0:0:0:0:
304,188,122558,1,2,0:0:0:0:
256,304,122739,1,0,0:0:0:0:
184,212,122921,1,10,0:0:0:0:
264,320,123103,6,0,P|353:322|423:268,1,180,2|0,0:0|0:0,0:0:0:0:
380,88,123649,1,10,0:0:0:0:
468,192,123830,1,8,0:0:0:0:
296,160,124012,2,0,P|244:164|196:160,1,90,2|0,0:0|0:0,0:0:0:0:
390,276,124376,2,0,P|435:276|480:280,1,90,10|0,0:0|0:0,0:0:0:0:
456,116,124739,5,10,0:0:0:0:
384,184,124921,1,0,0:0:0:0:
480,280,125103,5,8,0:0:0:0:
468,192,125285,1,0,0:0:0:0:
304,208,125467,5,8,0:0:0:0:
396,360,125649,1,0,0:0:0:0:
384,80,125830,5,10,0:0:0:0:
232,296,126012,1,0,0:0:0:0:
468,192,126194,5,8,0:0:0:0:
220,128,126376,2,0,P|175:133|137:156,1,90,2|2,0:0|0:0,0:0:0:0:
456,116,126739,5,8,0:0:0:0:
204,212,126921,2,0,P|168:239|146:278,1,90,2|2,0:0|0:0,0:0:0:0:
384,80,127285,5,8,0:0:0:0:
137,156,127467,2,0,P|93:162|50:147,1,90,2|4,0:0|0:0,0:0:0:0:
100,84,127739,2,0,P|144:78|186:93,1,90,8|8,0:0|0:0,0:0:0:0:
217,102,128012,5,10,0:0:0:0:
247,108,128103,1,8,0:0:0:0:
278,108,128194,1,8,0:0:0:0:
309,103,128285,1,8,0:0:0:0:
338,91,128376,1,10,0:0:0:0:
364,74,128467,1,8,0:0:0:0:
393,64,128558,5,8,0:0:0:0:
424,63,128649,1,8,0:0:0:0:
454,72,128739,2,0,P|504:111|515:170,1,120,8|0,0:0|0:0,0:0:0:0:
489,247,129103,6,0,P|425:263|382:314,1,135,4|0,0:0|0:0,0:0:0:0:
312,334,129467,2,0,L|212:326,1,90,10|10,0:0|0:0,0:0:0:0:
120,164,129830,1,2,0:0:0:0:
134,339,130012,1,0,0:0:0:0:
233,197,130194,1,10,0:0:0:0:
60,260,130376,6,0,P|29:227|15:184,2,90,2|2|2,0:0|0:0|0:0,0:0:0:0:
224,280,130921,1,10,0:0:0:0:
192,132,131103,1,10,0:0:0:0:
136,232,131285,1,2,0:0:0:0:
285,162,131467,1,0,0:0:0:0:
100,152,131649,1,10,0:0:0:0:
80,144,132012,6,0,L|72:248,1,90,2|0,0:0|0:0,0:0:0:0:
268,120,132376,2,0,L|261:30,1,90,10|8,0:0|0:0,0:0:0:0:
203,275,132739,2,0,P|218:318|239:358,1,90,2|0,0:0|0:0,0:0:0:0:
144,88,133103,2,0,P|103:68|58:63,1,90,10|0,0:0|0:0,0:0:0:0:
360,52,133467,6,0,P|368:136|456:180,1,180,2|8,0:0|0:0,0:0:0:0:
296,268,134012,1,2,0:0:0:0:
290,274,134103,1,2,0:0:0:0:
284,280,134194,2,0,L|176:292,1,90,2|2,0:0|0:0,0:0:0:0:
356,188,134558,1,10,0:0:0:0:
392,348,134739,1,2,0:0:0:0:
236,192,134921,6,0,L|101:207,1,135,4|0,0:0|0:0,0:0:0:0:
101,207,135285,1,10,0:0:0:0:
184,112,135467,1,8,0:0:0:0:
300,260,135649,2,0,L|396:248,1,90,2|0,0:0|0:0,0:0:0:0:
468,160,136012,1,10,0:0:0:0:
480,324,136194,1,0,0:0:0:0:
384,240,136376,6,0,P|373:197|368:152,1,90,2|0,0:0|0:0,0:0:0:0:
496,235,136739,2,0,P|491:280|480:324,1,90,10|8,0:0|0:0,0:0:0:0:
412,88,137103,2,0,P|452:76|512:84,1,90,2|0,0:0|0:0,0:0:0:0:
368,164,137467,1,10,0:0:0:0:
376,176,137830,5,2,0:0:0:0:
352,52,138012,1,2,0:0:0:0:
292,236,138194,1,10,0:0:0:0:
448,104,138376,1,10,0:0:0:0:
284,128,138558,1,0,0:0:0:0:
376,256,138739,1,2,0:0:0:0:
404,128,138921,1,10,0:0:0:0:
296,324,139103,6,0,P|216:320|152:236,1,180,4|0,0:0|0:0,0:0:0:0:
132,56,139649,1,10,0:0:0:0:
180,140,139830,1,4,0:0:0:0:
64,168,140012,1,2,0:0:0:0:
216,64,140194,1,2,0:0:0:0:
324,164,140376,5,10,0:0:0:0:
328,168,140467,1,8,0:0:0:0:
332,172,140558,1,8,0:0:0:0:
336,176,140649,1,8,0:0:0:0:
339,179,140739,6,0,P|402:201|464:177,1,135,4|0,0:0|0:0,0:0:0:0:
504,116,141103,2,0,B|496:20,1,90,10|10,0:0|0:0,0:0:0:0:
328,48,141467,1,2,0:0:0:0:
400,120,141649,1,0,0:0:0:0:
424,20,141830,1,10,0:0:0:0:
272,159,142012,6,0,P|187:182|115:133,1,180,2|2,0:0|0:0,0:0:0:0:
108,28,142558,1,10,0:0:0:0:
204,80,142739,1,10,0:0:0:0:
20,96,142921,1,2,0:0:0:0:
204,80,143103,1,0,0:0:0:0:
144,272,143285,1,10,0:0:0:0:
132,288,143649,6,0,L|224:300,1,90,2|0,0:0|0:0,0:0:0:0:
132,140,144012,2,0,L|221:128,1,90,10|8,0:0|0:0,0:0:0:0:
344,164,144376,1,2,0:0:0:0:
260,256,144558,1,0,0:0:0:0:
344,164,144739,2,0,P|340:128|328:60,1,90,10|0,0:0|0:0,0:0:0:0:
448,232,145103,6,0,P|392:299|306:292,1,180,2|8,0:0|0:0,0:0:0:0:
224,100,145649,1,2,0:0:0:0:
224,100,145739,1,2,0:0:0:0:
224,100,145830,1,2,0:0:0:0:
138,219,146012,1,2,0:0:0:0:
279,184,146194,1,10,0:0:0:0:
156,50,146376,1,2,0:0:0:0:
221,253,146558,6,0,P|305:268|364:204,1,180,4|8,0:0|0:0,0:0:0:0:
352,80,147103,1,8,0:0:0:0:
279,184,147285,1,2,0:0:0:0:
424,120,147467,1,0,0:0:0:0:
248,104,147649,1,10,0:0:0:0:
353,42,147830,1,0,0:0:0:0:
240,116,148012,6,0,L|151:99,1,90,2|0,0:0|0:0,0:0:0:0:
256,304,148376,2,0,L|167:320,1,90,10|8,0:0|0:0,0:0:0:0:
56,280,148739,1,2,0:0:0:0:
140,192,148921,1,0,0:0:0:0:
167,320,149103,1,10,0:0:0:0:
176,336,149467,5,12,0:0:0:0:
198,129,149649,1,2,0:0:0:0:
299,285,149830,1,10,0:0:0:0:
120,229,150012,1,2,0:0:0:0:
227,130,150194,5,12,0:0:0:0:
176,336,150376,1,10,0:0:0:0:
107,154,150558,1,10,0:0:0:0:
347,274,150739,1,4,0:0:0:0:
208,332,151285,5,0,0:0:0:0:
216,340,151649,6,0,L|268:332,3,45,8|8|8|8,0:0|0:0|0:0|0:0,0:0:0:0:
298,259,152012,2,0,L|309:209,3,45,8|8|8|8,0:0|0:0|0:0|0:0,0:0:0:0:
254,145,152376,5,4,0:0:0:0:
256,192,152467,12,4,155285,0:0:0:0:
116,104,161103,5,4,0:0:0:0:
320,348,161649,5,4,0:0:0:0:
408,72,162194,5,4,0:0:0:0:
156,288,162739,5,4,0:0:0:0:
416,216,163285,5,4,0:0:0:0:
292,128,163649,1,4,0:0:0:0:
236,320,164012,5,4,0:0:0:0:
88,160,164285,1,4,0:0:0:0:
256,64,164558,1,4,0:0:0:0:
336,172,164739,5,4,0:0:0:0:
128,72,165012,1,4,0:0:0:0:
128,288,165285,1,4,0:0:0:0:
208,184,165467,5,4,0:0:0:0:
336,172,166376,5,8,0:3:0:0:
404,256,166558,1,8,0:3:0:0:
448,152,166739,1,8,0:3:0:0:
300,276,166921,6,0,P|244:288|152:280,1,125.999996154785,4|2,0:0|0:0,0:0:0:0:
72,260,167467,1,2,0:0:0:0:
3,352,167649,2,0,P|65:342|126:356,1,125.999996154785,2|8,0:0|0:0,0:0:0:0:
272,364,168194,6,0,P|348:352|396:308,2,125.999996154785,2|2|2,0:0|0:0|0:0,0:0:0:0:
196,300,169103,1,2,0:0:0:0:
232,208,169285,1,0,0:0:0:0:
176,124,169467,1,8,0:0:0:0:
104,192,169649,6,0,L|36:204,1,62.9999980773926,2|2,0:0|0:0,0:0:0:0:
264,124,170194,1,0,0:0:0:0:
348,180,170376,2,0,L|440:164,1,62.9999980773926,2|2,0:0|0:0,0:0:0:0:
304,340,170921,1,8,0:0:0:0:
220,288,171103,6,0,P|172:284|92:304,2,125.999996154785,2|2|2,0:0|0:0|0:0,0:0:0:0:
304,340,172012,1,2,0:0:0:0:
312,160,172194,1,8,0:0:0:0:
408,288,172376,1,8,0:0:0:0:
416,132,172558,1,8,0:3:0:0:
256,236,172739,6,0,P|196:232|136:184,1,125.999996154785,4|2,0:0|0:0,0:0:0:0:
80,116,173285,1,2,0:0:0:0:
28,204,173467,2,0,L|44:348,1,125.999996154785,2|8,0:0|0:0,0:0:0:0:
168,312,174012,6,0,P|232:304|304:320,2,125.999996154785,2|2|2,0:0|0:0|0:0,0:0:0:0:
76,356,174921,1,2,0:0:0:0:
52,204,175285,5,8,0:0:0:0:
47,172,175376,1,8,0:0:0:0:
43,140,175467,1,8,0:0:0:0:
38,108,175558,1,8,0:0:0:0:
34,77,175649,6,0,B|76:52|124:64|124:64|156:24|228:32,1,180,4|12,0:0|0:0,0:0:0:0:
304,44,176194,1,0,0:0:0:0:
199,128,176376,2,0,P|185:170|176:216,1,90,2|0,0:0|0:0,0:0:0:0:
316,216,176739,1,10,0:0:0:0:
200,360,176921,6,0,P|128:348|88:256,1,180,2|0,0:0|0:0,0:0:0:0:
100,68,177467,1,2,0:0:0:0:
20,156,177649,1,0,0:0:0:0:
200,128,177830,2,0,L|304:116,1,90,2|0,0:0|0:0,0:0:0:0:
407,235,178194,2,0,L|308:248,1,90,10|0,0:0|0:0,0:0:0:0:
200,360,178558,5,4,0:0:0:0:
100,200,178739,1,0,0:0:0:0:
280,184,178921,1,0,0:0:0:0:
192,248,179103,5,4,0:0:0:0:
208,60,179285,1,0,0:0:0:0:
376,160,179467,1,0,0:0:0:0:
196,160,179649,5,4,0:0:0:0:
312,76,179830,1,0,0:0:0:0:
332,292,180012,5,4,0:0:0:0:
168,232,180194,2,0,P|112:244|68:280,1,90
256,340,180558,5,4,0:0:0:0:
224,160,180739,2,0,P|169:142|113:151,1,90,0|0,0:3|0:3,0:3:0:0:
172,320,181103,5,4,0:0:0:0:
312,200,181285,1,0,0:0:0:0:
96,152,181467,5,4,0:0:0:0:
312,76,181649,1,2,0:0:0:0:
280,312,181830,1,2,0:0:0:0:
184,60,182012,5,4,0:0:0:0:
420,184,182194,1,2,0:0:0:0:
192,324,182376,1,2,0:0:0:0:
312,76,182558,5,4,0:0:0:0:
355,360,182739,1,2,0:0:0:0:
108,237,182921,1,4,0:0:0:0:
192,224,184376,5,4,0:0:0:0:
224,192,185830,5,4,0:0:0:0:
256,160,187285,5,4,0:0:0:0:
288,128,188012,5,4,0:0:0:0:
320,96,188739,6,0,L|308:296,1,180,4|8,0:0|0:0,0:0:0:0:
136,220,189285,1,2,0:0:0:0:
136,220,189376,1,2,0:0:0:0:
136,220,189467,2,0,L|40:224,1,90,2|2,0:0|0:0,0:0:0:0:
198,124,189830,2,0,L|288:128,1,90,10|2,0:0|0:0,0:0:0:0:
468,232,190194,6,0,P|381:249|323:319,1,180,4|10,0:0|0:0,0:0:0:0:
224,276,190739,1,8,0:0:0:0:
80,344,190921,2,0,P|124:349|167:362,1,90,2|0,0:0|0:0,0:0:0:0:
300,348,191285,2,0,P|360:336|400:268,1,135,10|0,0:0|0:0,0:0:0:0:
400,204,191649,6,0,L|392:96,1,90,2|0,0:0|0:0,0:0:0:0:
184,120,192012,2,0,L|177:209,1,90,10|8,0:0|0:0,0:0:0:0:
256,48,192376,1,2,0:0:0:0:
96,92,192558,1,0,0:0:0:0:
263,183,192739,2,0,P|330:179|384:139,1,135,10|0,0:0|0:0,0:0:0:0:
424,72,193103,5,2,0:0:0:0:
472,228,193285,1,2,0:0:0:0:
308,84,193467,1,10,0:0:0:0:
356,304,193649,5,2,0:0:0:0:
376,172,193830,1,2,0:0:0:0:
244,276,194012,5,2,0:0:0:0:
456,340,194194,1,10,0:0:0:0:
284,176,194376,6,0,P|216:172|132:256,1,180,4|0,0:0|0:0,0:0:0:0:
168,352,194921,1,10,0:0:0:0:
32,224,195103,1,4,0:0:0:0:
44,348,195285,1,2,0:0:0:0:
144,176,195467,1,2,0:0:0:0:
272,308,195649,5,10,0:0:0:0:
301,323,195739,1,8,0:0:0:0:
334,327,195830,1,8,0:0:0:0:
367,319,195921,1,8,0:0:0:0:
395,300,196012,6,0,P|436:240|512:212,1,135,4|0,0:0|0:0,0:0:0:0:
490,214,196376,2,0,P|465:177|457:133,1,90,10|10,0:0|0:0,0:0:0:0:
492,40,196739,1,2,0:0:0:0:
344,132,196921,1,0,0:0:0:0:
492,40,197103,1,10,0:0:0:0:
327,44,197285,6,0,P|406:79|423:164,1,180,2|2,0:0|0:0,0:0:0:0:
336,320,197830,1,8,0:0:0:0:
288,180,198012,1,10,0:0:0:0:
392,236,198194,1,2,0:0:0:0:
232,276,198376,1,0,0:0:0:0:
276,80,198558,1,10,0:0:0:0:
284,68,198921,6,0,L|168:80,1,90,2|0,0:0|0:0,0:0:0:0:
120,212,199285,1,10,0:0:0:0:
64,72,199467,1,8,0:0:0:0:
204,172,199649,2,0,L|293:162,1,90,2|0,0:0|0:0,0:0:0:0:
156,256,200012,1,10,0:0:0:0:
164,92,200194,1,0,0:0:0:0:
324,88,200376,6,0,P|379:152|345:231,1,180,2|8,0:0|0:0,0:0:0:0:
408,328,200921,1,2,0:0:0:0:
412,332,201012,1,2,0:0:0:0:
416,336,201103,2,0,L|508:328,1,90,2|2,0:0|0:0,0:0:0:0:
288,336,201467,2,0,L|196:328,1,90,10|2,0:0|0:0,0:0:0:0:
79,168,201830,6,0,P|168:161|241:210,1,180,4|8,0:0|0:0,0:0:0:0:
144,268,202376,1,8,0:0:0:0:
212,80,202558,1,2,0:0:0:0:
340,168,202739,1,0,0:0:0:0:
180,172,202921,1,10,0:0:0:0:
308,72,203103,1,0,0:0:0:0:
264,236,203285,6,0,P|279:277|309:325,1,90,2|0,0:0|0:0,0:0:0:0:
424,204,203649,1,10,0:0:0:0:
400,328,203830,1,8,0:0:0:0:
264,236,204012,2,0,L|156:244,1,90,2|0,0:0|0:0,0:0:0:0:
340,168,204376,1,10,0:0:0:0:
356,188,204739,5,12,0:0:0:0:
424,40,204921,1,2,0:0:0:0:
278,112,205103,1,10,0:0:0:0:
454,209,205285,1,2,0:0:0:0:
445,108,205467,5,12,0:0:0:0:
299,257,205649,1,10,0:0:0:0:
360,88,205830,1,10,0:0:0:0:
449,311,206012,1,4,0:0:0:0:
228,328,206558,5,0,0:0:0:0:
368,241,206921,5,8,0:0:0:0:
393,218,207011,1,8,0:0:0:0:
408,188,207102,1,8,0:0:0:0:
412,155,207193,1,8,0:0:0:0:
403,123,207284,1,8,0:0:0:0:
384,96,207375,1,8,0:0:0:0:
355,77,207466,1,8,0:0:0:0:
322,70,207557,1,8,0:0:0:0:
289,76,207649,6,0,P|200:89|112:36,1,180,4|10,0:0|0:0,0:0:0:0:
247,199,208194,2,0,P|259:287|209:359,1,180,10|0,0:0|0:0,0:0:0:0:
76,312,208739,1,8,0:0:0:0:
112,180,208921,1,2,0:0:0:0:
248,200,209103,6,0,L|364:184,1,90,0|2,0:0|0:0,0:0:0:0:
388,104,209467,1,8,0:0:0:0:
307,272,209649,2,0,P|224:294|160:236,1,180,10|2,0:0|0:0,0:0:0:0:
280,152,210194,1,10,0:0:0:0:
284,148,210285,1,2,0:0:0:0:
288,144,210376,1,2,0:0:0:0:
292,140,210467,1,2,0:0:0:0:
296,136,210558,6,0,L|430:129,1,135,4|0,0:0|0:0,0:0:0:0:
499,99,210921,2,0,P|504:144|485:184,1,90,10|10,0:0|0:0,0:0:0:0:
432,40,211285,1,2,0:0:0:0:
376,224,211467,2,0,L|284:228,1,90,2|10,0:0|0:0,0:0:0:0:
168,280,211830,6,0,P|256:260|344:312,1,180,2|0,0:0|0:0,0:0:0:0:
244,364,212376,1,10,0:0:0:0:
188,184,212558,1,2,0:0:0:0:
184,180,212649,1,2,0:0:0:0:
180,176,212739,2,0,L|84:184,1,90,2|2,0:0|0:0,0:0:0:0:
244,96,213103,1,8,0:0:0:0:
266,121,213193,1,8,0:0:0:0:
279,151,213284,1,8,0:0:0:0:
284,185,213375,1,8,0:0:0:0:
278,218,213467,6,0,P|360:180|472:209,1,180,4|10,0:0|0:0,0:0:0:0:
492,304,214012,1,10,0:0:0:0:
264,308,214194,2,0,P|308:304|343:276,1,90,2|2,0:0|0:0,0:0:0:0:
336,376,214558,1,10,0:0:0:0:
420,244,214739,6,0,P|416:168|400:68,1,135,2|0,0:0|0:0,0:0:0:0:
396,36,215103,2,0,P|352:56|336:104,1,90,2|8,0:0|0:0,0:0:0:0:
278,218,215467,1,2,0:0:0:0:
278,218,215558,1,2,0:0:0:0:
278,218,215649,2,0,L|178:226,1,90,2|2,0:0|0:0,0:0:0:0:
84,160,216012,1,10,0:0:0:0:
60,288,216194,1,2,0:0:0:0:
60,288,216285,1,2,0:0:0:0:
60,288,216376,6,0,P|81:341|101:381,1,90,4|2,0:0|0:0,0:0:0:0:
256,300,216739,2,0,P|211:303|167:313,1,90,10|2,0:0|0:0,0:0:0:0:
352,348,217103,1,10,0:0:0:0:
428,280,217285,2,0,L|432:176,1,90,10|8,0:0|0:3,0:0:0:0:
496,47,217649,6,0,P|417:89|331:72,1,180,6|0,0:0|0:0,0:0:0:0:
216,24,218194,1,8,0:0:0:0:
264,184,218376,2,0,P|222:261|137:283,1,180,4|0,0:0|0:0,0:0:0:0:
44,192,218921,1,8,0:0:0:0:
33,171,219011,1,8,0:0:0:0:
26,150,219102,1,8,0:0:0:0:
21,128,219193,1,8,0:0:0:0:
20,108,219285,6,0,P|104:92|208:80,1,180,4|8,0:0|0:0,0:0:0:0:
336,172,219830,2,0,P|248:164|156:188,1,180
96,292,220376,1,8,0:0:0:0:
216,248,220558,1,2,0:0:0:0:
196,364,220739,5,0,0:0:0:0:
320,292,220921,2,0,L|424:276,1,90,2|8,0:0|0:0,0:0:0:0:
496,336,221285,1,2,0:0:0:0:
418,198,221467,5,8,0:0:0:0:
415,191,221558,1,8,0:0:0:0:
412,184,221649,2,0,L|396:120,1,45,8|0,0:0|0:0,0:0:0:0:
448,64,221830,5,8,0:0:0:0:
417,50,221920,1,8,0:0:0:0:
383,48,222011,1,8,0:0:0:0:
352,60,222102,1,8,0:0:0:0:
327,83,222193,5,4,0:0:0:0:
256,192,222285,12,0,226649,0:0:0:0:
