osu file format v5

[General]
AudioFilename: Koi wa Mizuiro.mp3
AudioLeadIn: 0
PreviewTime: -1
Countdown: 1
SampleSet: Normal

[Metadata]
Title:Koi wa Mizuiro
Artist:Mizuiro Blood
Creator:aquabluu
Version:Normal

[Difficulty]
HPDrainRate:4
CircleSize:4
OverallDifficulty:5
SliderMultiplier:0.8
SliderTickRate:2

[Events]
//Background and Video events
0,0,"mizuiro.jpg"
//Break Periods
//Storyboard Layer 0 (Background)
//Storyboard Layer 1 (Failing)
//Storyboard Layer 2 (Passing)
//Storyboard Layer 3 (Foreground)
//Storyboard Sound Samples
//Background Colour Transformations
3,100,163,162,255

[TimingPoints]
13039,389.206019719772,4,1,0,100

[HitObjects]
96,64,19266,1,0
224,32,19655,2,2,B|288:96|224:128|288:224,1,200
480,256,21017,6,0,B|430:299|352:288,1,120
256,320,21990,1,0
128,256,22379,1,0
192,128,22769,1,2
64,64,23158,2,4,B|112:12|192:32,1,120
416,96,25104,5,0
288,64,25493,2,2,B|256:160|320:192|256:256,1,200
64,96,27245,6,0,B|134:53|224:64,1,160
128,224,28607,2,2,B|96:288|64:288,1,80
224,320,29385,1,0
352,288,29774,1,4
64,192,31720,5,0
192,160,32110,2,2,B|256:128|320:256|384:160,1,200
256,192,34056,5,4
256,192,34445,12,0,36391
128,96,38337,1,4
256,32,38726,5,4
384,96,39115,5,4
192,160,39505,5,0
352,192,39894,1,2
192,224,40283,1,0
352,256,40672,1,2
274,132,41061,2,2,B|276:300,1,160
208,319,42229,2,0,B|208:140,2,160
64,192,44564,5,0
96,64,44953,1,0
128,192,45343,1,0
160,64,45732,1,0
192,192,46121,1,2
224,64,46510,1,0
256,192,46899,1,2
288,64,47289,2,2,B|384:64|448:128,1,160
416,224,48456,2,0,B|384:128|288:128,2,160
32,64,50791,5,0
160,96,51181,1,2
32,128,51570,1,0
160,160,51959,1,2
32,192,52348,1,0
160,256,52738,2,6,B|288:128,1,160
352,64,53905,5,0
480,96,54294,1,2
352,128,54684,1,0
480,160,55073,1,2
352,192,55462,1,0
480,256,55851,2,6,B|352:384,1,160
256,320,57019,5,0
160,224,57408,1,0
256,128,57797,1,2
352,224,58186,1,2
192,288,58576,1,0
192,160,58965,1,0
320,160,59354,1,2
320,288,59743,1,2
192,224,60522,1,0
192,224,60911,2,4,B|192:96|256:192|288:96,2,160
64,96,63246,5,0
160,160,63635,1,0
256,224,64024,1,0
128,256,64414,1,0
160,128,64803,1,0
224,32,65192,1,4
480,288,66360,5,0
384,224,66749,1,0
288,160,67138,1,0
288,320,67527,1,0
384,224,67917,1,0
448,128,68306,1,4
96,64,69473,5,0
256,32,70252,1,0
416,64,71030,1,0
256,128,71809,1,2
256,128,72198,2,0,B|204:20|85:52|53:179|262:288|262:288|437:183|417:51|298:28|261:176,1,800
256,192,76479,12,0,81539
288,128,83096,5,0
224,32,83485,1,2
96,32,83874,1,2
32,128,84263,1,0
128,224,84652,2,0,C|192:288|256:256,1,160
320,160,85820,5,0
448,160,86209,2,2,C|512:224|480:288,1,160
352,320,87377,1,0
224,320,87766,1,0
64,224,88544,1,0
32,128,88934,1,4
96,32,89323,5,0
192,0,89712,1,2
288,32,90101,1,2
352,128,90490,1,0
288,224,90880,2,0,C|212:263|128:224,1,160
64,128,92047,5,0
160,64,92437,2,2,C|224:18|288:64,1,160
352,160,93604,1,0
480,192,93993,1,0
480,352,94772,1,2
352,320,95161,1,4
256,224,95550,5,0
160,288,95939,1,0
32,320,96329,1,0
32,192,96718,1,2
128,128,97107,2,4,C|128:64|192:32|192:64,2,160
224,160,99053,5,0
320,224,99442,1,2
480,64,100221,1,0
384,32,100610,1,0
288,64,100999,1,2
64,160,101777,1,0
32,256,102167,1,0
96,352,102556,1,2
320,352,103334,2,4,C|404:330|448:256,1,160
448,96,104891,5,0
256,64,106059,1,0
96,192,107226,1,2
352,320,108394,1,2
256,128,109562,1,4
