osu file format v5

[General]
AudioFilename: Koi wa Mizuiro.mp3
AudioLeadIn: 0
PreviewTime: -1
Countdown: 1
SampleSet: Normal

[Metadata]
Title:Koi wa Mizuiro
Artist:Mizuiro Blood
Creator:aquabluu
Version:Insane

[Difficulty]
HPDrainRate:5
CircleSize:6
OverallDifficulty:7
SliderMultiplier:1.3
SliderTickRate:4

[Events]
//Background and Video events
0,0,"mizuiro.jpg"
//Break Periods
//Storyboard Layer 0 (Background)
//Storyboard Layer 1 (Failing)
//Storyboard Layer 2 (Passing)
//Storyboard Layer 3 (Foreground)
//Storyboard Sound Samples
//Background Colour Transformations
3,100,163,162,255

[TimingPoints]
13039,389.206019719772,4,1,0,100

[HitObjects]
64,61,19266,5,0
104,68,19460,1,0
139,79,19655,2,2,B|208:99|205:160|36:181|51:235|192:318,1,325
244,220,21017,5,0
251,179,21212,1,0
259,141,21406,1,2
277,113,21601,2,2,B|324:40|386:135,1,130
390,148,22185,1,0
400,184,22379,1,2
403,211,22574,2,2,B|416:241|371:271,1,65
351,277,22963,1,0
316,265,23158,1,0
292,243,23352,1,0
268,221,23547,2,4,B|238:196|241:160,1,65
342,233,24715,5,0
237,258,25104,1,0
210,286,25298,1,2
182,259,25493,2,2,B|233:-92|303:310,1,390
425,28,27245,5,0
416,49,27439,1,0
403,77,27634,1,0
388,104,27828,1,0
377,123,28023,2,0,B|345:226|300:101,1,130
297,91,28607,2,0,B|260:-29|221:111,1,130
228,104,29191,2,0,B|186:236|140:36,1,195
133,19,29969,1,4
40,286,30942,5,0
72,272,31137,1,0
45,247,31331,1,2
105,186,31720,1,2
136,172,31915,1,2
140,210,32110,2,0,B|216:166|245:119|10:177,2,260
172,230,33861,1,0
205,231,34056,2,0,B|234:206|258:261,1,65
222,268,34445,1,4
256,192,34639,12,4,36391
128,96,38337,5,4
256,32,38726,5,4
384,96,39115,5,4
251,103,39505,6,0,B|192:128|178:153,1,65
168,161,39894,1,0
204,182,40088,1,2
204,182,40186,1,2
204,182,40283,1,2
177,209,40478,2,0,B|135:243|136:275,1,65
172,273,40867,1,0
172,273,40964,1,0
172,273,41061,2,0,B|255:310|308:271,2,130
196,228,42034,1,2
196,228,42132,1,2
196,228,42229,2,2,B|312:191|455:238,2,260
157,216,43980,5,0
122,184,44175,1,2
121,218,44370,1,0
159,184,44564,1,2
123,149,44759,1,0
156,114,44953,1,2
158,149,45148,1,0
120,115,45343,1,2
119,78,45537,1,0
119,78,45635,1,0
119,78,45732,2,0,B|46:100|36:182,4,130
134,47,47483,2,2,B|205:32|277:60,1,130
291,35,48067,1,2
301,70,48262,1,0
301,70,48359,1,0
301,70,48456,2,4,B|386:92|483:182|478:272,2,260
207,31,50402,5,0
179,61,50597,1,2
203,92,50791,1,0
242,92,50986,1,2
268,64,51181,1,0
243,31,51375,1,2
223,61,51570,1,0
181,87,51764,1,2
181,87,51862,1,2
181,87,51959,2,2,B|124:97|130:155,1,65
99,125,52348,2,0,B|97:156|144:175,1,65
136,216,52738,2,4,B|189:214|189:156,1,65
222,163,53127,5,0
254,199,53321,1,0
286,163,53516,1,0
321,164,53711,1,0
358,205,53905,1,0
357,165,54100,1,0
320,203,54294,1,0
284,202,54489,1,0
253,164,54684,1,0
212,202,54878,1,2
212,202,54975,1,2
212,202,55073,2,2,B|162:212|142:168,2,65
206,166,55657,2,0,B|195:134|151:133,1,65
115,133,56046,5,0
81,168,56240,1,2
80,133,56435,1,0
115,170,56630,1,2
81,168,56824,1,0
115,134,57019,1,2
80,133,57213,1,0
115,170,57408,1,2
144,206,57603,1,0
109,234,57797,1,0
109,234,57894,1,0
109,234,57992,1,0
109,234,58089,1,0
109,234,58186,1,0
248,235,58576,1,0
248,235,58673,1,0
248,235,58770,1,0
248,235,58868,1,0
248,235,58965,2,2,B|322:214|330:165,2,97.5
277,268,59743,2,0,B|201:278|208:330,2,97.5
300,295,60522,1,0
328,281,60716,1,0
334,317,60911,2,4,B|458:337|509:237|494:120|416:55|231:23|204:107,1,520
224,32,63246,5,0
128,64,63635,1,0
64,160,64024,1,0
192,128,64414,1,0
128,64,64803,1,0
32,32,65192,1,4
256,192,66360,5,0
352,224,66749,1,0
384,320,67138,1,0
256,288,67527,1,0
352,224,67917,1,0
448,192,68306,1,4
224,32,69473,5,0
150,79,69863,1,0
243,107,70252,1,0
172,40,70641,1,0
177,115,71030,1,0
224,15,71419,1,0
281,91,71809,1,0
258,188,72198,2,0,B|195:14|17:5|-14:211|-2:297|266:374|266:374|498:284|524:208|484:-4|314:5|259:264,1,1300
256,192,76479,12,0,81539
135,116,83096,5,0
154,92,83290,2,0,C|185:45|213:67,2,65
154,132,83874,2,0,C|172:173|204:148,2,65
193,96,84458,1,0
212,119,84652,1,0
233,85,84847,1,2
253,119,85042,1,2
253,119,85139,1,2
253,119,85236,1,2
286,100,85431,2,0,C|290:54|352:55|364:88,1,130
344,106,86015,1,0
380,135,86209,1,4
185,228,86793,5,0
149,255,86988,1,0
184,256,87182,1,0
220,258,87377,1,2
252,230,87571,1,2
252,230,87669,1,2
252,230,87766,2,2,C|220:193|265:163|291:188,1,130
301,197,88350,1,0
301,197,88447,1,0
301,197,88544,1,0
329,171,88739,1,0
313,144,88934,1,4
343,72,89323,5,0
316,48,89517,2,0,C|256:85,2,65
364,48,90101,2,0,C|434:82,2,65
334,16,90685,1,0
292,12,90880,1,0
292,12,90977,1,0
292,12,91074,1,0
254,29,91269,1,2
254,29,91366,1,2
254,29,91464,2,2,C|209:6|179:9|166:45|175:60,1,130
140,70,92047,1,0
163,91,92242,1,0
137,116,92437,1,4
207,220,93020,5,0
235,248,93215,1,0
204,271,93410,1,0
238,296,93604,1,2
238,296,93701,1,2
238,296,93799,1,2
272,323,93993,1,0
307,298,94188,1,0
277,269,94383,1,2
277,269,94480,1,2
277,269,94577,1,2
304,240,94772,1,0
276,216,94966,1,0
300,188,95161,1,4
288,96,95550,5,2
256,64,95745,2,0,B|186:32|128:64,1,130
96,96,96329,1,2
128,128,96523,2,0,B|192:160|256:128,1,130
288,96,97107,1,2
320,128,97302,2,0,B|352:192|320:256,1,130
288,288,97885,1,2
256,256,98080,2,0,B|224:192|256:128,1,130
288,96,98664,5,0
256,64,98858,1,2
160,32,99248,1,0
128,64,99442,1,2
96,160,99831,1,0
128,192,100026,1,2
224,256,100415,1,0
256,224,100610,1,2
256,96,100999,5,0
288,64,101194,1,2
160,64,101583,1,0
128,32,101777,1,2
128,160,102167,1,0
96,192,102361,1,2
256,192,102750,1,0
288,224,102945,1,2
160,128,103334,5,0
160,96,103529,1,0
192,64,103724,1,0
224,64,103918,1,0
256,96,104113,1,0
256,128,104307,1,0
224,160,104502,1,0
192,160,104697,1,4
160,192,104891,5,0
128,224,105086,1,0
32,128,105475,1,0
64,96,105670,1,0
192,32,106059,1,0
352,64,106643,1,0
448,160,107226,1,0
320,256,107810,1,0
160,320,108394,1,0
96,160,108978,1,2
256,64,109562,1,2
256,192,110145,1,4
