osu file format v12

[General]
AudioFilename: tobira hiraite, futari mirai he -Fantom Euro Mix-.mp3
AudioLeadIn: 1000
PreviewTime: 43365
Countdown: 0
SampleSet: Normal
StackLeniency: 0.7
Mode: 0
LetterboxInBreaks: 0
WidescreenStoryboard: 0

[Editor]
Bookmarks: 267,18073,42267,83879,121428,145815,161008
DistanceSpacing: 1
BeatDivisor: 4
GridSize: 4

[Metadata]
Title:Tobira Hiraite, Futari Mirai e -Fantom Euro Mix-
TitleUnicode:Tobira Hiraite, Futari Mirai e -Fantom Euro Mix-
Artist:Mizuho
ArtistUnicode:Mizuho
Creator:regenz
Version:Normal
Source:Fortune Arterial
Tags:galge visual novel August Hentai merchat7 galgame eroge
BeatmapID:200984
BeatmapSetID:66957

[Difficulty]
HPDrainRate:4
CircleSize:3
OverallDifficulty:4
ApproachRate:5
SliderMultiplier:1.4
SliderTickRate:1

[Events]
//Background and Video events
0,0,"kanade.jpg",0,0
//Break Periods
2,13756,17001
2,71046,75840
//Storyboard Layer 0 (Background)
//Storyboard Layer 1 (Fail)
//Storyboard Layer 2 (Pass)
//Storyboard Layer 3 (Foreground)
//Storyboard Sound Samples
//Background Colour Transformations
3,100,163,162,255

[TimingPoints]
-379,387.096774193548,4,1,2,70,1,0
19362,-100,4,2,1,85,0,0
19749,-100,4,1,1,75,0,0
42975,-100,4,1,1,75,0,1
70846,-100,4,1,1,75,0,0
83233,-100,4,1,2,70,0,0
121943,-100,4,1,1,75,0,1
146717,-100,4,1,1,75,0,0
177685,-100,4,1,1,25,0,0

[Colours]
Combo1 : 255,128,0
Combo2 : 0,255,255
Combo3 : 255,0,128
Combo4 : 0,255,64

[HitObjects]
124,60,588,6,0,P|80:52|36:68,2,70
148,124,1169,2,0,P|180:208|292:240,1,210,6|2,0:0|0:0,0:0:0:0:
456,116,2330,2,0,P|488:212|444:328,1,210,2|2,0:0|0:0,0:0:0:0:
248,304,3491,2,0,P|184:340|100:308,1,140
32,220,4266,5,4,0:0:0:0:
208,112,4846,1,2,0:0:0:0:
408,180,5427,1,2,0:0:0:0:
248,316,6008,1,2,0:0:0:0:
68,208,6588,2,0,L|32:148,2,70
168,108,7362,6,0,P|248:52|360:64,1,210,6|2,0:0|0:0,0:0:0:0:
396,268,8524,2,0,P|316:324|204:312,1,210,2|2,0:0|0:0,0:0:0:0:
80,144,9685,1,2,0:0:0:0:
276,68,10266,1,2,0:0:0:0:
448,188,10846,6,0,P|388:272|336:276,2,140,2|2|2,0:0|0:0|0:0,0:0:0:0:
256,192,12008,12,4,13556,0:0:0:0:
256,192,18201,12,2,19362,0:0:0:0:
304,152,19750,5,4,0:0:0:0:
240,124,19943,2,0,B|168:96|168:96|96:124,1,140,2|2,0:0|0:0,0:0:0:0:
36,236,20717,2,0,B|96:272|96:272|188:248,1,140,2|2,0:0|0:0,0:0:0:0:
304,272,21491,2,0,B|376:300|376:300|448:272,1,140,2|2,0:0|0:0,0:0:0:0:
508,160,22266,2,0,B|448:124|448:124|356:148,1,140,2|2,0:0|0:0,0:0:0:0:
284,44,23040,5,0,0:0:0:0:
160,116,23427,1,0,0:0:0:0:
284,180,23814,1,0,0:0:0:0:
412,244,24201,1,0,0:0:0:0:
284,300,24588,2,0,P|228:288|176:332,1,105,2|2,0:0|0:0,0:0:0:0:
96,264,25169,2,0,P|84:316|104:368,2,105,2|2|2,0:0|0:0|0:0,0:0:0:0:
128,200,25943,6,0,P|184:148|152:96,1,140,6|2,0:0|0:0,0:0:0:0:
300,100,26717,2,0,P|276:147|332:199,1,140,6|2,0:0|0:0,0:0:0:0:
472,192,27491,2,0,B|496:260|496:260|472:336,1,140,2|2,0:0|0:0,0:0:0:0:
408,348,28072,1,2,0:0:0:0:
340,340,28266,2,0,P|268:304|196:320,1,140
72,320,29040,6,0,P|40:276|48:192,1,140,6|2,0:0|0:0,0:0:0:0:
68,56,29814,1,2,0:0:0:0:
68,56,30008,1,2,0:0:0:0:
68,56,30201,2,0,P|136:64|188:132,1,140,2|2,0:0|0:0,0:0:0:0:
320,100,30975,2,0,P|388:76|428:20,2,140,2|2|2,0:0|0:0|0:0,0:0:0:0:
180,84,32137,6,0,L|84:84,2,70,2|0|2,0:0|0:0|0:0,0:0:0:0:
228,216,32911,2,0,L|320:216,2,70,2|2|2,0:0|0:0|0:0,0:0:0:0:
88,240,33685,2,0,P|100:296|152:308,1,105,2|2,0:0|0:0,0:0:0:0:
244,324,34266,2,0,L|360:324,2,105,2|2|2,0:0|0:0|0:0,0:0:0:0:
172,204,35233,6,0,P|240:188|328:212,1,140,6|2,0:0|0:0,0:0:0:0:
336,64,36008,2,0,L|248:64,2,70,2|2|2,0:0|0:0|0:0,0:0:0:0:
464,120,36782,2,0,P|468:216|420:240,1,140,2|2,0:0|0:0,0:0:0:0:
304,212,37556,2,0,P|300:308|327:327,1,140,2|2,0:0|0:0,0:0:0:0:
188,320,38330,5,6,0:0:0:0:
120,312,38524,1,0,0:0:0:0:
88,252,38717,1,2,0:0:0:0:
60,116,39104,2,0,L|208:116,1,140,2|2,0:0|0:0,0:0:0:0:
308,208,39879,2,0,L|284:324,2,105,2|2|2,0:0|0:0|0:0,0:0:0:0:
388,140,40750,2,0,L|468:240,2,105,2|2|2,0:0|0:0|0:0,0:0:0:0:
116,56,42975,5,4,0:0:0:0:
64,188,43362,2,0,P|180:160|216:172,1,140,10|2,0:0|0:0,0:0:0:0:
296,264,44137,1,10,0:0:0:0:
356,228,44330,2,0,P|416:256|432:324,2,140,2|2|2,0:0|0:0|0:0,0:0:0:0:
308,100,45491,1,2,0:0:0:0:
172,140,45879,1,2,0:0:0:0:
172,140,46072,5,2,0:0:0:0:
380,100,46653,1,2,0:0:0:0:
380,100,46846,1,2,0:0:0:0:
228,244,47427,1,2,0:0:0:0:
228,244,47620,2,0,P|152:304|88:312,1,140,2|8,0:0|0:0,0:0:0:0:
68,180,48395,2,0,P|84:100|48:32,2,140,2|8|6,0:0|0:0|0:0,0:0:0:0:
180,96,49556,6,0,B|248:112|248:112|320:56,2,140,10|2|10,0:0|0:0|0:0,0:0:0:0:
180,168,50524,2,0,B|152:240|152:240|196:300,2,140,2|2|2,0:0|0:0|0:0,0:0:0:0:
320,168,51685,1,2,0:0:0:0:
296,304,52072,1,2,0:0:0:0:
296,304,52266,5,2,0:0:0:0:
96,244,52846,1,2,0:0:0:0:
96,244,53040,1,2,0:0:0:0:
176,48,53620,1,2,0:0:0:0:
176,48,53814,1,2,0:0:0:0:
296,220,54395,1,2,0:0:0:0:
296,220,54588,1,2,0:0:0:0:
424,56,55169,1,2,0:0:0:0:
424,56,55362,5,6,0:0:0:0:
464,192,55750,2,0,P|460:280|424:336,1,140,10|2,0:0|0:0,0:0:0:0:
364,324,56330,2,0,P|352:264|256:252,1,140,2|2,0:0|0:0,0:0:0:0:
168,316,57104,2,0,P|96:324|32:280,2,140,2|2|2,0:0|0:0|0:0,0:0:0:0:
96,196,58266,6,0,L|96:108,1,70,2|2,0:0|0:0,0:0:0:0:
292,48,59040,2,0,L|292:140,1,70,2|2,0:0|0:0,0:0:0:0:
208,312,59814,2,0,L|208:224,1,70,2|2,0:0|0:0,0:0:0:0:
400,156,60588,2,0,L|400:226,1,70,2|2,0:0|0:0,0:0:0:0:
264,68,61362,2,0,L|184:68,1,70,2|6,0:0|0:0,0:0:0:0:
88,160,61943,6,0,P|100:228|168:264,1,140,10|2,0:0|0:0,0:0:0:0:
216,228,62524,2,0,L|300:228,2,70,2|10|2,0:0|0:0|0:0,0:0:0:0:
324,320,63298,1,2,0:0:0:0:
460,284,63685,1,2,0:0:0:0:
452,144,64072,1,2,0:0:0:0:
320,196,64459,1,2,0:0:0:0:
320,196,64653,5,2,0:0:0:0:
132,288,65233,1,2,0:0:0:0:
132,288,65427,1,2,0:0:0:0:
212,92,66008,1,2,0:0:0:0:
212,92,66201,1,2,0:0:0:0:
212,92,66395,2,0,P|312:120|352:88,2,140,0|2|2,0:0|0:0|0:0,0:0:0:0:
204,232,67556,1,2,0:0:0:0:
268,356,67943,6,0,P|312:288|388:268,2,140,2|2|2,0:0|0:0|0:0,0:0:0:0:
204,232,69104,1,2,0:0:0:0:
204,232,69298,2,0,P|176:140|212:108,1,140,2|2,0:0|0:0,0:0:0:0:
336,104,70072,2,0,L|404:72,2,70,2|2|2,0:0|0:0|0:0,0:0:0:0:
336,244,70846,1,4,0:0:0:0:
112,116,77040,6,0,P|176:96|248:124,1,140,6|2,0:0|0:0,0:0:0:0:
384,108,77814,2,0,L|405:41,2,70,2|2|2,0:0|0:0|0:0,0:0:0:0:
428,240,78588,1,2,0:0:0:0:
304,308,78975,1,2,0:0:0:0:
280,172,79362,1,2,0:0:0:0:
164,252,79750,1,2,0:0:0:0:
64,156,80137,5,2,0:0:0:0:
64,156,80330,1,0,0:0:0:0:
64,156,80524,2,0,P|112:80|172:72,1,140,2|2,0:0|0:0,0:0:0:0:
188,208,81298,1,2,0:0:0:0:
288,108,81685,2,0,L|392:108,1,105,2|2,0:0|0:0,0:0:0:0:
460,192,82266,2,0,L|404:284,1,105,2|2,0:0|0:0,0:0:0:0:
300,281,82846,2,0,L|228:189,1,105,2|0,0:0|0:0,0:0:0:0:
460,80,84782,6,0,P|480:168|436:224,1,140,12|8,0:0|0:0,0:0:0:0:
428,272,85362,2,0,P|308:236|240:296,1,210,0|10,0:0|0:0,0:0:0:0:
116,324,86330,1,10,0:0:0:0:
72,192,86717,1,8,0:0:0:0:
72,192,86911,1,0,0:0:0:0:
72,192,87104,2,0,P|80:124|152:100,1,140,8|8,0:0|0:0,0:0:0:0:
136,168,87685,2,0,P|176:216|256:216,1,140,0|0,0:0|0:0,0:0:0:0:
296,84,88459,5,0,0:0:0:0:
412,160,88846,1,0,0:0:0:0:
296,236,89233,1,0,0:0:0:0:
412,316,89620,1,0,0:0:0:0:
272,336,90008,2,0,P|184:256|80:280,1,210,0|8,0:0|0:0,0:0:0:0:
32,144,90975,6,0,B|108:176|108:176|168:176,2,140,12|8|8,0:0|0:0|0:0,0:0:0:0:
152,68,92137,2,0,L|240:68,1,70,10|2,0:0|0:0,0:0:0:0:
280,104,92524,2,0,L|360:104,1,70,10|2,0:0|0:0,0:0:0:0:
324,240,93104,1,0,0:0:0:0:
324,240,93298,1,8,0:0:0:0:
460,272,93685,1,8,0:0:0:0:
460,272,93879,1,0,0:0:0:0:
460,272,94072,6,0,P|476:192|444:128,1,140,8|8,0:0|0:0,0:0:0:0:
352,236,94846,2,0,P|280:244|208:204,1,140,8|8,0:0|0:0,0:0:0:0:
124,116,95620,2,0,P|72:164|72:224,1,105,8|0,0:0|0:0,0:0:0:0:
164,232,96201,2,0,P|152:292|176:340,2,105,0|0|8,0:0|0:0|0:0,0:0:0:0:
228,204,96975,1,0,0:0:0:0:
228,204,97169,6,0,P|284:244|368:256,1,140,12|8,0:0|0:0,0:0:0:0:
404,208,97750,2,0,P|388:144|264:76,1,210,0|10,0:0|0:0,0:0:0:0:
204,52,98524,2,0,L|204:128,2,70,2|10|2,0:0|0:0|0:0,0:0:0:0:
84,124,99298,2,0,L|84:208,1,70,0|8,0:0|0:0,0:0:0:0:
168,308,99879,2,0,L|168:224,1,70,8|0,0:0|0:0,0:0:0:0:
276,328,100459,5,2,0:0:0:0:
276,328,100653,1,10,0:0:0:0:
276,328,100846,2,0,P|292:264|376:228,2,140,2|0|0,0:0|0:0|0:0,0:0:0:0:
220,200,102008,1,0,0:0:0:0:
276,72,102395,1,0,0:0:0:0:
276,72,102588,2,0,P|292:136|376:172,1,140,8|8,0:0|0:0,0:0:0:0:
492,152,103362,6,0,B|492:240|492:240|432:280,1,140,12|10,0:0|0:0,0:0:0:0:
378,268,103943,2,0,B|298:236|298:236|162:236,1,210,2|10,0:0|0:0,0:0:0:0:
116,276,104717,2,0,L|116:348,2,70,2|10|2,0:0|0:0|0:0,0:0:0:0:
56,148,105491,1,0,0:0:0:0:
56,148,105685,2,0,P|104:96|184:96,2,140,8|8|10,0:0|0:0|0:0,0:0:0:0:
140,260,106846,5,10,0:0:0:0:
260,188,107233,1,10,0:0:0:0:
308,320,107620,1,10,0:0:0:0:
432,256,108008,1,10,0:0:0:0:
432,256,108201,2,0,P|464:208|464:112,1,140,2|2,0:0|0:0,0:0:0:0:
364,36,108975,2,0,P|332:84|332:180,1,140,2|2,0:0|0:0,0:0:0:0:
327,234,109556,6,0,P|351:294|427:334,2,140,12|8|8,0:0|0:0|0:0,0:0:0:0:
196,284,110717,1,8,0:0:0:0:
56,288,111104,2,0,B|16:256|16:256|16:160,1,140,8|8,0:0|0:0,0:0:0:0:
120,72,111879,2,0,B|160:104|160:104|160:200,1,140,8|8,0:0|0:0,0:0:0:0:
276,112,112653,5,8,0:0:0:0:
400,52,113040,1,8,0:0:0:0:
456,180,113427,1,8,0:0:0:0:
336,248,113814,1,0,0:0:0:0:
212,312,114201,2,0,L|120:312,2,70,8|0|8,0:0|0:0|0:0,0:0:0:0:
144,188,114975,2,0,L|74:188,2,70,8|0|8,0:0|0:0|0:0,0:0:0:0:
124,56,115750,6,0,P|248:104|256:264,2,280,12|8|8,0:0|0:0|0:0,0:0:0:0:
64,184,117685,2,0,P|56:256|112:312,1,140,8|8,0:0|0:0,0:0:0:0:
188,196,118459,2,0,P|196:124|140:68,1,140,8|8,0:0|0:0,0:0:0:0:
256,192,119040,12,0,120201,0:0:0:0:
340,80,121943,5,4,0:0:0:0:
200,80,122330,2,0,P|128:112|108:180,1,140,10|2,0:0|0:0,0:0:0:0:
140,228,122911,2,0,P|224:264|240:324,1,140,2|2,0:0|0:0,0:0:0:0:
380,324,123685,2,0,P|340:228|364:188,2,140,2|2|2,0:0|0:0|0:0,0:0:0:0:
452,204,124846,1,2,0:0:0:0:
452,204,125040,6,0,P|424:116|296:100,1,210,2|2,0:0|0:0,0:0:0:0:
284,152,125814,2,0,P|280:232|152:268,1,210,2|2,0:0|0:0,0:0:0:0:
168,208,126588,2,0,P|160:144|32:116,1,210,2|2,0:0|0:0,0:0:0:0:
4,176,127362,2,0,P|4:280|116:308,1,210,2|2,0:0|0:0,0:0:0:0:
160,296,128137,5,6,0:0:0:0:
296,332,128524,2,0,P|384:304|396:244,2,140,8|2|10,0:0|0:0|0:0,0:0:0:0:
300,192,129685,1,0,0:0:0:0:
300,192,129879,2,0,P|296:128|220:108,1,140,2|2,0:0|0:0,0:0:0:0:
136,208,130653,2,0,P|140:272|203:296,1,140,2|2,0:0|0:0,0:0:0:0:
203,296,131233,5,2,0:0:0:0:
0,308,131814,1,2,0:0:0:0:
0,308,132008,1,2,0:0:0:0:
64,108,132588,1,2,0:0:0:0:
64,108,132782,2,0,P|200:80|328:156,2,280,2|2|6,0:0|0:0|0:0,0:0:0:0:
80,248,134717,5,10,0:0:0:0:
184,340,135104,2,0,P|192:252|296:248,1,210,2|2,0:0|0:0,0:0:0:0:
432,216,136072,1,2,0:0:0:0:
412,76,136459,1,2,0:0:0:0:
284,120,136846,1,2,0:0:0:0:
144,120,137233,1,2,0:0:0:0:
144,120,137427,6,0,L|0:120,1,140,2|8,0:0|0:0,0:0:0:0:
84,232,138201,2,0,L|232:232,1,140,2|8,0:0|0:0,0:0:0:0:
308,120,138975,2,0,L|472:120,1,140,2|8,0:0|0:0,0:0:0:0:
364,232,139750,2,0,L|200:232,1,140,2|8,0:0|0:0,0:0:0:0:
224,92,140524,5,6,0:0:0:0:
112,172,140911,2,0,P|96:244|120:304,1,140,10|2,0:0|0:0,0:0:0:0:
180,340,141491,1,2,0:0:0:0:
236,300,141685,1,10,0:0:0:0:
292,340,141879,2,0,P|352:344|396:272,1,140,2|2,0:0|0:0,0:0:0:0:
440,152,142653,1,2,0:0:0:0:
308,204,143040,1,2,0:0:0:0:
244,80,143427,1,2,0:0:0:0:
244,80,143620,5,2,0:0:0:0:
36,100,144201,2,0,L|36:200,1,70,2|2,0:0|0:0,0:0:0:0:
236,232,144975,1,2,0:0:0:0:
236,232,145169,2,0,P|332:248|424:180,1,210,2|2,0:0|0:0,0:0:0:0:
420,116,145943,2,0,P|337:55|235:70,1,210,2|2,0:0|0:0,0:0:0:0:
175,107,146717,6,0,P|115:163|111:235,1,140,6|2,0:0|0:0,0:0:0:0:
240,260,147491,2,0,L|188:324,2,70,2|2|2,0:0|0:0|0:0,0:0:0:0:
376,288,148266,2,0,P|472:300|532:268,1,140,2|2,0:0|0:0,0:0:0:0:
437,164,149040,2,0,P|341:152|281:184,1,140,2|2,0:0|0:0,0:0:0:0:
172,116,149814,6,0,L|140:48,2,70,2|0|2,0:0|0:0|0:0,0:0:0:0:
40,164,150588,2,0,P|32:252|64:320,1,140,2|2,0:0|0:0,0:0:0:0:
188,312,151362,2,0,B|188:216|188:216|228:180|268:216|268:216|268:324|268:324|304:360|348:328|348:328|348:144,1,560,2|6,0:0|0:0,0:0:0:0:
280,56,153298,5,2,0:0:0:0:
144,84,153685,2,0,P|120:140|128:224,1,140,2|2,0:0|0:0,0:0:0:0:
204,332,154459,2,0,P|236:264|304:252,1,140,2|2,0:0|0:0,0:0:0:0:
400,344,155233,2,0,P|476:312|488:244,1,140,2|2,0:0|0:0,0:0:0:0:
412,148,156008,6,0,L|420:60,2,70,2|0|2,0:0|0:0|0:0,0:0:0:0:
284,200,156782,2,0,L|276:288,2,70,2|2|2,0:0|0:0|0:0,0:0:0:0:
240,68,157556,2,0,P|172:84|144:128,2,105,2|2|2,0:0|0:0|0:0,0:0:0:0:
216,172,158427,2,0,P|184:232|184:272,1,105,2|2,0:0|0:0,0:0:0:0:
252,288,158911,1,2,0:0:0:0:
320,304,159104,6,0,L|392:344,2,70,6|0|2,0:0|0:0|0:0,0:0:0:0:
428,216,159879,2,0,P|444:168|448:80,1,140,2|2,0:0|0:0,0:0:0:0:
308,92,160653,1,2,0:0:0:0:
184,160,161040,1,2,0:0:0:0:
308,224,161427,1,2,0:0:0:0:
184,292,161814,1,2,0:0:0:0:
44,308,162201,6,0,P|20:248|52:184,1,140,2|2,0:0|0:0,0:0:0:0:
168,108,162975,2,0,L|72:116,2,70,2|2|2,0:0|0:0|0:0,0:0:0:0:
308,100,163750,2,0,P|368:152|368:200,1,105,2|2,0:0|0:0,0:0:0:0:
272,204,164330,2,0,P|260:256|280:312,2,105,2|2|2,0:0|0:0|0:0,0:0:0:0:
176,308,165298,5,6,0:0:0:0:
60,232,165685,1,2,0:0:0:0:
140,116,166072,2,0,L|112:48,2,70,2|2|2,0:0|0:0|0:0,0:0:0:0:
272,64,166846,2,0,P|368:64|416:104,1,140,2|2,0:0|0:0,0:0:0:0:
444,220,167620,2,0,P|348:220|300:180,1,140,2|2,0:0|0:0,0:0:0:0:
308,336,168395,5,2,0:0:0:0:
180,276,168782,1,2,0:0:0:0:
96,164,169169,2,0,L|40:220,2,70,2|2|2,0:0|0:0|0:0,0:0:0:0:
96,92,169750,1,2,0:0:0:0:
164,68,169943,2,0,B|256:116|360:68|360:68|384:168,2,280,2|2|2,0:0|0:0|0:0,0:0:0:0:
128,168,171782,6,0,P|128:240|152:280,2,105,2|2|2,0:0|0:0|0:0,0:0:0:0:
220,220,172653,2,0,P|256:284|320:284,1,140,2|4,0:0|0:0,0:0:0:0:
256,192,173233,12,0,177685,0:0:0:0:
