osu file format v9

[General]
AudioFilename: Tsubasa_Chronicle_-_Yume_no_Tsubasa_Duet_Version.mp3
AudioLeadIn: 0
PreviewTime: 68376
Countdown: 0
SampleSet: Normal
StackLeniency: 0.7
Mode: 0
LetterboxInBreaks: 0

[Editor]
DistanceSpacing: 0.8
BeatDivisor: 4
GridSize: 8

[Metadata]
Title:Yume no Tsubasa (Duet Version)
Artist:Miyu Irino & Yui Makino
Creator:shikyu
Version:Normal
Source:Tsubasa Reservoir Chronicle
Tags:

[Difficulty]
HPDrainRate:4
CircleSize:4
OverallDifficulty:3
ApproachRate:4
SliderMultiplier:1.4
SliderTickRate:1

[Events]
//Background and Video events
0,0,"wallpapers-tsubasa-reservoir-chronicle-2.jpg"
//Break Periods
2,95849,105238
//Storyboard Layer 0 (Background)
//Storyboard Layer 1 (Fail)
//Storyboard Layer 2 (Pass)
//Storyboard Layer 3 (Foreground)
//Storyboard Sound Samples
//Background Colour Transformations
3,100,163,162,255

[TimingPoints]
5649.45454545455,681.818181818182,4,1,0,100,1,0
12808,-100,4,1,0,60,0,0
30706,-200,4,1,0,60,0,0
32410,-100,4,1,0,60,0,0
46558,-100,4,2,0,40,0,0
52013,-100,4,1,0,60,0,0
66840,-100,4,1,0,80,0,0
68376,-100,4,1,0,60,0,1
78263,-100,4,2,0,60,0,0
84058,-100,4,1,0,60,0,0
85763,-100,4,1,0,5,0,0
86104,-100,4,1,0,60,0,0
89513,-100,4,1,0,20,0,0
90194,-100,4,1,0,60,0,0
91217,-100,4,1,0,40,0,0
133831,-100,4,2,0,40,0,0
139285,-100,4,1,0,60,0,0
145592,-50,4,1,0,60,0,0
146956,-100,4,1,0,60,0,0
154115,-100,4,1,0,60,0,0
155649,-100,4,1,0,70,0,1
165535,-100,4,1,0,60,0,0
165876,-100,4,2,0,60,0,0
171331,-100,4,1,0,60,0,0
177126,-100,4,1,0,65,0,0
181558,-100,4,1,0,40,0,0
181899,-100,4,1,0,60,0,0
182240,-100,4,1,0,80,0,0
182581,-100,4,1,0,70,0,0
188376,-100,4,1,0,5,0,0

[Colours]
Combo1 : 253,142,194
Combo2 : 55,221,251
Combo3 : 86,46,245
Combo4 : 251,74,74

[HitObjects]
112,120,12808,1,0
176,160,13149,2,0,B|176:304,1,140,8|0
288,304,14513,1,8
288,192,15194,1,0
344,192,15535,1,0
400,192,15876,1,8
400,304,16217,5,0
400,304,16558,2,0,B|256:304,1,140,0|8
144,304,17922,1,0
256,304,18604,1,4
256,192,19285,5,0
144,192,19967,1,0
32,192,20649,1,0
144,192,21331,1,8
200,192,21672,2,0,B|352:192,1,140,0|0
392,192,22694,6,0,B|416:40,1,140,8|0
304,56,24058,1,8
192,56,24740,1,0
80,56,25422,1,8
80,80,25763,2,0,B|80:168,1,70,0|8
88,264,26785,5,0
144,264,27126,1,0
200,264,27467,1,0
312,264,28149,1,8
368,264,28490,2,0,B|368:112,1,140,0|8
312,120,29513,1,0
200,120,30194,5,0
200,120,30876,2,0,B|200:192,2,70,8|0|8
144,120,32581,5,0
112,192,32922,1,0
112,304,33604,1,0
168,304,33944,1,0
224,304,34285,1,8
280,304,34626,1,0
280,304,34967,2,8,B|376:280|424:216,1,140,8|0
416,128,36331,5,8
376,88,36672,2,0,B|256:184,1,140,0|0
208,176,37694,1,8
96,176,38376,2,0,B|88:240|88:240|120:288|152:288|152:288|296:288,2,280,0|8|4
112,64,41785,6,0,B|264:24,2,140,8|0|8
56,64,43490,1,8
48,176,44172,1,0
48,232,44513,1,4
48,288,44854,1,0
160,288,45535,1,0
216,288,45876,1,8
272,288,46217,1,0
256,192,46558,12,0,49285
40,192,49967,1,0
152,192,50649,1,2
264,192,51331,1,0
264,136,51672,1,0
264,192,52013,5,0
376,192,52694,1,8
376,80,53376,1,0
264,80,54058,2,0,B|184:80,1,70,8|0
80,80,55081,2,8,B|88:240,1,140
48,328,56444,2,0,B|112:272,2,70,0|8|0
104,336,57467,6,0,B|256:336,1,140,0|8
304,336,58490,1,0
416,328,59172,1,0
416,272,59513,1,8
416,160,60194,2,0,B|416:0,1,140,0|8
360,16,61217,1,0
304,16,61558,2,0,B|144:16,1,140
160,128,62922,6,0,B|256:16,1,140
248,136,64285,2,0,B|152:248,1,140
160,128,65649,2,0,B|320:128,1,140,0|8
416,128,67013,6,0,B|464:176,2,35
416,128,67694,1,4
304,128,68376,6,0,B|160:184,1,140
96,200,69569,2,0,B|88:240|88:240|136:240|136:240|136:280,1,105,0|8
136,256,70422,1,8
248,256,71104,2,0,B|280:208|304:248|392:248,1,140
440,192,72297,2,0,B|424:168|424:168|384:168|384:168|384:136|384:136|352:136,1,105,0|8
379,136,73149,5,8
264,136,73831,2,0,B|120:136,1,140,0|8
120,216,75024,2,0,B|240:216,1,105,0|0
280,216,75876,1,8
392,216,76558,5,0
504,216,77240,1,0
504,136,77751,1,0
360,136,78604,5,0
248,136,79285,2,0,B|96:136,1,140,0|8
104,224,80479,2,0,B|224:224,1,105,0|0
264,224,81331,5,8
376,208,82013,2,0,B|448:184|384:88,1,140
304,88,83206,1,0
440,88,84058,5,0
440,200,84740,1,0
432,312,85422,2,0,B|352:312,2,70
320,312,86785,1,8
208,312,87467,5,0
256,192,88149,12,0,89513
432,192,90194,6,0,B|352:336,1,140,0|8
336,352,91217,1,0
256,312,91899,5,0
256,312,92240,2,0,B|96:272,1,140,8|0
112,168,93604,1,8
224,168,94285,2,0,B|304:168,2,70,0|0|0
264,160,95649,1,12
88,80,106558,5,0
200,80,107240,1,8
256,80,107581,1,0
256,80,107751,1,0
344,80,108263,1,0
344,136,108604,2,0,B|344:288,1,140,8|0
232,280,109967,1,8
192,240,110308,5,0
152,208,110649,2,0,B|40:104,1,140,0|8
152,56,112013,2,0,B|264:176,1,140,0|8
304,160,113035,2,0,B|448:160,1,140,0|0
440,272,114058,1,8
440,272,114740,1,0
328,272,115422,5,8
328,272,115763,2,0,B|168:272,1,140,0|8
112,272,116785,1,8
192,160,117467,6,0,B|336:160,1,140,0|8
328,160,118490,1,8
328,160,118660,1,8
416,160,119172,1,0
472,160,119513,1,4
472,272,120194,6,0,B|368:216,1,105,0|0
379,222,120876,1,8
296,224,121217,1,0
240,224,121558,2,0,B|72:224,1,140,0|8
104,168,122581,1,8
104,112,122922,6,0,B|256:112,1,140,8|8
296,112,123944,2,0,B|440:128,1,140,8|0
440,184,124967,2,0,B|440:328,1,140,8|0
328,320,126331,1,8
216,344,127013,5,0
216,288,127354,1,0
216,232,127694,1,12
216,232,127865,1,0
224,120,128376,5,0
112,120,129058,1,8
112,232,129740,1,0
224,232,130422,1,8
336,232,131104,5,0
336,352,131785,1,8
448,352,132467,1,0
448,240,133149,1,8
256,192,133831,12,0,137240
88,96,137922,1,0
144,96,138263,2,0,B|232:96,2,70,8|0|8
272,208,139285,5,0
192,208,139967,2,0,B|192:360,1,140,8|0
304,344,141331,1,8
360,344,141672,2,0,B|456:224,1,140,0|0
400,200,142694,1,8
344,200,143035,2,0,B|192:200,1,140
208,200,144058,1,8
96,192,144740,6,0,B|184:56,1,140,0|8
168,128,145763,2,0,B|320:128,3,140,0|0|0|12
168,200,147467,1,0
288,120,148149,5,8
344,120,148490,2,0,B|344:272,1,140,8|8
344,320,149513,2,0,B|184:320,1,140,8|0
152,320,150535,1,0
120,320,150706,1,0
120,288,150876,1,8
8,296,151558,5,0
8,240,151899,1,0
8,240,152069,1,0
8,240,152240,1,8
120,224,152922,5,0
120,168,153263,1,0
128,144,153433,1,0
144,120,153604,1,8
256,128,154285,5,0
288,128,154456,1,0
320,128,154626,1,0
368,128,154967,1,8
256,192,155649,6,0,B|312:248,2,70,0|0|8
256,192,156672,1,0
208,136,157013,2,0,B|176:112|176:112|128:128,1,70
147,121,157694,1,8
88,176,158035,6,0,B|48:208|80:256,1,70
128,288,158717,1,0
128,288,159058,2,0,B|208:288,1,70,4|0
272,288,159740,2,0,B|304:272|288:224,2,70,0|0|8
256,184,160763,5,0
256,184,161104,1,0
184,184,161444,2,0,B|152:216|104:176,1,70,0|8
48,184,162126,1,0
48,104,162467,2,0,B|96:80|144:120,1,70
192,104,163149,2,0,B|240:104,2,35,8|0|0
192,176,163831,2,0,B|160:240,2,70,0|0|4
264,176,164854,2,0,B|336:176,2,70
112,240,165876,5,0
112,240,166217,2,0,B|160:304,1,70
224,256,166899,2,0,B|184:200,1,70,0|2
264,160,167581,2,0,B|304:216,3,70,0|0|0|2
256,288,168944,5,0
256,288,169285,2,0,B|296:328|336:280,2,70,0|0|2
208,232,170308,2,0,B|160:176,1,70
162,178,170990,1,0
256,72,171331,6,0,B|288:112|256:144,3,70,8|0|0|0
262,135,172694,1,8
184,136,173035,2,0,B|96:176|160:256,2,140
296,136,174740,5,0
296,136,175081,2,0,B|344:128|368:192,2,70,0|12|0
216,136,176104,1,0
104,192,177126,5,0
152,192,177297,1,0
200,192,177467,1,0
272,192,177808,2,0,B|368:192,1,70,0|8
256,192,178490,12,0,181558
152,192,181899,5,0
256,192,182240,1,0
352,192,182581,1,0
256,192,182922,12,0,188376
