osu file format v9

[General]
AudioFilename: Tsubasa_Chronicle_-_Yume_no_Tsubasa_Duet_Version.mp3
AudioLeadIn: 0
PreviewTime: 68376
Countdown: 0
SampleSet: Normal
StackLeniency: 0.7
Mode: 0
LetterboxInBreaks: 0

[Editor]
DistanceSpacing: 0.8
BeatDivisor: 4
GridSize: 8

[Metadata]
Title:Yume no Tsubasa (Duet Version)
Artist:Miyu Irino & Yui Makino
Creator:shikyu
Version:Easy
Source:Tsubasa Reservoir Chronicle
Tags:

[Difficulty]
HPDrainRate:4
CircleSize:3
OverallDifficulty:4
ApproachRate:5
SliderMultiplier:1.4
SliderTickRate:1

[Events]
//Background and Video events
0,0,"tsubasa-reservoir-chronicle-02.jpg"
//Break Periods
2,98576,105358
//Storyboard Layer 0 (Background)
//Storyboard Layer 1 (Fail)
//Storyboard Layer 2 (Pass)
//Storyboard Layer 3 (Foreground)
//Storyboard Sound Samples
//Background Colour Transformations
3,100,163,162,255

[TimingPoints]
5649.45454545455,681.818181818182,4,1,0,100,1,0
12808,-100,4,1,0,60,0,0
19285,-100,4,1,0,40,0,0
41104,-100,4,1,0,50,0,0
46558,-100,4,2,0,60,0,0
52013,-100,4,1,0,60,0,0
68376,-100,4,1,0,60,0,1
78263,-100,4,1,0,60,0,0
87979,-200,4,1,0,60,0,0
89001,-100,4,1,0,60,0,0
98376,-100,4,1,0,20,0,0
106558,-100,4,1,0,60,0,0
106558,-100,4,1,0,40,0,0
128376,-100,4,1,0,50,0,0
134172,-100,4,2,0,40,0,0
139285,-100,4,1,0,60,0,0
155649,-100,4,1,0,80,0,1
165876,-100,4,2,0,60,0,0
171331,-100,4,2,0,60,0,0
175308,-200,4,2,0,60,0,0
175876,-100,4,2,0,60,0,0
177467,-100,4,1,0,60,0,0
181558,-100,4,1,0,70,0,0
181899,-100,4,1,0,80,0,0
182240,-100,4,1,0,90,0,0
182581,-100,4,1,0,100,0,0
188376,-100,4,1,0,5,0,0

[Colours]
Combo1 : 253,142,194
Combo2 : 55,221,251
Combo3 : 86,46,245
Combo4 : 251,74,74

[HitObjects]
64,192,12808,1,8
120,192,13149,1,8
232,192,13831,2,4,B|304:72,1,140,4|0
416,56,15194,1,0
416,168,15876,5,8
312,288,16558,2,0,B|264:240|168:248,1,140,4|0
72,248,17922,2,0,B|72:160,2,70
184,136,19285,5,0
296,136,19967,1,0
304,248,20649,1,0
416,248,21331,1,8
416,248,21672,2,0,B|416:96,1,140,8|8
416,112,23035,5,0
416,112,23376,2,0,B|256:112,1,140
192,120,24740,2,0,B|160:88|112:72|56:72,1,140
64,128,25763,1,8
64,184,26104,2,8,B|64:272|64:272|144:272,2,140,8|8|8
176,168,28149,6,0,B|256:168,1,70,8|0
304,168,29172,2,8,B|384:120,2,70,8|8|0
304,168,30194,5,0
304,280,30876,1,0
192,280,31558,2,0,B|96:256|64:192,1,140,8|0
72,96,32922,5,8
152,96,33433,2,0,B|288:96,1,105
312,96,34285,2,8,B|312:176,2,70
400,160,35649,6,0,B|400:304,1,140,0|8
400,300,36672,2,0,B|240:304,2,140,0|8|0
400,296,38376,1,8
400,184,39058,1,8
288,184,39740,2,0,B|224:224,2,70,0|0|4
296,72,41104,5,0
184,72,41785,1,8
72,72,42467,1,8
72,184,43149,1,0
72,184,43490,6,0,B|224:184,1,140,8|0
200,184,44513,1,8
312,184,45194,1,0
312,296,45876,1,8
256,192,46558,12,0,48604
160,192,49285,1,0
272,192,49967,1,8
272,80,50649,1,0
384,80,51331,2,0,B|384:160,1,70,8|0
384,208,52013,5,0
384,320,52694,2,0,B|224:320,1,140,8|0
128,320,54058,2,0,B|32:320,1,70
112,224,55081,2,0,B|176:192,2,70,0|8|0
240,192,56444,2,4,B|328:192,1,70
368,192,57126,6,0,B|416:168,2,35,0|0|0
440,80,58149,2,0,B|296:80,1,140,8|0
224,80,59172,1,0
168,80,59513,1,8
56,80,60194,6,0,B|56:224,1,140,0|8
56,280,61217,2,0,B|224:280,1,140
256,280,62240,1,8
256,192,62922,12,0,65649
56,160,67013,5,0
168,160,67694,1,0
104,64,68376,6,0,B|248:64,1,140,8|0
240,64,69569,1,8
240,152,70081,1,0
240,152,70422,1,0
104,320,71104,6,0,B|248:320,1,140,8|0
240,320,72297,1,8
240,232,72809,1,0
240,232,73150,1,0
408,320,73831,6,0,B|264:320,1,140,8|0
272,320,75024,1,8
272,232,75536,1,0
272,232,75877,1,0
408,64,76558,6,0,B|264:64,1,140,8|0
272,64,77751,1,8
272,152,78263,1,0
272,152,78604,5,0
160,152,79285,1,8
160,264,79967,1,0
248,264,80479,1,0
328,264,80990,6,8,B|400:232,1,70
400,120,82013,1,0
288,120,82694,1,0
288,32,83206,1,0
200,40,83717,6,8,B|104:64,1,70
128,168,84740,1,0
128,280,85422,2,0,B|240:280,1,105,0|8
320,280,86444,1,0
320,280,86785,1,8
432,280,87467,5,0
432,168,88149,2,0,B|352:168,1,70,0|0
304,168,89172,1,8
304,168,89513,1,8
192,168,90194,5,0
80,168,90876,1,0
80,168,91217,1,8
80,280,91899,1,0
80,280,92240,1,8
192,280,92922,5,0
304,280,93604,1,8
416,288,94285,2,0,B|416:200,3,70
256,192,95649,12,0,98376
256,200,106558,5,0
192,160,107240,2,0,B|256:96|328:168,1,140,8|0
192,224,108604,2,0,B|256:288|328:216,1,140,8|0
400,224,109967,1,0
400,136,110649,6,0,B|304:136,3,70,0|0|4|0
240,136,112013,1,0
152,136,112694,1,8
152,136,113376,2,0,B|72:184|120:288,1,140,0|8
192,256,114399,1,0
240,256,114740,1,0
384,256,115422,6,0,B|416:216|376:168,2,70,8|0|0
304,192,116444,2,0,B|224:192,1,70,8|0
234,192,116956,1,0
104,88,117467,6,0,B|168:32|264:96,1,140,0|8
312,96,118831,2,0,B|368:160|304:256,1,140,0|8
256,272,120194,2,0,B|192:328|96:264,1,140,0|8
56,240,121558,2,0,B|0:176|64:80,1,140,0|8
136,64,122922,5,0
248,64,123604,1,8
304,64,123944,2,0,B|448:64,1,140
440,120,124967,1,8
256,192,125308,12,0,127694
256,192,128376,5,0
256,192,129058,2,0,B|320:240|400:192,1,140,8|0
392,120,130422,2,0,B|248:120,1,140,8|0
160,224,131785,1,8
280,224,132467,1,0
392,224,133149,1,8
392,152,133490,5,0
320,152,133831,1,0
256,192,134172,12,0,136558
352,80,137240,5,0
240,80,137922,1,0
128,80,138604,1,0
120,184,139285,6,0,B|192:144|264:192,1,140,0|8
384,184,140649,2,0,B|312:144|240:192,1,140,0|8
256,320,142013,2,0,B|296:248|248:176,1,140,0|8
256,56,143376,2,0,B|296:128|248:200,1,140,0|8
168,184,144740,6,0,B|144:256,1,70
208,336,145422,2,0,B|232:256,1,70,8|0
328,216,146104,2,0,B|304:296,1,70
416,288,146785,1,8
416,128,147126,5,0
416,128,147467,2,0,B|352:64|264:128,1,140,0|8
192,112,148490,2,0,B|136:192,1,70
216,216,149172,2,0,B|168:280,1,70,0|8
256,192,149854,12,0,153604
216,176,154285,5,0
104,176,154967,1,0
104,64,155649,6,0,B|248:64,1,140,8|0
240,152,156842,1,8
240,152,157354,1,0
240,152,157695,1,0
104,320,158377,6,0,B|248:320,1,140,8|0
240,232,159569,1,8
240,232,160082,1,0
240,232,160423,1,0
408,320,161104,6,0,B|264:320,1,140,8|0
192,320,162297,1,8
272,232,162809,1,0
272,232,163150,1,0
408,64,163831,6,0,B|264:64,1,140,8|0
352,152,165024,1,8
272,152,165536,1,0
272,152,165877,5,0
160,152,166558,1,8
160,264,167240,1,0
248,264,167752,1,0
328,264,168263,6,8,B|400:232,1,70
400,120,169286,1,0
312,120,169967,1,0
280,40,170479,1,0
200,40,170990,6,8,B|104:64,1,70
128,168,172013,1,0
128,280,172695,2,0,B|240:280,1,105,0|8
320,280,173717,1,0
320,280,174058,1,8
432,280,174740,5,0
432,168,175422,2,0,B|392:168,1,35,0|0
397,168,175876,1,0
304,168,176445,1,8
304,168,176786,1,8
192,168,177467,5,0
80,168,178149,1,0
80,168,178490,1,8
80,280,179172,1,0
80,280,179513,1,8
104,264,179854,1,0
192,280,180195,5,0
304,280,180877,1,8
416,288,181558,2,0,B|416:200,3,70
256,192,182922,12,0,188376
