osu file format v14

[General]
AudioFilename: 01. My Truth.mp3
AudioLeadIn: 0
PreviewTime: 100286
Countdown: 0
SampleSet: Soft
StackLeniency: 0.7
Mode: 0
LetterboxInBreaks: 0
WidescreenStoryboard: 1

[Editor]
DistanceSpacing: 1.2
BeatDivisor: 4
GridSize: 4
TimelineZoom: 1

[Metadata]
Title:My Truth~Rondo Capriccioso
TitleUnicode:My Truth~ロンド・カプリチオーソ
Artist:Miyazono Kaori(CV.Taneda Risa)
ArtistUnicode:宮園かをり(CV.種田梨沙)
Creator:Setz
Version:Hard
Source:四月は君の嘘
Tags:shigatsu wa kimi no uso Your Lie in April insert song episode 11 setsuna
BeatmapID:622779
BeatmapSetID:274337

[Difficulty]
HPDrainRate:6
CircleSize:4
OverallDifficulty:5.5
ApproachRate:7
SliderMultiplier:1.5
SliderTickRate:1

[Events]
//Background and Video events
0,0,"BG.png",0,0
//Break Periods
2,152169,165731
//Storyboard Layer 0 (Background)
//Storyboard Layer 1 (Fail)
//Storyboard Layer 2 (Pass)
//Storyboard Layer 3 (Foreground)
Sprite,Foreground,Centre,"SB\highlight.png",99,195 C,0,21484,,255,255,128 F,0,21484,21895,1,0
Sprite,Foreground,Centre,"SB\highlight.png",480,397 C,0,23950,,255,255,128 F,0,23950,24361,1,0
Sprite,Foreground,Centre,"SB\highlight.png",500,133 C,0,26416,,255,128,0 F,0,26416,26827,1,0
Sprite,Foreground,Centre,"SB\highlight.png",497,363 C,0,30731,,255,128,255 F,0,30731,31142,1,0
Sprite,Foreground,Centre,"SB\highlight.png",281,405 C,0,31347,,0,128,192 F,0,31347,31758,1,0
Sprite,Foreground,Centre,"SB\highlight.png",346,210 C,0,33813,,0,128,192 F,0,33813,34224,1,0
Sprite,Foreground,Centre,"SB\highlight.png",142,373 C,0,36279,,255,128,128 F,0,36279,36690,1,0
Sprite,Foreground,Centre,"SB\highlight.png",385,176 C,0,38745,,255,128,128 F,0,38745,39156,1,0
Sprite,Foreground,Centre,"SB\highlight.png",200,345 C,0,92991,,255,128,0 F,0,92991,93402,1,0
Sprite,Foreground,Centre,"SB\highlight.png",212,213 C,0,95457,,255,128,255 F,0,95457,95868,1,0
Sprite,Foreground,Centre,"SB\highlight.png",238,112 C,0,97923,,0,128,192 F,0,97923,98334,1,0
Sprite,Foreground,Centre,"SB\highlight.png",430,213 C,0,100389,,255,128,128 F,0,100389,100799,1,0
Sprite,Foreground,Centre,"SB\highlight.png",532,298 C,0,218745,,255,255,128 F,0,218745,219156,1,0
Sprite,Foreground,Centre,"SB\highlight.png",75,189 C,0,221210,,255,128,0 F,0,221210,221621,1,0
Sprite,Foreground,Centre,"SB\highlight.png",462,217 C,0,223676,,255,128,255 F,0,223676,224087,1,0
Sprite,Foreground,Centre,"SB\highlight.png",195,256 C,0,227375,,0,128,192 F,0,227375,227786,1,0
Sprite,Foreground,Centre,"SB\highlight.png",181,146 C,0,166964,,255,128,128 F,0,166964,167375,1,0
Sprite,Foreground,Centre,"SB\highlight.png",448,383 C,0,168197,,255,128,128 F,0,168197,168608,1,0
Sprite,Foreground,Centre,"SB\highlight.png",312,160 C,0,169430,,255,255,128 F,0,169430,169841,1,0
Sprite,Foreground,Centre,"SB\highlight.png",115,333 C,0,170662,,255,255,128 F,0,170662,171073,1,0
Sprite,Foreground,Centre,"SB\highlight.png",486,300 C,0,171895,,255,128,0 F,0,171895,172306,1,0
Sprite,Foreground,Centre,"SB\highlight.png",519,251 C,0,176827,,0,128,192 F,0,176827,177238,1,0
Sprite,Foreground,Centre,"SB\highlight.png",175,199 C,0,178060,,0,128,192 F,0,178060,178471,1,0
Sprite,Foreground,Centre,"SB\highlight.png",443,93 C,0,179293,,255,128,128 F,0,179293,179704,1,0
Sprite,Foreground,Centre,"SB\highlight.png",322,346 C,0,180526,,255,128,128 F,0,180526,180936,1,0
Sprite,Foreground,Centre,"SB\highlight.png",250,182 C,0,181758,,255,255,128 F,0,181758,182169,1,0
Sprite,Foreground,Centre,"SB\highlight.png",328,337 C,0,237238,,255,128,255 F,0,237238,237649,1,0
Sprite,Foreground,Centre,"SB\highlight.png",141,249 C,0,252032,,0,128,192 F,0,252032,252443,1,0
Sprite,Foreground,Centre,"SB\highlight.png",160,397 C,0,261895,,255,128,255 F,0,261895,262306,1,0
Sprite,Foreground,Centre,"SB\highlight.png",223,375 C,0,279156,,0,128,192 F,0,279156,279567,1,0
Sprite,Foreground,Centre,"SB\highlight.png",339,341 C,0,281621,,0,128,192 F,0,281621,282032,1,0
Sprite,Foreground,Centre,"SB\highlight.png",96,156 C,0,284087,,255,128,128 F,0,284087,284498,1,0
Sprite,Foreground,Centre,"SB\highlight.png",272,154 C,0,288402,,255,255,128 F,0,288402,288813,1,0
Sprite,Foreground,Centre,"SB\highlight.png",209,284 C,0,289019,,255,128,0 F,0,289019,289430,1,0
Sprite,Foreground,Centre,"SB\highlight.png",245,159 C,0,291484,,255,128,0 F,0,291484,291895,1,0
Sprite,Foreground,Centre,"SB\highlight.png",479,394 C,0,293950,,255,128,255 F,0,293950,294361,1,0
Sprite,Foreground,Centre,"SB\highlight.png",171,384 C,0,296416,,0,128,192 F,0,296416,296827,1,0
//Storyboard Sound Samples

[TimingPoints]
526,410.958904109589,3,2,1,30,1,0
15320,-100,3,2,1,5,0,0
17785,-100,3,2,1,30,0,0
17991,-100,3,2,1,5,0,0
21484,-153.846153846154,3,2,1,25,0,0
32580,-153.846153846154,3,2,1,25,0,0
32991,-153.846153846154,3,2,1,25,0,0
41210,-100,3,2,1,35,0,0
92991,-111.111111111111,3,2,1,30,0,0
96690,-125,3,2,1,30,0,0
99156,-100,3,2,1,45,0,0
99772,-100,3,2,1,65,0,0
100389,-90.9090909090909,3,2,2,65,0,1
110149,-90.9090909090909,3,2,2,65,0,0
110252,-90.9090909090909,3,2,2,65,0,1
124943,-100,3,2,2,65,0,0
125046,-90.9090909090909,3,2,2,65,0,1
134806,-90.9090909090909,3,2,2,65,0,0
134909,-90.9090909090909,3,2,2,65,0,1
147238,-100,3,2,1,65,0,0
147443,-100,3,2,1,5,0,0
150936,-100,3,2,1,20,0,0
166964,-153.846153846154,3,2,1,25,0,0
183197,-153.846153846154,3,2,1,5,0,0
186279,-100,3,2,1,35,0,0
218745,-111.111111111111,3,2,1,35,0,0
222443,-125,3,2,1,35,0,0
224909,-100,3,2,1,35,0,0
225525,-100,3,2,1,70,0,0
227375,-90.9090909090909,3,2,2,65,0,1
237135,-90.9090909090909,3,2,2,65,0,0
237238,-90.9090909090909,3,2,2,65,0,1
251930,-90.9090909090909,3,2,2,65,0,0
252032,-90.9090909090909,3,2,2,65,0,1
261793,-90.9090909090909,3,2,2,65,0,0
261895,-90.9090909090909,3,2,2,65,0,1
274224,-100,3,2,1,65,0,0
274430,-100,3,2,1,5,0,0
279156,-153.846153846154,3,2,1,25,0,0
288916,-153.846153846154,3,2,1,5,0,0
289019,-153.846153846154,3,2,1,25,0,0
296621,-153.846153846154,3,2,1,5,0,0
298882,-153.846153846154,3,2,1,15,0,0

[Colours]
Combo1 : 255,128,128
Combo2 : 255,255,128
Combo3 : 255,128,0
Combo4 : 255,128,255
Combo5 : 0,128,192

[HitObjects]
256,192,15320,12,2,17786,0:0:0:0:
256,192,17991,12,0,20046,0:0:0:0:
35,139,21484,6,0,P|121:176|211:138,1,194.999991073609,2|2,0:0|0:0,0:0:0:0:
304,27,22717,1,0,1:0:0:0:
423,110,23128,2,0,L|428:161,1,48.7499977684022,2|2,0:0|0:0,0:0:0:0:
396,224,23539,2,0,L|391:275,1,48.7499977684022,2|2,0:0|0:0,0:0:0:0:
416,341,23950,1,2,0:0:0:0:
436,77,26416,6,0,B|381:171|478:171|427:274,1,194.999991073609,2|2,0:0|0:0,0:0:0:0:
317,355,27649,1,8,0:0:0:0:
185,290,28060,2,0,L|180:239,1,48.7499977684022,2|2,0:0|0:0,0:0:0:0:
212,176,28471,2,0,L|217:125,1,48.7499977684022,2|2,0:0|0:0,0:0:0:0:
256,66,28882,5,2,0:0:0:0:
325,44,29087,2,0,P|351:43|387:50,1,48.7499977684022,2|2,0:0|0:0,0:0:0:0:
439,77,29498,1,0,0:0:0:0:
439,77,29704,2,0,L|457:136,1,48.7499977684022,0|0,0:0|0:0,0:0:0:0:
429,192,30115,1,2,0:0:0:0:
429,192,30321,2,0,L|409:249,1,48.7499977684022,0|0,0:0|0:0,0:0:0:0:
433,307,30731,1,2,0:0:0:0:
217,349,31347,6,0,L|192:143,1,194.999991073609,2|2,0:0|0:0,0:0:0:0:
104,39,32580,1,0,1:0:0:0:
43,170,32991,2,0,P|72:179|108:176,1,48.7499977684022,2|2,0:0|0:0,0:0:0:0:
162,164,33402,2,0,P|191:155|227:158,1,48.7499977684022,2|2,0:0|0:0,0:0:0:0:
282,154,33813,1,2,0:0:0:0:
78,317,36279,6,0,P|128:346|228:334,1,146.249993305207,2|8,0:0|0:0,0:0:0:0:
282,314,37101,1,2,0:0:0:0:
349,184,37512,1,8,0:0:0:0:
263,65,37923,2,0,P|242:59|204:60,1,48.7499977684022,2|2,0:0|0:0,0:0:0:0:
178,136,38334,2,0,P|199:142|237:141,1,48.7499977684022,2|2,0:0|0:0,0:0:0:0:
321,120,38745,1,2,0:0:0:0:
321,120,41210,5,6,0:0:0:0:
145,79,41621,2,0,P|137:116|147:164,1,75,0|0,0:0|0:0,0:0:0:0:
170,238,42032,1,0,0:0:0:0:
221,311,42238,1,0,0:0:0:0:
309,324,42443,2,0,P|377:288|382:210,1,150,2|0,0:0|0:0,0:0:0:0:
309,59,43265,2,0,P|274:51|234:55,1,75,0|0,0:0|0:0,0:0:0:0:
149,81,43676,6,0,P|113:141|124:237,1,150,2|0,0:0|0:0,0:0:0:0:
144,304,44293,1,0,0:0:0:0:
80,367,44498,1,0,0:0:0:0:
226,261,44909,2,0,P|301:259|370:288,1,150,2|0,0:0|0:0,0:0:0:0:
443,337,45525,1,0,0:0:0:0:
441,246,45731,2,0,L|447:165,1,75,0|0,0:0|0:0,0:0:0:0:
370,288,46142,6,0,P|301:316|226:314,1,150,2|0,0:0|0:0,0:0:0:0:
138,292,46758,1,0,0:0:0:0:
92,214,46964,1,0,0:0:0:0:
175,54,47375,2,0,P|253:33|329:53,1,150,2|0,0:0|0:0,0:0:0:0:
400,86,47991,1,0,0:0:0:0:
457,155,48197,2,0,L|460:236,1,75,0|0,0:0|0:0,0:0:0:0:
440,318,48608,5,2,0:0:0:0:
351,330,48813,1,0,0:0:0:0:
267,295,49019,2,0,P|259:258|265:209,1,75,0|0,0:0|0:0,0:0:0:0:
193,161,49430,2,0,P|180:196|179:233,1,75,0|0,0:0|0:0,0:0:0:0:
177,323,49841,1,2,0:0:0:0:
103,272,50046,2,0,P|95:235|101:186,1,75,0|0,0:0|0:0,0:0:0:0:
135,116,50457,1,0,0:0:0:0:
90,37,50662,2,0,L|16:37,1,75,0|0,0:0|0:0,0:0:0:0:
168,37,51073,6,0,P|241:38|320:60,1,150,2|0,0:0|0:0,0:0:0:0:
397,95,51690,1,0,0:0:0:0:
435,176,51895,2,0,L|442:250,1,75,0|0,0:0|0:0,0:0:0:0:
505,316,52306,2,0,P|433:340|371:304,1,150,2|0,0:0|0:0,0:0:0:0:
217,213,53128,2,0,L|215:138,1,75,0|0,0:0|0:0,0:0:0:0:
146,79,53539,6,0,P|210:47|285:81,1,150,2|0,0:0|0:0,0:0:0:0:
351,127,54156,1,0,0:0:0:0:
437,150,54361,1,0,0:0:0:0:
370,317,54772,2,0,P|312:350|226:328,1,150,2|0,0:0|0:0,0:0:0:0:
163,276,55389,1,0,0:0:0:0:
134,190,55594,2,0,L|131:111,1,75,0|0,0:0|0:0,0:0:0:0:
56,224,56005,6,0,P|34:296|61:370,1,150,2|0,0:0|0:0,0:0:0:0:
146,374,56621,1,0,0:0:0:0:
230,342,56827,1,0,0:0:0:0:
408,318,57238,2,0,P|438:250|394:186,1,150,2|0,0:0|0:0,0:0:0:0:
332,132,57854,1,0,0:0:0:0:
252,89,58060,1,0,0:0:0:0:
75,108,58471,6,0,P|45:173|71:259,1,150,2|0,0:0|0:0,0:0:0:0:
118,317,59087,1,0,0:0:0:0:
204,290,59293,2,0,L|213:203,1,75,0|0,0:0|0:0,0:0:0:0:
292,171,59704,2,0,L|277:330,1,150,2|0,0:0|0:0,0:0:0:0:
350,373,60320,1,0,0:0:0:0:
438,355,60525,2,0,P|443:317|431:264,1,75,0|0,0:0|0:0,0:0:0:0:
373,216,60936,6,0,P|368:178|380:125,1,75,2|0,0:0|0:0,0:0:0:0:
415,62,61347,1,2,0:0:0:0:
329,34,61553,2,0,P|293:33|253:47,1,75,2|2,0:0|0:0,0:0:0:0:
128,172,62169,2,0,P|203:195|282:162,1,150,2|2,0:0|0:0,0:0:0:0:
345,125,62786,1,2,0:0:0:0:
423,168,62991,1,2,0:0:0:0:
434,257,63197,1,0,0:0:0:0:
390,335,63402,6,0,P|354:349|312:347,1,75,2|0,0:0|0:0,0:0:0:0:
234,315,63813,2,0,P|199:301|162:301,1,75,2|2,0:0|0:0,0:0:0:0:
73,317,64224,1,2,0:0:0:0:
19,145,64635,2,0,P|55:130|98:134,1,75,2|0,0:0|0:0,0:0:0:0:
174,163,65046,1,2,0:0:0:0:
248,213,65252,1,2,0:0:0:0:
306,145,65457,2,0,L|318:69,1,75,2|0,0:0|0:0,0:0:0:0:
321,220,65868,6,0,P|383:255|470:243,1,150,2|0,0:0|0:0,0:0:0:0:
509,173,66484,1,0,0:0:0:0:
474,89,66690,2,0,P|440:73|402:71,1,75,0|0,0:0|0:0,0:0:0:0:
312,71,67101,2,0,B|295:80|278:89|278:89|294:145|306:172|293:200,1,150,2|0,0:0|0:0,0:0:0:0:
231,262,67717,1,0,0:0:0:0:
243,351,67923,1,0,0:0:0:0:
415,300,68334,6,0,P|442:232|421:143,1,150,2|0,0:0|0:0,0:0:0:0:
372,88,68950,1,0,0:0:0:0:
298,37,69156,2,0,P|256:30|210:38,1,75,0|0,0:0|0:0,0:0:0:0:
135,54,69567,2,0,P|104:127|125:201,1,150,2|0,0:0|0:0,0:0:0:0:
166,270,70183,1,0,0:0:0:0:
229,334,70389,2,0,P|266:344|316:338,1,75,0|0,0:0|0:0,0:0:0:0:
390,324,70799,6,0,P|399:286|389:244,1,75,2|0,0:0|0:0,0:0:0:0:
355,168,71210,1,2,0:0:0:0:
301,95,71416,2,0,P|334:79|382:81,1,75,2|2,0:0|0:0,0:0:0:0:
192,95,72032,2,0,P|159:79|111:81,1,75,2|0,0:0|0:0,0:0:0:0:
138,168,72443,1,2,0:0:0:0:
100,251,72649,2,0,P|93:287|102:323,1,75,2|2,0:0|0:0,0:0:0:0:
187,353,73060,1,0,0:0:0:0:
275,370,73265,6,0,P|350:370|418:338,1,150,2|2,0:0|0:0,0:0:0:0:
494,291,73882,1,2,0:0:0:0:
431,226,74087,1,2,0:0:0:0:
462,48,74498,2,0,P|431:30|381:29,1,75,2|0,0:0|0:0,0:0:0:0:
302,32,74909,1,2,0:0:0:0:
234,92,75115,1,2,0:0:0:0:
181,165,75320,2,0,L|96:165,1,75,0|0,0:0|0:0,0:0:0:0:
231,235,75731,6,0,P|298:261|376:258,1,150,2|0,0:0|0:0,0:0:0:0:
461,232,76347,1,0,0:0:0:0:
502,152,76553,2,0,P|508:114|485:68,1,75,0|0,0:0|0:0,0:0:0:0:
415,39,76964,2,0,P|348:13|270:16,1,150,2|0,0:0|0:0,0:0:0:0:
182,35,77580,1,0,0:0:0:0:
123,103,77786,1,0,0:0:0:0:
157,279,78197,5,2,0:0:0:0:
245,301,78402,1,0,0:0:0:0:
279,217,78608,2,0,P|316:209|365:215,1,75,0|0,0:0|0:0,0:0:0:0:
413,143,79019,2,0,P|378:130|341:129,1,75,0|0,0:0|0:0,0:0:0:0:
251,127,79430,1,2,0:0:0:0:
302,53,79635,2,0,P|339:45|388:51,1,75,0|0,0:0|0:0,0:0:0:0:
444,106,80046,1,8,0:0:0:0:
348,203,80252,2,0,P|339:166|351:120,1,75,8|8,0:0|0:0,0:0:0:0:
463,206,80662,6,0,P|472:243|460:289,1,75,2|0,0:0|0:0,0:0:0:0:
400,342,81073,2,0,P|362:333|310:341,1,75,0|0,0:0|0:0,0:0:0:0:
237,351,81484,2,0,P|199:356|162:353,1,75,0|0,0:0|0:0,0:0:0:0:
77,324,81895,2,0,P|56:255|104:178,1,150,2|0,0:0|0:0,0:0:0:0:
159,130,82512,1,0,0:0:0:0:
246,109,82717,1,0,0:0:0:0:
332,133,82923,1,0,0:0:0:0:
277,203,83128,6,0,P|352:221|416:161,1,150,2|0,0:0|0:0,0:0:0:0:
410,90,83745,1,0,0:0:0:0:
332,44,83950,2,0,P|302:33|245:32,1,75
169,35,84361,1,2,0:0:0:0:
69,185,84772,2,0,P|36:259|68:334,1,150,2|2,0:0|0:0,0:0:0:0:
136,362,85389,1,0,0:0:0:0:
222,336,85594,6,0,P|297:310|373:317,1,150,2|2,0:0|0:0,0:0:0:0:
454,334,86210,1,0,0:0:0:0:
426,248,86416,2,2,P|420:211|431:175,1,75,2|0,0:0|0:0,0:0:0:0:
493,110,86827,2,0,P|420:86|355:129,1,150,2|2,0:0|0:0,0:0:0:0:
301,189,87443,1,0,0:0:0:0:
252,264,87649,2,0,P|286:278|325:275,1,75,2|0,0:0|0:0,0:0:0:0:
378,204,88060,5,2,0:0:0:0:
260,68,88471,2,0,P|226:54|190:54,1,75,0|0,0:0|0:0,0:0:0:0:
134,128,88882,2,0,P|168:142|204:142,1,75,0|0,0:0|0:0,0:0:0:0:
254,217,89293,2,0,P|183:233|109:215,1,150,2|0,0:0|0:0,0:0:0:0:
29,173,89909,1,0,0:0:0:0:
20,262,90115,1,0,0:0:0:0:
189,321,90526,6,0,P|265:312|332:284,1,150,2|0,0:0|0:0,0:0:0:0:
407,233,91142,1,0,0:0:0:0:
469,168,91347,2,0,P|476:129|467:87,1,75,0|0,0:0|0:0,0:0:0:0:
400,37,91758,2,0,P|327:18|252:28,1,150,2|0,0:0|0:0,0:0:0:0:
172,66,92375,1,0,0:0:0:0:
106,127,92580,2,0,P|99:164|104:209,1,75,0|0,0:0|0:0,0:0:0:0:
136,289,92991,6,0,P|165:304|210:310,1,67.4999979400635,2|0,0:0|0:0,0:0:0:0:
285,324,93402,2,0,P|317:328|364:322,1,67.4999979400635,0|0,0:0|0:0,0:0:0:0:
435,297,93813,2,0,P|445:265|441:221,1,67.4999979400635,0|0,0:0|0:0,0:0:0:0:
409,150,94224,1,2,0:0:0:0:
246,66,94635,2,0,L|244:134,1,67.4999979400635,0|0,0:0|0:0,0:0:0:0:
278,217,95046,2,0,P|250:224|210:217,1,67.4999979400635,0|0,0:0|0:0,0:0:0:0:
148,157,95457,5,2,0:0:0:0:
73,315,95868,2,0,P|101:322|140:315,1,67.4999979400635,0|0,0:0|0:0,0:0:0:0:
220,284,96279,1,0,0:0:0:0:
297,323,96484,1,0,0:0:0:0:
372,285,96690,1,2,0:0:0:0:
435,129,97101,2,0,P|406:132|370:126,1,60,0|0,0:0|0:0,0:0:0:0:
301,103,97512,1,0,0:0:0:0:
222,122,97717,1,0,0:0:0:0:
174,56,97923,5,2,0:0:0:0:
74,191,98334,2,0,P|103:194|139:188,1,60,2|0,0:0|0:0,0:0:0:0:
215,172,98745,1,2,0:0:0:0:
290,207,98950,1,0,0:0:0:0:
365,157,99156,2,0,P|372:118|370:78,1,75,10|10,0:0|0:0,0:0:0:0:
278,17,99567,1,10,0:0:0:0:
215,172,99772,1,10,0:0:0:0:
366,157,99978,1,10,0:0:0:0:
366,157,100389,6,0,P|392:235|352:321,1,165.000005035401,4|2,0:0|0:0,0:0:0:0:
267,358,101005,1,0,0:0:0:0:
171,310,101210,1,2,0:0:0:0:
110,220,101416,1,0,0:0:0:0:
33,145,101621,2,0,P|101:112|195:154,1,165.000005035401,2|2,0:0|0:0,0:0:0:0:
396,126,102443,2,0,P|437:115|483:126,1,82.5000025177003,2|0,0:0|0:0,0:0:0:0:
438,223,102854,6,0,P|462:302|409:384,1,165.000005035401,2|2,0:0|0:0,0:0:0:0:
225,292,103676,2,0,L|135:290,1,82.5000025177003,2|0,0:0|0:0,0:0:0:0:
278,226,104087,2,0,P|350:207|443:225,1,165.000005035401,2|2,0:0|0:0,0:0:0:0:
504,137,104704,1,0,0:0:0:0:
460,39,104909,2,0,P|416:35|374:43,1,82.5000025177003,2|0,0:0|0:0,0:0:0:0:
284,93,105320,6,0,P|202:102|118:74,1,165.000005035401,2|2,0:0|0:0,0:0:0:0:
29,27,105936,1,0,0:0:0:0:
4,131,106142,2,0,L|4:226,1,82.5000025177003,2|0,0:0|0:0,0:0:0:0:
57,306,106553,2,0,P|101:321|223:324,1,165.000005035401,2|2,0:0|0:0,0:0:0:0:
430,286,107375,2,0,P|436:245|422:197,1,82.5000025177003,2|0,0:0|0:0,0:0:0:0:
374,113,107786,6,0,P|291:60|217:86,1,165.000005035401,2|2,0:0|0:0,0:0:0:0:
284,166,108402,1,0,0:0:0:0:
365,236,108608,2,0,L|453:237,1,82.5000025177003,2|0,0:0|0:0,0:0:0:0:
305,305,109019,2,0,P|227:330|151:304,1,165.000005035401,2|0,0:0|0:0,0:0:0:0:
173,90,109841,2,0,L|173:7,1,82.5000025177003,2|0,0:0|0:0,0:0:0:0:
214,174,110252,6,0,P|290:200|367:174,1,165.000005035401,4|2,0:0|0:0,0:0:0:0:
439,94,110868,1,0,0:0:0:0:
508,175,111073,1,2,0:0:0:0:
436,255,111279,1,0,0:0:0:0:
368,175,111484,2,0,P|330:265|368:334,1,165.000005035401,2|2,0:0|0:0,0:0:0:0:
436,255,112101,1,0,0:0:0:0:
368,175,112306,2,0,P|323:166|277:178,1,82.5000025177003,2|0,0:0|0:0,0:0:0:0:
170,228,112717,6,0,P|129:235|89:226,1,82.5000025177003,2|0,0:0|0:0,0:0:0:0:
20,110,113128,2,0,P|52:85|98:78,1,82.5000025177003,2|0,0:0|0:0,0:0:0:0:
168,146,113539,2,0,L|171:234,1,82.5000025177003,2|0,0:0|0:0,0:0:0:0:
222,62,113950,2,0,P|284:49|383:76,1,165.000005035401,2|0,0:0|0:0,0:0:0:0:
468,138,114567,1,0,0:0:0:0:
479,238,114772,1,2,0:0:0:0:
286,331,115183,6,0,P|207:353|122:334,1,165.000005035401,2|2,0:0|0:0,0:0:0:0:
64,249,115799,1,0,0:0:0:0:
27,147,116005,2,0,P|19:105|32:65,1,82.5000025177003,2|0,0:0|0:0,0:0:0:0:
132,35,116416,2,0,P|214:30|293:52,1,165.000005035401,2|2,0:0|0:0,0:0:0:0:
388,102,117032,1,0,0:0:0:0:
468,173,117238,2,0,P|479:213|472:261,1,82.5000025177003,2|0,0:0|0:0,0:0:0:0:
423,347,117649,6,0,P|342:363|258:339,1,165.000005035401,2|2,0:0|0:0,0:0:0:0:
157,151,118471,2,0,L|139:58,1,82.5000025177003,2|0,0:0|0:0,0:0:0:0:
234,11,118882,2,0,L|264:184,1,165.000005035401,2|2,0:0|0:0,0:0:0:0:
279,279,119498,1,2,0:0:0:0:
279,279,119704,2,0,P|241:293|191:290,1,82.5000025177003,2|2,0:0|0:0,0:0:0:0:
93,275,120115,6,0,B|71:263|49:252|49:252|74:192|89:159|74:131,1,165.000005035401,2|2,0:0|0:0,0:0:0:0:
138,53,120731,1,0,0:0:0:0:
239,90,120936,2,0,L|345:91,1,82.5000025177003,2|0,0:0|0:0,0:0:0:0:
184,160,121347,2,0,P|163:241|189:324,1,165.000005035401,2|2,0:0|0:0,0:0:0:0:
277,372,121964,1,0,0:0:0:0:
375,331,122169,2,0,L|481:330,1,82.5000025177003,2|0,0:0|0:0,0:0:0:0:
320,261,122580,6,0,P|299:180|325:97,1,165.000005035401,2|2,0:0|0:0,0:0:0:0:
420,62,123197,1,0,0:0:0:0:
487,145,123402,1,2,0:0:0:0:
425,233,123608,1,0,0:0:0:0:
321,261,123813,1,2,0:0:0:0:
119,187,124224,1,2,0:0:0:0:
196,261,124430,1,0,0:0:0:0:
263,177,124635,2,0,L|260:90,1,82.5000025177003,2|0,0:0|0:0,0:0:0:0:
321,261,125046,6,0,P|387:291|480:269,1,165.000005035401,4|2,0:0|0:0,0:0:0:0:
504,169,125662,1,0,0:0:0:0:
453,73,125868,1,2,0:0:0:0:
354,115,126073,1,0,0:0:0:0:
276,40,126279,2,0,P|193:19|105:31,1,165.000005035401,2|2,0:0|0:0,0:0:0:0:
19,220,127101,2,0,P|59:230|100:225,1,82.5000025177003,2|0,0:0|0:0,0:0:0:0:
168,142,127512,6,0,P|208:207|169:307,1,165.000005035401,2|2,0:0|0:0,0:0:0:0:
335,133,128334,2,0,L|344:39,1,82.5000025177003,2|0,0:0|0:0,0:0:0:0:
281,210,128745,2,0,P|335:228|421:172,1,165.000005035401,2|2,0:0|0:0,0:0:0:0:
481,84,129361,1,0,0:0:0:0:
390,22,129567,1,2,0:0:0:0:
303,84,129772,1,0,0:0:0:0:
214,23,129978,6,0,P|196:99|243:175,1,165.000005035401,2|2,0:0|0:0,0:0:0:0:
332,220,130594,1,0,0:0:0:0:
231,253,130799,2,0,L|239:157,1,82.5000025177003,2|0,0:0|0:0,0:0:0:0:
290,332,131210,2,0,P|217:351|147:302,1,165.000005035401,2|2,0:0|0:0,0:0:0:0:
151,87,132032,2,0,P|185:73|238:74,1,82.5000025177003,2|0,0:0|0:0,0:0:0:0:
288,160,132443,6,0,P|317:253|390:281,1,165.000005035401,2|2,0:0|0:0,0:0:0:0:
391,177,133059,1,0,0:0:0:0:
335,85,133265,2,0,P|291:72|238:86,1,82.5000025177003,2|0,0:0|0:0,0:0:0:0:
150,101,133676,2,0,P|85:148|76:228,1,165.000005035401,2|2,0:0|0:0,0:0:0:0:
177,202,134293,2,0,P|218:208|250:232,1,82.5000025177003,2|0,0:0|0:0,0:0:0:0:
314,318,134704,1,0,0:0:0:0:
413,277,134909,6,0,P|448:202|388:116,1,165.000005035401,6|2,0:0|0:0,0:0:0:0:
322,76,135526,1,2,0:0:0:0:
221,40,135731,1,2,0:0:0:0:
130,96,135936,1,2,0:0:0:0:
188,186,136142,2,0,P|110:203|43:160,1,165.000005035401,2|2,0:0|0:0,0:0:0:0:
131,96,136758,1,2,0:0:0:0:
222,40,136964,1,2,0:0:0:0:
278,130,137169,1,2,0:0:0:0:
370,75,137375,6,0,P|382:153|322:229,1,165.000005035401,2|2,0:0|0:0,0:0:0:0:
142,312,138197,2,0,P|102:307|63:281,1,82.5000025177003,2|2,0:0|0:0,0:0:0:0:
8,192,138608,2,0,P|3:106|39:24,2,165.000005035401,2|2|2,0:0|0:0|0:0,0:0:0:0:
72,277,139635,1,0,0:0:0:0:
157,344,139841,6,0,P|195:353|256:345,1,82.5000025177003,2|0,0:0|0:0,0:0:0:0:
344,334,140252,2,0,L|347:251,1,82.5000025177003,2|0,0:0|0:0,0:0:0:0:
295,157,140662,2,0,L|292:74,1,82.5000025177003,2|0,0:0|0:0,0:0:0:0:
257,240,141073,2,0,P|165:256|95:227,1,165.000005035401,2|2,0:0|0:0,0:0:0:0:
110,21,141895,2,0,P|149:13|191:23,1,82.5000025177003,2|0,0:0|0:0,0:0:0:0:
297,42,142306,6,0,P|326:119|292:199,1,165.000005035401,2|2,0:0|0:0,0:0:0:0:
194,224,142923,1,0,0:0:0:0:
129,136,143128,2,0,L|113:51,1,82.5000025177003,2|0,0:0|0:0,0:0:0:0:
70,189,143539,2,0,L|98:355,1,165.000005035401,2|0,0:0|0:0,0:0:0:0:
204,366,144156,1,8,0:0:0:0:
264,277,144361,1,8,0:0:0:0:
341,351,144567,1,8,0:0:0:0:
435,300,144772,6,0,P|445:261|418:202,1,82.5000025177003,2|0,0:0|0:0,0:0:0:0:
376,130,145183,1,2,0:0:0:0:
289,194,145389,1,2,0:0:0:0:
228,105,145594,1,2,0:0:0:0:
139,165,145799,1,2,0:0:0:0:
77,77,146005,2,0,P|33:147|55:230,1,165.000005035401,2|0,0:0|0:0,0:0:0:0:
258,275,146827,2,0,L|264:192,1,82.5000025177003,0|0,0:0|0:0,0:0:0:0:
311,353,147238,5,2,0:0:0:0:
256,192,147443,12,0,150936,0:0:0:0:
117,90,166964,5,2,0:0:0:0:
143,233,167375,1,2,0:0:0:0:
242,339,167786,1,0,0:0:0:0:
314,349,167991,1,0,0:0:0:0:
384,327,168197,2,0,P|433:251|373:174,1,194.999991073609,2|0,0:0|0:0,0:0:0:0:
248,104,169430,6,0,P|157:80|79:133,1,194.999991073609,2|0,0:0|0:0,0:0:0:0:
51,277,170662,1,2,0:0:0:0:
252,364,171279,1,0,0:0:0:0:
323,348,171484,1,0,0:0:0:0:
382,305,171690,1,0,0:0:0:0:
422,244,171895,6,0,L|421:90,2,146.249993305207,2|2|0,0:0|0:0|0:0,0:0:0:0:
99,91,174361,5,0,0:0:0:0:
58,151,174567,1,0,0:0:0:0:
81,220,174772,2,0,L|86:274,1,48.7499977684022,2|0,0:0|0:0,0:0:0:0:
164,297,175183,2,0,L|159:248,1,48.7499977684022
231,207,175594,2,0,L|236:261,1,48.7499977684022,2|0,0:0|0:0,0:0:0:0:
245,328,176005,1,0,0:0:0:0:
310,360,176210,1,2,0:0:0:0:
455,195,176827,5,2,0:0:0:0:
206,40,177649,1,0,0:0:0:0:
174,105,177854,1,0,0:0:0:0:
111,143,178060,2,0,P|166:178|246:90,1,194.999991073609,2|0,0:0|0:0,0:0:0:0:
379,37,179293,6,0,P|420:122|361:218,1,194.999991073609,2|0,0:0|0:0,0:0:0:0:
258,290,180526,1,2,0:0:0:0:
64,186,181142,1,0,0:0:0:0:
106,126,181347,1,0,0:0:0:0:
146,187,181553,1,0,0:0:0:0:
186,126,181758,6,0,P|218:178|178:252,1,146.249993305207,2|0,0:0|0:0,0:0:0:0:
144,32,182991,1,0,0:0:0:0:
256,192,183197,12,0,185457,0:0:0:0:
137,128,186279,6,0,L|129:203,1,75,0|0,0:0|0:0,0:0:0:0:
79,277,186690,6,0,P|112:292|166:284,1,75,4|0,0:0|0:0,0:0:0:0:
237,266,187101,1,2,0:0:0:0:
298,200,187306,2,0,L|303:111,1,75,2|2,0:0|0:0,0:0:0:0:
475,175,187923,2,0,L|470:249,1,75,2|0,0:0|0:0,0:0:0:0:
417,321,188334,1,2,0:0:0:0:
331,365,188539,2,0,P|294:371|241:363,1,75,2|2,0:0|0:0,0:0:0:0:
168,347,188950,1,0,0:0:0:0:
121,269,189156,5,2,0:0:0:0:
173,196,189361,1,0,0:0:0:0:
97,147,189567,2,0,P|90:108|103:58,1,75,2|2,0:0|0:0,0:0:0:0:
175,30,189978,1,2,0:0:0:0:
349,74,190389,2,0,P|355:110|348:147,1,75,2|0,0:0|0:0,0:0:0:0:
287,213,190799,1,2,0:0:0:0:
342,283,191005,1,2,0:0:0:0:
261,323,191210,2,0,L|183:323,1,75,2|0,0:0|0:0,0:0:0:0:
343,366,191621,6,0,P|404:366|460:296,1,150,2|0,0:0|0:0,0:0:0:0:
462,211,192238,1,0,0:0:0:0:
420,131,192443,2,0,P|389:112|346:112,1,75,0|0,0:0|0:0,0:0:0:0:
262,127,192854,2,0,P|185:138|112:115,1,150,2|0,0:0|0:0,0:0:0:0:
44,63,193471,1,0,0:0:0:0:
3,143,193676,1,0,0:0:0:0:
54,315,194087,6,0,P|131:326|204:303,1,150,2|0,0:0|0:0,0:0:0:0:
265,244,194704,1,0,0:0:0:0:
307,164,194909,2,0,L|312:80,1,75,0|0,0:0|0:0,0:0:0:0:
391,47,195320,2,0,L|383:201,1,150,2|0,0:0|0:0,0:0:0:0:
344,278,195936,1,0,0:0:0:0:
264,320,196142,2,0,P|223:321|180:300,1,75,0|0,0:0|0:0,0:0:0:0:
151,227,196553,6,0,L|150:148,1,75,2|0,0:0|0:0,0:0:0:0:
96,284,196964,2,0,L|95:363,1,75,2|2,0:0|0:0,0:0:0:0:
38,226,197375,1,2,0:0:0:0:
134,73,197786,2,0,P|166:60|211:58,1,75,0|0,0:0|0:0,0:0:0:0:
295,69,198197,1,2,0:0:0:0:
369,118,198402,2,0,L|384:193,1,75,2|2,0:0|0:0,0:0:0:0:
348,274,198813,1,0,0:0:0:0:
276,329,199019,5,2,0:0:0:0:
187,312,199224,1,0,0:0:0:0:
139,235,199430,2,0,L|127:152,1,75,2|2,0:0|0:0,0:0:0:0:
89,308,199841,1,2,0:0:0:0:
276,329,200252,2,0,P|313:341|361:333,1,75,0|0,0:0|0:0,0:0:0:0:
432,305,200662,1,2,0:0:0:0:
364,244,200868,1,2,0:0:0:0:
440,196,201073,1,2,0:0:0:0:
368,140,201279,1,0,0:0:0:0:
314,68,201484,6,0,P|250:47|162:57,1,150,2|0,0:0|0:0,0:0:0:0:
74,208,202306,2,0,L|73:288,1,75,0|0,0:0|0:0,0:0:0:0:
13,353,202717,2,0,P|83:372|145:334,1,150,2|0,0:0|0:0,0:0:0:0:
198,260,203334,1,0,0:0:0:0:
213,171,203539,2,0,P|207:134|212:97,1,75,0|0,0:0|0:0,0:0:0:0:
274,31,203950,5,2,0:0:0:0:
350,81,204155,1,0,0:0:0:0:
345,171,204361,2,0,P|337:208|343:257,1,75,0|0,0:0|0:0,0:0:0:0:
271,305,204772,2,0,P|258:270|257:233,1,75,0|0,0:0|0:0,0:0:0:0:
255,143,205183,1,2,0:0:0:0:
174,95,205388,2,0,P|166:131|169:169,1,75,0|0,0:0|0:0,0:0:0:0:
197,254,205799,1,8,0:0:0:0:
272,305,206005,2,0,P|309:308|348:303,1,75,8|8,0:0|0:0,0:0:0:0:
194,359,206416,6,0,P|157:362|118:357,1,75,2|0,0:0|0:0,0:0:0:0:
31,336,206827,2,0,P|22:299|41:254,1,75,2|0,0:0|0:0,0:0:0:0:
89,194,207238,2,0,P|98:157|79:112,1,75,0|0,0:0|0:0,0:0:0:0:
19,62,207649,2,0,P|94:35|157:69,1,150,2|0,0:0|0:0,0:0:0:0:
222,122,208265,1,0,0:0:0:0:
295,174,208471,2,0,L|383:174,1,75
242,240,208882,6,0,P|203:245|123:177,1,150,2|0,0:0|0:0,0:0:0:0:
104,92,209498,1,0,0:0:0:0:
32,37,209704,2,0,P|14:75|19:119,1,75,0|0,0:0|0:0,0:0:0:0:
39,194,210115,1,2,0:0:0:0:
151,333,210525,2,0,P|221:350|299:324,1,150
367,274,211142,1,0,0:0:0:0:
306,207,211347,6,0,P|284:144|329:60,1,150,2|2,0:0|0:0,0:0:0:0:
400,41,211963,1,0,0:0:0:0:
465,103,212169,1,2,0:0:0:0:
305,207,212580,2,0,P|327:144|282:60,1,150,2|2,0:0|0:0,0:0:0:0:
213,32,213197,1,0,0:0:0:0:
132,71,213402,2,0,P|123:109|132:157,1,75,2|0,0:0|0:0,0:0:0:0:
160,228,213813,5,2,0:0:0:0:
301,116,214224,1,0,0:0:0:0:
379,71,214430,1,0,0:0:0:0:
455,117,214635,2,0,P|465:154|455:200,1,75,0|0,0:0|0:0,0:0:0:0:
437,277,215046,2,0,P|388:341|304:338,1,150,2|0,0:0|0:0,0:0:0:0:
348,259,215662,1,0,0:0:0:0:
324,346,215868,1,0,0:0:0:0:
193,222,216279,6,0,P|211:153|186:70,1,150,2|0,0:0|0:0,0:0:0:0:
113,31,216895,1,0,0:0:0:0:
34,75,217101,2,0,P|28:112|34:154,1,75,0|0,0:0|0:0,0:0:0:0:
36,235,217512,2,0,P|101:282|182:282,1,150,2|0,0:0|0:0,0:0:0:0:
258,275,218129,1,0,0:0:0:0:
342,304,218334,2,0,P|379:311|418:304,1,75,0|0,0:0|0:0,0:0:0:0:
468,242,218745,6,0,L|469:171,1,67.4999979400635,2|0,0:0|0:0,0:0:0:0:
377,123,219156,2,0,L|376:190,1,67.4999979400635,0|0,0:0|0:0,0:0:0:0:
323,261,219567,2,0,P|289:271|237:276,1,67.4999979400635,0|0,0:0|0:0,0:0:0:0:
169,277,219978,1,2,0:0:0:0:
262,128,220389,2,0,P|224:129|188:113,1,67.4999979400635,0|0,0:0|0:0,0:0:0:0:
122,74,220800,2,0,P|88:60|51:60,1,67.4999979400635,0|0,0:0|0:0,0:0:0:0:
11,133,221211,5,2,0:0:0:0:
47,304,221621,2,0,P|81:318|118:318,1,67.4999979400635,0|0,0:0|0:0,0:0:0:0:
198,306,222033,1,0,0:0:0:0:
145,235,222238,1,0,0:0:0:0:
183,160,222444,1,2,0:0:0:0:
276,307,222855,2,0,L|276:240,1,60,0|0,0:0|0:0,0:0:0:0:
277,161,223266,1,0,0:0:0:0:
338,103,223471,1,0,0:0:0:0:
398,161,223677,5,2,0:0:0:0:
307,302,224088,2,0,P|277:306|247:303,1,60,2|0,0:0|0:0,0:0:0:0:
167,276,224499,1,2,0:0:0:0:
131,200,224704,1,0,0:0:0:0:
184,127,224909,2,0,P|191:88|189:48,1,75,10|10,0:0|0:0,0:0:0:0:
87,2,225321,1,10,0:0:0:0:
6,126,225526,1,10,0:0:0:0:
131,200,225732,1,10,0:0:0:0:
131,200,227375,6,0,P|198:248|282:240,1,165.000005035401,4|2,0:0|0:0,0:0:0:0:
374,196,227991,1,0,0:0:0:0:
428,103,228197,1,2,0:0:0:0:
348,31,228402,1,0,0:0:0:0:
270,105,228608,2,0,P|234:171|284:246,1,165.000005035401,2|2,0:0|0:0,0:0:0:0:
485,196,229430,2,0,L|492:89,1,82.5000025177003,2|0,0:0|0:0,0:0:0:0:
473,284,229841,6,0,P|406:323|319:302,1,165.000005035401,2|2,0:0|0:0,0:0:0:0:
210,123,230662,2,0,L|210:37,1,82.5000025177003,2|0,0:0|0:0,0:0:0:0:
147,192,231073,2,0,P|129:267|175:358,1,165.000005035401,2|2,0:0|0:0,0:0:0:0:
267,368,231690,1,0,0:0:0:0:
348,300,231895,2,0,P|359:260|350:220,1,82.5000025177003,2|0,0:0|0:0,0:0:0:0:
256,169,232306,6,0,P|312:119|413:134,1,165.000005035401,2|2,0:0|0:0,0:0:0:0:
488,182,232923,1,0,0:0:0:0:
424,272,233128,2,0,P|381:297|346:299,1,82.5000025177003,2|0,0:0|0:0,0:0:0:0:
242,283,233539,2,0,P|215:204|265:128,1,165.000005035401,2|2,0:0|0:0,0:0:0:0:
270,353,234361,2,0,P|229:355|191:340,1,82.5000025177003,2|0,0:0|0:0,0:0:0:0:
102,280,234772,6,0,P|75:201|125:125,1,165.000005035401,2|2,0:0|0:0,0:0:0:0:
196,66,235389,1,0,0:0:0:0:
276,136,235594,2,0,L|278:231,1,82.5000025177003,2|0,0:0|0:0,0:0:0:0:
342,50,236005,2,0,P|266:26|196:66,1,165.000005035401,2|2,0:0|0:0,0:0:0:0:
342,223,236827,2,0,L|429:223,1,82.5000025177003,2|0,0:0|0:0,0:0:0:0:
264,281,237238,6,0,P|191:303|91:279,1,165.000005035401,4|2,0:0|0:0,0:0:0:0:
22,217,237854,1,0,0:0:0:0:
79,130,238060,2,0,L|87:36,1,82.5000025177003,2|0,0:0|0:0,0:0:0:0:
188,13,238471,2,0,L|170:194,1,165.000005035401,2|2,0:0|0:0,0:0:0:0:
233,265,239087,1,2,0:0:0:0:
350,221,239293,2,0,L|361:131,1,82.5000025177003,2|0,0:0|0:0,0:0:0:0:
244,183,239704,6,0,L|232:265,1,82.5000025177003,2|0,0:0|0:0,0:0:0:0:
353,379,240115,2,0,L|343:297,1,82.5000025177003,2|0,0:0|0:0,0:0:0:0:
435,192,240525,2,0,L|447:274,1,82.5000025177003,2|0,0:0|0:0,0:0:0:0:
495,127,240936,2,0,P|404:110|354:157,1,165.000005035401,2|2,0:0|0:0,0:0:0:0:
302,249,241553,1,0,0:0:0:0:
202,287,241758,1,2,0:0:0:0:
356,155,242169,6,0,B|378:167|400:178|400:178|375:238|360:271|375:299,1,165.000005035401,2|2,0:0|0:0,0:0:0:0:
290,360,242786,1,0,0:0:0:0:
187,330,242991,1,2,0:0:0:0:
153,227,243197,1,0,0:0:0:0:
243,174,243402,2,0,P|160:121|86:147,1,165.000005035401,2|2,0:0|0:0,0:0:0:0:
22,210,244019,1,0,0:0:0:0:
41,315,244224,2,0,P|76:335|133:331,1,82.5000025177003,2|0,0:0|0:0,0:0:0:0:
224,328,244635,6,0,P|300:320|397:350,1,165.000005035401,2|2,0:0|0:0,0:0:0:0:
490,364,245252,1,0,0:0:0:0:
384,343,245457,1,2,0:0:0:0:
470,146,245868,2,0,P|387:119|306:172,1,165.000005035401,2|2,0:0|0:0,0:0:0:0:
243,226,246484,1,2,0:0:0:0:
141,190,246690,2,0,P|101:195|49:184,1,82.5000025177003,2|2,0:0|0:0,0:0:0:0:
178,114,247101,6,0,P|257:102|320:152,1,165.000005035401,2|2,0:0|0:0,0:0:0:0:
230,205,247717,1,0,0:0:0:0:
321,262,247923,2,0,L|409:262,1,82.5000025177003,2|0,0:0|0:0,0:0:0:0:
259,332,248334,2,0,P|183:352|90:323,1,165.000005035401,2|2,0:0|0:0,0:0:0:0:
48,121,249156,2,0,P|81:93|123:81,1,82.5000025177003,2|0,0:0|0:0,0:0:0:0:
131,188,249567,6,0,P|209:210|288:188,1,165.000005035401,2|2,0:0|0:0,0:0:0:0:
385,142,250183,1,0,0:0:0:0:
297,79,250389,2,0,L|200:79,1,82.5000025177003,2|2,0:0|0:0,0:0:0:0:
371,9,250799,1,2,0:0:0:0:
392,222,251210,2,0,P|353:209|312:214,1,82.5000025177003,2|2,0:0|0:0,0:0:0:0:
229,281,251621,2,0,P|188:286|149:273,1,82.5000025177003,2|2,0:0|0:0,0:0:0:0:
77,193,252032,5,4,0:0:0:0:
89,86,252238,1,0,0:0:0:0:
187,44,252443,2,0,P|226:34|282:45,1,82.5000025177003,2|2,0:0|0:0,0:0:0:0:
356,99,252854,2,0,L|360:181,1,82.5000025177003,0|0,0:0|0:0,0:0:0:0:
418,42,253265,1,2,0:0:0:0:
239,161,253676,2,0,P|196:163|155:187,1,82.5000025177003,2|2,0:0|0:0,0:0:0:0:
131,284,254087,1,2,0:0:0:0:
216,349,254293,1,2,0:0:0:0:
320,325,254498,6,0,P|348:259|325:165,1,165.000005035401,2|2,0:0|0:0,0:0:0:0:
252,94,255115,2,0,P|214:79|161:82,1,82.5000025177003,2|0,0:0|0:0,0:0:0:0:
70,111,255525,1,2,0:0:0:0:
17,204,255731,2,0,P|107:212|165:159,1,165.000005035401,2|2,0:0|0:0,0:0:0:0:
252,94,256347,1,0,0:0:0:0:
339,156,256553,2,0,L|421:156,1,82.5000025177003,2|0,0:0|0:0,0:0:0:0:
296,243,256964,6,0,P|232:276|137:277,1,165.000005035401,2|2,0:0|0:0,0:0:0:0:
17,101,257786,2,0,P|58:101|97:90,1,82.5000025177003,2|2,0:0|0:0,0:0:0:0:
201,60,258197,2,0,P|241:49|297:53,1,82.5000025177003,2|0,0:0|0:0,0:0:0:0:
386,74,258608,2,0,P|406:109|406:162,1,82.5000025177003,2|2,0:0|0:0,0:0:0:0:
337,230,259019,1,2,0:0:0:0:
400,315,259224,1,2,0:0:0:0:
299,354,259430,6,0,P|217:367|128:340,1,165.000005035401,2|2,0:0|0:0,0:0:0:0:
48,282,260046,2,0,P|34:241|40:199,1,82.5000025177003,2|0,0:0|0:0,0:0:0:0:
87,106,260457,1,2,0:0:0:0:
165,32,260662,2,0,P|246:59|290:122,1,165.000005035401,2|0,0:0|0:0,0:0:0:0:
309,228,261279,2,0,P|316:270|308:316,1,82.5000025177003,2|0,0:0|0:0,0:0:0:0:
96,341,261895,6,0,P|61:263|103:194,1,165.000005035401,4|2,0:0|0:0,0:0:0:0:
180,130,262512,1,2,0:0:0:0:
262,197,262717,1,2,0:0:0:0:
346,130,262923,1,2,0:0:0:0:
293,38,263128,2,0,P|373:27|436:77,1,165.000005035401,2|2,0:0|0:0,0:0:0:0:
451,183,263745,1,2,0:0:0:0:
401,277,263950,1,2,0:0:0:0:
313,338,264156,1,2,0:0:0:0:
206,325,264361,6,0,P|167:240|212:167,1,165.000005035401,2|2,0:0|0:0,0:0:0:0:
354,36,265183,2,0,L|365:117,1,82.5000025177003,2|2,0:0|0:0,0:0:0:0:
307,207,265594,2,0,P|392:223|463:164,2,165.000005035401,2|2|2,0:0|0:0|0:0,0:0:0:0:
163,46,266827,6,0,L|141:140,1,82.5000025177003,2|0,0:0|0:0,0:0:0:0:
73,207,267238,2,0,L|95:301,1,82.5000025177003,2|0,0:0|0:0,0:0:0:0:
186,343,267649,2,0,P|233:343|284:369,1,82.5000025177003,2|0,0:0|0:0,0:0:0:0:
371,371,268060,2,0,P|407:297|375:207,1,165.000005035401,2|2,0:0|0:0,0:0:0:0:
294,287,268676,1,0,0:0:0:0:
202,230,268882,1,2,0:0:0:0:
318,49,269293,6,0,P|393:35|464:105,1,165.000005035401,2|2,0:0|0:0,0:0:0:0:
434,192,269909,1,0,0:0:0:0:
337,227,270115,2,0,L|326:133,1,82.5000025177003,2|2,0:0|0:0,0:0:0:0:
288,297,270526,2,0,P|250:320|113:307,1,165.000005035401,2|2,0:0|0:0,0:0:0:0:
32,245,271142,1,8,0:0:0:0:
118,181,271347,1,10,0:0:0:0:
28,121,271553,1,8,0:0:0:0:
114,57,271758,6,0,P|194:45|269:77,1,165.000005035401,2|2,0:0|0:0,0:0:0:0:
350,148,272375,1,2,0:0:0:0:
421,68,272580,1,2,0:0:0:0:
464,166,272786,1,2,0:0:0:0:
392,245,272991,2,0,P|351:280|236:284,1,165.000005035401,2|0,0:0|0:0,0:0:0:0:
146,240,273608,1,0,0:0:0:0:
81,144,273813,2,0,L|73:53,1,82.5000025177003,0|0,0:0|0:0,0:0:0:0:
37,223,274224,5,2,0:0:0:0:
256,192,274430,12,0,278745,0:0:0:0:
160,319,279156,6,0,P|202:233|148:139,1,194.999991073609,4|2,0:0|0:0,0:0:0:0:
253,34,280389,1,0,1:0:0:0:
367,124,280799,2,0,L|376:186,1,48.7499977684022,2|2,0:0|0:0,0:0:0:0:
302,212,281210,2,0,L|294:163,1,48.7499977684022,2|2,0:0|0:0,0:0:0:0:
275,285,281621,1,2,0:0:0:0:
32,100,284087,6,0,B|128:56|128:148|230:106,1,194.999991073609,2|2,0:0|0:0,0:0:0:0:
356,58,285320,1,8,0:0:0:0:
272,178,285731,2,0,L|214:189,1,48.7499977684022,2|2,0:0|0:0,0:0:0:0:
321,246,286142,2,0,L|379:257,1,48.7499977684022,2|2,0:0|0:0,0:0:0:0:
439,272,286553,5,2,0:0:0:0:
471,206,286758,2,0,P|472:180|465:144,1,48.7499977684022,0|0,0:0|0:0,0:0:0:0:
438,92,287169,1,0,0:0:0:0:
438,92,287375,2,0,L|379:74,1,48.7499977684022,0|0,0:0|0:0,0:0:0:0:
323,102,287786,1,2,0:0:0:0:
323,102,287992,2,0,L|266:122,1,48.7499977684022,0|0,0:0|0:0,0:0:0:0:
208,98,288402,1,2,0:0:0:0:
138,122,288608,2,0,L|129:206,1,73.1249966526033,2|0,0:0|0:0,0:0:0:0:
145,228,289019,6,0,P|238:217|324:274,1,194.999991073609,2|2,0:0|0:0,0:0:0:0:
206,362,290252,1,8,0:0:0:0:
91,272,290662,2,0,L|79:206,1,48.7499977684022,2|2,0:0|0:0,0:0:0:0:
150,176,291073,2,0,L|158:223,1,48.7499977684022,2|2,0:0|0:0,0:0:0:0:
181,103,291484,1,2,0:0:0:0:
415,338,293950,6,0,P|440:269|402:209,1,146.249993305207,2|8,0:0|0:0,0:0:0:0:
348,164,294772,1,2,0:0:0:0:
230,76,295183,1,0,1:0:0:0:
126,179,295594,2,0,L|116:239,1,48.7499977684022,2|2,0:0|0:0,0:0:0:0:
182,279,296005,2,0,L|190:230,1,48.7499977684022,2|2,0:0|0:0,0:0:0:0:
107,328,296416,5,2,0:0:0:0:
256,192,296621,12,2,298882,0:0:0:0:
