osu file format v12

[General]
AudioFilename: igyounokoiuta.mp3
AudioLeadIn: 0
PreviewTime: -1
Countdown: 1
SampleSet: Normal
StackLeniency: 0.2
Mode: 0
LetterboxInBreaks: 0
WidescreenStoryboard: 0

[Editor]
DistanceSpacing: 1.3
BeatDivisor: 4
GridSize: 8
TimelineZoom: 1

[Metadata]
Title:Igyou no Koiuta
TitleUnicode:異形ノ恋歌
Artist:Miyazawa Yuana
ArtistUnicode:宮沢ゆあな
Creator:Mystia Lorelei
Version:MillhInu
Source:Mamono Musume-tachi to no Rakuen ~Kumo to Tori to Hitotsume to~
Tags:millhioref
BeatmapID:395414
BeatmapSetID:114927

[Difficulty]
HPDrainRate:6
CircleSize:4
OverallDifficulty:7
ApproachRate:8
SliderMultiplier:1.8
SliderTickRate:2

[Events]
//Background and Video events
0,0,"nestsoup.png",0,0
//Break Periods
//Storyboard Layer 0 (Background)
//Storyboard Layer 1 (Fail)
//Storyboard Layer 2 (Pass)
//Storyboard Layer 3 (Foreground)
//Storyboard Sound Samples
//Background Colour Transformations
3,100,163,162,255

[TimingPoints]
26894,409.556313993174,4,1,0,100,1,0
35417,-100,4,1,0,5,0,0
35469,-100,4,1,0,100,0,0
35622,-100,4,1,0,5,0,0
35673,-100,4,1,0,100,0,0
35827,-100,4,1,0,5,0,0
35878,-100,4,1,0,100,0,0

[HitObjects]
256,104,25460,5,0,0:0:0:0:
184,192,25665,1,0,0:0:0:0:
224,296,25870,1,0,0:0:0:0:
328,344,26074,1,0,0:0:0:0:
360,328,26177,1,0,0:0:0:0:
336,304,26279,1,0,0:0:0:0:
368,288,26382,1,0,0:0:0:0:
344,256,26484,1,0,0:0:0:0:
384,216,26586,1,0,0:0:0:0:
352,176,26689,1,0,0:0:0:0:
392,144,26791,1,0,0:0:0:0:
360,96,26894,6,0,P|288:120|264:112,1,90
256,96,27201,1,0,0:0:0:0:
232,120,27303,2,0,P|176:128|144:160,1,90
232,304,27713,1,0,0:0:0:0:
96,40,27917,1,0,0:0:0:0:
0,224,28122,1,0,0:0:0:0:
192,184,28327,1,0,0:0:0:0:
192,184,28532,1,0,0:0:0:0:
264,216,28737,6,0,P|336:232|368:224,1,90
424,160,29146,1,0,0:0:0:0:
400,80,29351,2,0,B|376:32|376:32|344:48|344:48|304:32|304:32|288:80,2,180
480,72,30375,6,0,L|504:24,2,45
480,176,30784,1,0,0:0:0:0:
480,176,30887,1,0,0:0:0:0:
480,176,30989,1,0,0:0:0:0:
464,296,31194,2,0,L|416:264,1,45
384,264,31399,2,0,P|352:352|216:304,1,270
384,264,32218,1,0,0:0:0:0:
480,176,32423,1,0,0:0:0:0:
480,48,32627,5,0,0:0:0:0:
32,336,33037,5,0,0:0:0:0:
32,48,33446,6,0,L|128:48,1,90
192,48,33754,1,0,0:0:0:0:
264,48,33856,2,0,L|360:48,1,90
357,206,34266,2,0,L|357:110,1,90
357,277,34675,1,0,0:0:0:0:
288,336,34880,2,0,L|264:328,4,22.5
160,312,35289,6,0,P|128:280|120:256,1,67.5
152,248,35494,2,0,P|128:216|128:176,1,67.5
152,176,35699,2,0,P|144:144|160:104,1,67.5
176,80,35904,1,0,0:0:0:0:
184,72,36313,1,0,0:0:0:0:
192,64,36723,5,0,0:0:0:0:
264,128,36928,1,0,0:0:0:0:
296,144,37030,1,0,0:0:0:0:
328,120,37132,1,0,0:0:0:0:
296,264,37337,1,0,0:0:0:0:
432,120,37542,1,0,0:0:0:0:
488,296,37747,1,0,0:0:0:0:
368,192,37952,1,0,0:0:0:0:
296,352,38156,2,0,L|384:280,1,90
418,239,38566,6,0,L|488:296,2,90
256,248,39180,2,0,B|272:296|216:304|216:304|192:248,2,135
256,192,39999,12,0,40818,0:0:0:0:
136,192,41023,5,0,0:0:0:0:
256,192,41228,1,0,0:0:0:0:
376,192,41433,1,0,0:0:0:0:
256,80,41842,1,0,0:0:0:0:
256,312,42047,1,0,0:0:0:0:
256,192,42252,1,0,0:0:0:0:
320,240,42457,2,0,L|480:368,2,180
187,132,43481,1,0,0:0:0:0:
187,132,43583,1,0,0:0:0:0:
168,184,43685,6,0,L|144:224,1,45
128,160,43890,2,0,L|80:184,1,45
128,112,44095,2,0,L|80:96,1,45
168,80,44300,2,0,L|144:32,1,45
216,80,44504,2,0,L|240:32,1,45
240,120,44709,2,0,L|288:104,2,45
248,200,45119,5,0,0:0:0:0:
304,344,45324,1,0,0:0:0:0:
360,200,45528,1,0,0:0:0:0:
416,344,45733,1,0,0:0:0:0:
464,200,45938,1,0,0:0:0:0:
496,280,46040,1,0,0:0:0:0:
64,56,46757,6,0,B|104:144|104:144|200:152,1,180
304,136,47371,2,0,P|312:88|240:40,2,135
216,216,48190,1,0,0:0:0:0:
136,304,48395,1,0,0:0:0:0:
88,200,48600,1,0,0:0:0:0:
328,216,49010,1,0,0:0:0:0:
408,304,49215,1,0,0:0:0:0:
456,200,49419,2,0,L|480:144,2,45
232,40,50033,5,0,0:0:0:0:
176,144,50238,1,0,0:0:0:0:
208,256,50443,1,0,0:0:0:0:
288,344,50648,2,0,L|312:256,1,90
352,256,50955,2,0,L|384:352,1,90
424,352,51262,1,0,0:0:0:0:
472,184,51672,1,0,0:0:0:0:
472,184,51876,1,0,0:0:0:0:
352,64,52286,5,0,0:0:0:0:
344,112,52388,1,0,0:0:0:0:
312,144,52491,1,0,0:0:0:0:
272,168,52593,1,0,0:0:0:0:
224,168,52696,1,0,0:0:0:0:
184,152,52798,1,0,0:0:0:0:
144,128,52900,1,0,0:0:0:0:
112,96,53003,1,0,0:0:0:0:
80,128,53105,1,0,0:0:0:0:
96,328,53310,6,0,P|80:288|32:264,2,90
208,344,53924,1,0,0:0:0:0:
296,272,54128,1,0,0:0:0:0:
296,272,54231,1,0,0:0:0:0:
384,344,54436,1,0,0:0:0:0:
384,344,54539,2,0,P|432:336|448:208,1,180
416,112,55153,2,0,L|456:32,1,90
372,229,55562,5,0,0:0:0:0:
139,229,55767,1,0,0:0:0:0:
328,92,55972,1,0,0:0:0:0:
256,314,56177,1,0,0:0:0:0:
184,92,56382,1,0,0:0:0:0:
184,92,57815,5,0,0:0:0:0:
256,314,58020,1,0,0:0:0:0:
328,92,58225,1,0,0:0:0:0:
139,229,58430,1,0,0:0:0:0:
372,229,58635,1,0,0:0:0:0:
224,160,58839,1,0,0:0:0:0:
224,160,58942,1,0,0:0:0:0:
288,160,59044,1,0,0:0:0:0:
288,160,59147,1,0,0:0:0:0:
288,224,59249,1,0,0:0:0:0:
288,224,59352,1,0,0:0:0:0:
224,224,59454,1,0,0:0:0:0:
224,224,59557,1,0,0:0:0:0:
256,192,59658,1,0,0:0:0:0:
