osu file format v5

[General]
AudioFilename: Miyazaki Ui - PHOSPHOR.mp3
AudioLeadIn: 0
PreviewTime: -1
Countdown: 0
SampleSet: Normal
StackLeniency: 0.7
Mode: 0
LetterboxInBreaks: 1
EditorDistanceSpacing: 1.20000004768372

[Metadata]
Title:PHOSPHOR
Artist:Miyazaki Ui
Creator:quintitem
Version:Normal
Source:
Tags:

[Difficulty]
HPDrainRate:6
CircleSize:4
OverallDifficulty:5
SliderMultiplier:1.2
SliderTickRate:1

[Events]
//Background and Video events
0,0,"kanokon.jpg"
//Break Periods
2,12484,17512
2,84484,89512
//Storyboard Layer 0 (Background)
//Storyboard Layer 1 (Failing)
//Storyboard Layer 2 (Passing)
//Storyboard Layer 3 (Foreground)
//Storyboard Sound Samples
//Background Colour Transformations
3,100,163,162,255

[TimingPoints]
70,428.571428571429,4,1,0,90,1,0
18070,-100,4,2,0,80,0,0
27712,-100,4,1,0,70,0,0
32427,-100,4,2,0,80,0,0
37998,-100,4,1,0,70,0,0
45284,-100,4,2,0,80,0,0
52570,-100,4,1,0,70,0,0
57927,-100,4,1,0,90,0,0
71427,-100,4,1,0,100,0,0
71855,-100,4,1,0,78,0,0
72284,-100,4,1,0,90,0,0
90069,-100,4,2,0,80,0,0
99712,-100,4,1,0,70,0,0
104427,-100,4,2,0,80,0,0
109784,-100,4,1,0,70,0,0
117070,-100,4,2,0,80,0,0
124355,-100,4,1,0,70,0,0
129712,-100,4,1,0,90,0,0
143427,-100,4,1,0,100,0,0
143855,-100,4,1,0,78,0,0
144284,-100,4,1,0,90,0,0
156284,-100,4,2,0,100,0,0

[Colours]
Combo1 : 244,177,254
Combo2 : 250,255,23
Combo3 : 99,214,252
Combo4 : 236,231,30

[HitObjects]
96,64,1355,1,0
168,264,1998,1,0
168,264,2212,1,0
384,72,3070,2,0,B|448:200|384:328,1,240,0|0
176,320,4570,1,0
176,320,4784,1,0
80,120,5427,1,0
80,120,5641,2,0,B|176:56|264:144,1,180,0|0
392,136,6712,1,0
392,136,6927,1,0
432,272,7355,6,0,B|368:304|304:272,1,120,0|0
316,277,7998,1,0
316,277,8212,1,0
104,120,9498,5,0
104,120,9712,1,0
104,264,10141,5,0
104,264,10355,1,4
256,192,10784,12,4,12284
128,96,18712,6,0,B|384:96,1,240
368,97,19784,1,2
369,96,19998,1,0
368,96,20212,1,2
384,288,22141,6,0,B|128:288,1,240
145,288,23212,1,2
145,289,23427,1,0
145,289,23641,1,2
256,64,25570,6,0,B|256:320,1,240
256,303,26641,1,2
256,304,26855,1,0
256,305,27070,1,2
432,80,27927,6,0,B|432:176,2,90,0|0|0
432,80,28784,1,0
248,192,29427,1,0
256,192,29641,12,4,32212
64,96,32427,6,0,B|256:288,1,240
233,266,33498,1,2
232,266,33712,1,0
233,266,33927,1,2
448,288,35855,6,0,B|256:96,1,240,0|0
279,118,36927,1,2
280,119,37141,1,0
278,118,37355,1,2
72,320,38212,1,0
72,320,38427,2,0,B|136:351|200:312,1,120
184,320,39070,2,0,B|248:288|312:328,6,120,0|0|0|0|0|0|0
64,240,42070,5,0
64,240,42498,2,0,B|32:144|67:54,1,180,0|0
280,72,43784,1,0
280,72,43998,1,0
96,64,45498,5,2
96,64,45712,1,0
96,64,45927,1,2
256,256,46998,5,0
256,256,47212,1,2
256,256,47427,1,0
256,256,47641,2,0,B|289:205|251:167,2,90,2|0|0
48,192,48927,2,0,B|15:132|52:68,2,120,2|2|2
48,192,49998,1,0
192,192,50427,1,0
336,192,50855,1,0
392,88,52784,6,0,B|488:184|385:314,1,240
104,336,54498,1,4
112,120,55141,2,0,B|112:88,2,30
216,120,55677,1,0
320,120,55998,1,0
320,120,56212,1,0
256,192,56427,12,4,57927
120,272,58248,6,0,B|80:224|144:176,1,90,0|0
125,192,58784,5,4
232,192,59105,1,0
336,192,59427,1,0
337,194,59641,2,0,B|465:34,1,180
450,54,60498,1,0
440,272,61141,6,0,B|248:338|43:264,1,390
64,160,62855,1,0
64,160,63069,2,0,B|170:64|299:181,1,240
424,192,64355,1,0
424,192,64569,1,0
280,192,64998,1,0
280,192,65212,1,0
256,336,65641,6,0,B|112:336,2,120,4|0|4
464,288,67141,5,0
464,288,67355,2,0,B|464:32|464:32|112:32,1,600
120,176,69927,1,0
264,176,70355,1,0
264,176,70569,1,0
264,320,70998,1,0
264,320,71212,1,0
408,320,71641,5,4
408,176,72069,1,4
408,32,72498,5,0
296,32,72819,1,0
184,32,73141,1,0
184,32,73355,2,0,B|120:112|187:200,1,180
184,196,74212,1,0
400,176,74855,6,0,B|272:22|140:181|52:20|53:20,1,390
40,128,76569,1,0
40,128,76784,2,0,B|-56:234|61:363,1,240
144,240,78069,1,0
144,240,78284,1,0
288,240,78712,1,0
288,240,78927,1,0
192,128,79355,6,0,B|256:96|321:138,1,120
306,131,79998,1,0
307,131,80212,1,0
440,192,80641,5,0
440,336,81069,1,4
296,328,81498,2,0,B|232:328,1,60,0|0
232,184,82141,2,0,B|168:184,1,60,0|4
256,192,82677,12,4,84284
184,96,90712,6,0,B|120:96,2,60,0|2|0
328,96,91569,1,0
328,96,91784,2,0,B|360:128|306:170,2,60,2|0|2
328,288,94141,6,0,B|392:288,2,60,0|2|0
184,288,94998,1,0
184,288,95212,2,0,B|152:256|206:214,2,60,2|0|2
160,192,97569,5,0
160,192,97784,2,0,B|288:192,1,120,2|2
279,193,98427,1,0
280,194,98641,2,0,B|368:195,2,60,2|0|2
480,64,99927,5,0
368,64,100248,1,0
256,64,100569,1,0
256,64,100784,2,0,B|64:64,1,180
256,192,101641,12,4,104212
320,160,104427,5,0
320,160,104641,2,0,B|192:160,1,120,2|2
200,161,105284,1,0
200,162,105498,2,0,B|112:163,2,60,2|0|2
192,224,107855,5,0
192,224,108069,2,0,B|320:224,1,120,2|2
313,224,108712,1,0
313,225,108927,2,0,B|401:226,2,60,2|0|2
56,96,110212,1,0
56,96,110427,2,0,B|87:160|44:222,1,120
51,211,111069,2,0,B|19:275|52:336,6,120,0|0|0|0|0|0|0
192,192,114069,5,0
192,192,114498,2,0,B|288:160|378:195,1,180
368,192,115355,1,0
368,336,115784,2,0,B|304:336,1,60,0|0
256,192,117498,5,2
256,192,117712,1,0
256,192,117927,1,2
64,64,118998,5,0
64,64,119212,1,2
64,64,119427,1,0
64,64,119641,1,2
168,64,119962,1,0
272,64,120284,1,0
488,64,120927,2,0,B|521:124|484:188,2,120,2|2|2
488,64,121998,1,0
392,176,122427,1,0
288,272,122855,1,0
32,64,124784,6,0,B|160:128|192:256|320:320,1,360
440,296,126498,1,4
400,80,127141,2,0,B|400:48,2,30,0|0|0
320,152,127677,1,0
240,224,127998,1,0
240,224,128212,2,0,B|135:305,3,120
48,192,129927,5,4
128,120,130248,1,0
208,192,130569,1,0
208,192,130784,5,4
288,120,131105,1,0
368,192,131427,1,0
368,192,131641,2,0,B|496:40,1,180
483,55,132498,1,0
480,272,133141,6,0,B|480:304,2,30,0|0|0
368,272,133677,1,0
256,272,133998,1,0
256,272,134212,1,0
256,160,134534,1,0
144,160,134855,1,0
144,160,135069,2,0,B|16:160,2,120
248,256,136355,1,0
248,256,136569,1,0
368,184,136998,1,0
368,184,137212,1,0
224,160,137641,5,4
224,160,138069,1,0
224,160,138498,1,4
440,160,139141,6,0,B|440:256|440:256|376:256,1,150
280,256,139998,1,0
280,256,140212,1,0
280,144,140534,1,0
168,144,140855,1,0
168,144,141069,1,0
96,272,141498,1,0
32,144,141927,1,0
96,272,142355,1,0
96,272,142569,1,0
216,192,142998,1,0
216,192,143212,1,0
320,88,143641,5,4
464,88,144069,1,4
464,232,144498,5,0
368,280,144819,1,0
264,320,145141,1,0
264,320,145355,2,0,B|200:240|267:152,1,180
263,156,146212,1,0
448,48,146855,6,0,B|480:48,2,30,0|0|0
336,48,147391,1,0
224,48,147712,1,0
224,48,147927,1,0
112,48,148248,1,0
112,152,148570,1,0
112,152,148784,2,0,B|218:248|347:131,1,240
336,288,150070,1,0
336,288,150284,1,0
480,288,150712,1,0
480,288,150927,1,0
384,176,151355,6,0,B|320:208|255:166,1,120,0|0
269,174,151998,1,0
268,174,152212,1,0
272,320,152641,5,0
136,272,153070,1,4
256,192,153498,5,0
256,192,153712,1,0
256,192,154141,5,0
256,192,154355,1,4
256,192,154677,12,4,156284
