osu file format v7

[General]
AudioFilename: Kizuna no Uta.mp3
AudioLeadIn: 1996
PreviewTime: 55977
Countdown: 0
SampleSet: Normal
StackLeniency: 0.5
Mode: 0
LetterboxInBreaks: 1

[Editor]
Bookmarks: 27592,42016,56900,71438
DistanceSpacing: 1.10000002384186
BeatDivisor: 2
GridSize: 8

[Metadata]
Title:Kizuna no Uta (TV Size)
Artist:Miyazaki Ui
Creator:Fuuko
Version:Makenai
Source:Tayutama: Kiss on my Deity
Tags:Lump of Sugar Mashiro Anime Dusty

[Difficulty]
HPDrainRate:5
CircleSize:3
OverallDifficulty:5
SliderMultiplier:1.2
SliderTickRate:0.5

[Events]
//Background and Video events
0,0,"Background.jpg"
Video,0,"Kizuna no Uta.avi"
//Break Periods
//Storyboard Layer 0 (Background)
//Storyboard Layer 1 (Fail)
//Storyboard Layer 2 (Pass)
//Storyboard Layer 3 (Foreground)
//Storyboard Sound Samples
//Background Colour Transformations
3,100,163,162,255

[TimingPoints]
1518,461.538461538462,4,1,1,50,1,0
12823,-100,4,2,1,50,0,0
27592,-100,4,2,1,60,0,0
41671,-100,4,1,1,0,0,0
42016,-100,4,2,1,40,0,0
44669,-100,4,2,1,30,0,0
45364,-100,4,2,1,0,0,0
45708,-100,4,2,1,40,0,0
48362,-100,4,2,1,30,0,0
49056,-100,4,2,1,0,0,0
49400,-100,4,2,1,40,0,0
55746,-100,4,2,1,0,0,0
55977,-100,4,2,1,60,0,0
56903,-100,4,2,1,60,0,1
57130,-100,4,1,1,40,0,1
71437,-100,4,1,1,45,0,0
71439,-100,4,1,1,40,0,1
88689,-100,4,1,1,40,0,0
88746,-100,4,1,1,40,0,1
88804,-100,4,1,1,40,0,0

[Colours]
Combo1 : 128,128,255
Combo2 : 255,100,255
Combo3 : 164,72,255
Combo4 : 242,242,242

[HitObjects]
256,96,1518,2,0,B|256:8|256:8,2,60
256,232,2671,1,0
256,328,3133,1,0
168,296,3594,2,0,B|112:256|112:256,1,60
184,192,4287,1,0
328,192,4748,1,0
256,288,5210,6,0,B|256:376|256:376,2,60
256,152,6364,1,0
256,56,6825,1,0
344,88,7287,2,0,B|456:160|456:160,1,120
424,296,8441,1,0
256,192,8902,12,0,12133
256,192,12594,5,0
128,192,13056,2,0,B|80:99|152:63|152:63,2,120,2|0|2
176,232,14210,2,8,B|240:264|240:264,1,60
384,192,14902,2,0,B|431:99|359:63|359:63,2,120,2|0|2
328,232,16056,2,8,B|256:272|256:272,1,60
256,128,16748,2,0,B|256:-8|256:-8,2,120,2|0|2
136,176,18133,2,0,B|136:360|136:360,2,180,8|8|0
160,112,19748,2,8,B|160:32|160:32,1,60
288,40,20441,6,0,B|352:40|312:72|416:72|416:72,2,120,2|0|0
240,88,21594,2,8,B|240:176|240:176,1,60
224,280,22287,6,0,B|160:280|200:312|96:312|96:312,2,120,2|0|2
272,232,23441,2,8,B|272:144|272:144,1,60
216,48,24133,2,0,B|280:8|336:56|336:56,2,120
224,176,25518,2,0,C|144:232|64:264|64:264|64:264,2,180,8|2|4
224,40,27364,1,4
352,56,27825,5,8
464,128,28287,1,2
432,256,28748,2,0,B|488:320|488:320,2,60,8|0|0
304,304,29671,5,8
184,240,30133,1,0
184,104,30594,1,8
296,40,31056,2,0,B|440:40|440:40,3,120,0|8|0|8
352,152,32902,2,0,B|416:168|472:152|488:152|488:152,2,120,0|8|0
232,104,34287,1,8
104,120,34748,1,4
64,248,35210,5,8
176,320,35671,1,0
312,320,36133,2,0,B|448:320|448:320,1,120,8|0
472,192,37056,2,0,B|488:16|304:72|304:72,2,240,8|2|8
256,192,39825,12,0,41671
40,40,42133,6,0,L|64:104|112:128|112:128,1,120,0|2
184,128,42825,2,0,L|392:128|392:128,1,180,0|8
256,192,43748,12,0,45364
472,232,45825,6,0,L|448:296|400:320|400:320,1,120,0|2
328,320,46518,2,0,L|120:320|120:320,1,180,0|8
256,192,47441,12,0,49056
344,240,49518,6,0,B|288:288|168:232|128:120|256:112|376:112|336:232|200:280|168:232,2,420,0|8|8
256,192,52979,12,0,55748
72,32,56210,6,0,B|56:112|112:128|64:160|64:160,1,120
80,216,56902,1,4
192,288,57364,1,8
312,240,57825,1,0
376,128,58287,2,0,B|376:40|376:40,2,60,8|0|0
256,72,59210,1,8
128,112,59671,1,0
88,240,60133,6,0,B|16:240|16:240,2,60,8|0|0
200,312,61056,2,0,B|336:312|336:312,1,120,8|0
448,264,61979,2,0,B|479:173|408:132|408:132,3,120,8|0|8|0
320,72,63825,6,0,B|320:-16|320:-16,2,60,8|0|0
192,96,64748,1,8
144,216,65210,2,0,B|144:344|144:344,2,120,0|8|0
272,256,66594,1,8
376,168,67056,2,0,B|376:32|376:32,2,120,0|8|0
376,296,68441,1,8
248,336,68902,1,0
184,336,69133,6,0,B|104:336|104:336,2,60,0|0|4
320,336,70056,2,0,B|400:336|400:336,2,60,0|0|4
256,224,70979,6,0,L|256:32|256:32,1,180,0|4
128,16,72133,1,8
32,112,72594,1,0
48,240,73056,1,8
144,328,73518,2,0,B|224:336|248:248|248:248,2,120,0|8|0
160,200,74902,6,0,B|208:136|280:160|280:160,1,120,8|0
400,160,75825,1,0
400,160,76056,1,4
368,288,76518,2,0,B|232:288|232:288,1,120,0|4
136,216,77441,2,0,L|48:216|48:216,2,60
240,136,78364,1,4
376,136,78825,2,0,L|376:96|376:96,2,30
488,208,79518,6,0,B|488:344|488:344,2,120,8|0|8
384,128,80902,1,0
264,80,81364,2,0,B|208:88|224:48|136:56|136:56,1,120,8|0
128,184,82287,5,8
224,272,82748,1,0
344,216,83210,1,8
328,88,83671,1,0
200,80,84133,2,0,B|112:-8|112:-8,2,120,8|0|8
256,200,85518,2,0,L|256:272|256:272,2,60
256,192,86210,12,4,88748
