osu file format v12

[General]
AudioFilename: Brave Heart.mp3
AudioLeadIn: 0
PreviewTime: 60546
Countdown: 0
SampleSet: Soft
StackLeniency: 0.7
Mode: 0
LetterboxInBreaks: 0
WidescreenStoryboard: 0

[Editor]
Bookmarks: 3293,18504,32025,45546,60758,74279,89490,102589,109772,123293,139349,152870,168081,176532,186672,198503,213715,227236,240757
DistanceSpacing: 1
BeatDivisor: 4
GridSize: 4
TimelineZoom: 1

[Metadata]
Title:brave heart
TitleUnicode:brave heart
Artist:Miyazaki Ayumi
ArtistUnicode:宮崎歩
Creator:Xinely
Version:Hard Collab
Source:デジモンアドベンチャー
Tags:Digimon Adventure Digivolve Digital Monster HeatKai Hinsvar Oyatsu collaboration
BeatmapID:281047
BeatmapSetID:107222

[Difficulty]
HPDrainRate:6
CircleSize:4
OverallDifficulty:6
ApproachRate:8
SliderMultiplier:1.7
SliderTickRate:1

[Events]
//Background and Video events
0,0,"BG.jpg",0,0
//Break Periods
2,89683,101832
2,186865,197535
//Storyboard Layer 0 (Background)
//Storyboard Layer 1 (Fail)
//Storyboard Layer 2 (Pass)
//Storyboard Layer 3 (Foreground)
Sprite,Foreground,Centre,"Xinely.png",320,240 M,0,2870,3293,728,311,475,391 F,0,2870,3293,0,1 S,0,3293,,0.7852905 F,0,3293,89483,1,0.9929078 F,0,89483,,0.9929078 F,0,89483,89694,0.9929078,0
Sprite,Foreground,Centre,"Hinsvar.png",320,240 M,0,102166,102589,677,314,437,376 F,0,102166,102589,0,1 S,0,102589,,0.6861935 F,0,102589,186665,1 F,0,186665,187088,1,0
Sprite,Foreground,Centre,"Oyatsu.png",320,240 M,0,198081,198503,575,242,434,377 F,0,198081,198503,0,1 S,0,198503,,0.7605163 F,0,198503,240334,1,0.9929622 F,0,240334,240757,0.9929622,0
Sprite,Foreground,Centre,"Xinely.png",320,240 M,0,89483,,474,391 F,0,89483,89694,1,0 S,0,89483,89694,0.7852902,1.246649
Sprite,Foreground,Centre,"Hinsvar.png",320,240 M,0,168074,,437,376 F,0,168074,168285,1,0 S,0,168074,168285,0.7027097,1.008258
Sprite,Foreground,Centre,"Oyatsu.png",320,240 M,0,213708,,433,377 F,0,213708,213919,1,0 S,0,213708,213919,0.752258,1.049548
Sprite,Foreground,Centre,"Xinely.png",320,240 M,0,60751,,476,390 F,0,60751,61173,1,0 S,0,60751,61173,0.7770321,1.454194
Sprite,Foreground,Centre,"Hinsvar.png",320,240 M,0,139342,,437,377 F,0,139342,139764,1,0 S,0,139342,139764,0.6861935,1.256
Sprite,Foreground,Centre,"Oyatsu.png",320,240 M,0,200187,,434,375 F,0,200187,200609,1,0 S,0,200187,200609,0.760516,1.222968
//Storyboard Sound Samples
//Background Colour Transformations
3,100,163,162,255

[TimingPoints]
3286.46478873239,422.535211267606,4,2,1,30,1,0
11737,-100,4,2,1,60,0,0
32018,-100,4,2,1,50,0,0
57793,-100,4,2,1,55,0,0
58216,-100,4,2,1,60,0,0
58638,-100,4,2,1,65,0,0
59061,-100,4,2,1,55,0,0
60751,-100,4,2,1,75,0,1
72370,-100,4,2,1,75,0,0
74272,-100,4,2,1,75,0,1
89483,-100,4,2,1,75,0,0
109765,-100,4,2,1,40,0,0
123286,-100,4,2,1,50,0,0
136807,-133.333333333333,4,2,1,40,0,0
139342,422.535211267606,4,2,1,75,1,1
150961,-100,4,2,1,75,0,0
152863,-100,4,2,1,75,0,1
164694,-133.333333333333,4,2,1,40,0,1
168074,-100,4,2,1,75,0,0
200187,-100,4,2,1,75,0,1
213708,-100,4,2,1,75,0,0
225539,-100,4,2,1,60,0,0
226595,-100,4,2,1,75,0,0
236947,-100,4,2,1,40,0,0
238215,-100,4,2,1,30,0,0
239060,-100,4,2,1,20,0,0
239905,-100,4,2,1,10,0,0
240750,-100,4,2,1,5,0,0

[Colours]
Combo1 : 232,0,0
Combo2 : 0,196,0
Combo3 : 54,60,248
Combo4 : 249,0,249

[HitObjects]
24,304,3286,6,0,P|88:336|192:296,1,170,2|0,0:0|0:0,0:0:0:0:
496,216,4131,2,0,P|416:184|328:224,1,170,2|0,0:0|0:0,0:0:0:0:
280,272,4765,1,0,0:0:0:0:
212,324,4976,2,0,P|124:340|60:284,1,170,2|0,0:0|0:0,0:0:0:0:
72,48,5821,1,2,0:0:0:0:
144,96,6032,1,0,0:0:0:0:
224,136,6244,2,0,L|312:136,1,85,2|0,0:0|0:0,0:0:0:0:
344,56,6666,6,0,P|320:128|384:224,1,170,2|0,0:0|0:0,0:0:0:0:
308,276,7300,2,0,L|223:276,1,85,0|2,0:0|0:0,0:0:0:0:
376,328,7723,1,0,0:0:0:0:
436,268,7934,1,2,0:0:0:0:
412,188,8145,1,0,0:0:0:0:
328,188,8356,2,0,P|256:144|160:180,1,170,2|0,0:0|0:0,0:0:0:0:
116,220,8990,2,0,L|20:212,1,85,2|0,0:0|0:0,0:0:0:0:
164,284,9413,2,0,P|236:328|332:292,1,170,2|0,0:0|0:0,0:0:0:0:
396,284,10047,6,0,P|436:284|484:252,1,85,2|0,0:0|0:0,0:0:0:0:
488,112,10469,2,0,P|445:112|409:133,1,85,0|0,0:0|0:0,0:0:0:0:
272,216,10892,2,0,P|312:216|360:184,1,85,2|0,0:0|0:0,0:0:0:0:
268,54,11314,2,0,L|294:144,1,85,8|0,0:0|0:0,0:0:0:0:
332,288,11737,5,4,0:0:0:0:
332,288,12159,1,8,0:0:0:0:
412,256,12370,1,0,0:0:0:0:
412,256,12476,1,0,0:0:0:0:
412,256,12582,2,0,P|428:176|356:96,1,170,2|8,0:0|0:0,0:0:0:0:
272,72,13216,1,0,0:0:0:0:
200,160,13427,6,0,P|184:240|256:320,1,170,2|8,0:0|0:0,0:0:0:0:
304,356,14061,1,0,0:0:0:0:
388,360,14272,1,2,0:0:0:0:
436,208,14694,2,0,P|392:192|364:152,1,85,8|0,0:0|0:0,0:0:0:0:
388,72,15117,6,0,P|305:96|276:172,1,170,2|8,0:0|0:0,0:0:0:0:
208,216,15751,2,0,P|164:208|116:220,1,85,0|2,0:0|0:0,0:0:0:0:
144,300,16173,1,0,0:0:0:0:
88,364,16385,1,10,0:0:0:0:
16,320,16596,1,0,0:0:0:0:
20,236,16807,6,0,P|2:175|20:115,2,127.5,2|0|0,0:0|0:0|0:0,0:0:0:0:
132,248,17652,2,0,P|196:256|252:200,1,127.5,2|0,0:0|0:0,0:0:0:0:
260,188,18075,2,0,P|249:148|264:93,1,85,8|0,0:0|0:0,0:0:0:0:
320,260,18497,6,0,P|388:292|480:256,1,170,2|8,0:0|0:0,0:0:0:0:
472,176,19131,1,0,0:0:0:0:
404,124,19342,2,0,P|360:116|308:132,2,85,2|0|8,0:0|0:0|0:0,0:0:0:0:
472,176,19976,1,0,0:0:0:0:
380,300,20187,6,0,P|303:330|226:298,1,170,2|8,0:0|0:0,0:0:0:0:
160,244,20821,1,0,0:0:0:0:
236,208,21032,2,0,P|240:124|164:64,1,170,2|8,0:0|0:0,0:0:0:0:
100,96,21666,1,0,0:0:0:0:
156,160,21878,6,0,L|320:105,2,170,2|8|2,0:0|0:0|0:0,0:0:0:0:
160,244,22934,1,2,0:0:0:0:
228,292,23145,1,8,0:0:0:0:
308,268,23356,1,2,0:0:0:0:
388,300,23568,6,0,P|430:253|438:191,1,127.5
440,156,23990,2,0,L|356:140,1,85,2|0,0:0|0:0,0:0:0:0:
192,144,24413,2,0,L|284:164,1,85,2|0,0:0|0:0,0:0:0:0:
436,71,24835,2,0,L|440:156,1,85,8|8,0:0|0:0,0:0:0:0:
440,191,25152,1,8,2:3:0:0:
432,224,25258,6,0,P|376:288|296:248,1,170,4|8,0:0|0:0,0:0:0:0:
220,260,25892,1,2,0:0:0:0:
204,176,26103,1,0,0:0:0:0:
276,136,26314,2,0,P|296:105|305:45,2,85,0|8|0,0:0|0:0|0:0,0:0:0:0:
220,260,26948,6,0,P|164:268|76:188,1,170,2|8,0:0|0:0,0:0:0:0:
96,116,27582,1,2,0:0:0:0:
96,116,27687,1,0,0:0:0:0:
96,116,27793,2,0,L|196:68,1,85,0|2,0:0|0:0,0:0:0:0:
260,64,28216,1,8,0:0:0:0:
320,124,28427,1,2,0:0:0:0:
240,156,28638,6,0,P|219:236|263:306,1,170,2|8,0:0|0:0,0:0:0:0:
428,264,29272,2,0,P|448:183|404:113,1,170,2|2,0:0|3:0,0:0:0:0:
320,124,29906,1,4,3:0:0:0:
240,156,30117,1,2,3:0:0:0:
176,212,30328,6,0,P|136:188|108:132,1,85,2|0,0:0|0:0,0:0:0:0:
100,128,30645,1,0,0:0:0:0:
96,96,30751,2,0,P|128:72|184:56,1,85,8|2,0:0|0:0,0:0:0:0:
252,40,31173,1,4,3:0:0:0:
328,80,31385,1,0,0:0:0:0:
404,116,31596,2,0,L|432:64,2,42.5,8|0|0,0:0|3:0|3:0,0:0:0:0:
288,224,32018,5,4,0:0:0:0:
364,260,32230,1,0,0:0:0:0:
440,224,32441,2,0,P|468:196|484:140,1,85,8|0,0:0|0:0,0:0:0:0:
404,116,32863,2,0,P|360:120|304:96,1,85,2|0,0:0|0:0,0:0:0:0:
280,32,33286,2,0,P|248:64|244:124,1,85,8|2,0:0|0:0,0:0:0:0:
272,180,33709,5,0,0:0:0:0:
264,264,33920,2,0,P|254:304|216:338,2,85,0|8|0,0:0|0:0|0:0,0:0:0:0:
192,216,34554,2,0,L|232:128,1,85,2|0,0:0|0:0,0:0:0:0:
328,16,34976,2,0,L|288:104,1,85,8|0,0:0|0:0,0:0:0:0:
272,180,35399,5,2,0:0:0:0:
156,332,35821,1,8,0:0:0:0:
240,320,36032,1,0,0:0:0:0:
284,248,36244,2,0,P|360:220|452:260,1,170,2|8,0:0|0:0,0:0:0:0:
240,320,36878,6,0,P|164:348|72:308,1,170,4|0,0:0|0:0,0:0:0:0:
48,244,37511,1,8,0:0:0:0:
72,164,37723,1,0,0:0:0:0:
120,96,37934,2,0,L|160:80,3,42.5,8|0|0|0,0:0|0:0|0:0|0:0,0:0:0:0:
192,68,38356,2,0,L|244:68,3,42.5,8|0|8|0,0:0|0:0|0:0|0:0,0:0:0:0:
268,80,38779,5,4,0:0:0:0:
344,280,39201,2,0,P|404:288|472:248,1,127.5,8|0,0:0|0:0,0:0:0:0:
452,224,39624,2,0,L|412:136,1,85,2|0,0:0|0:0,0:0:0:0:
384,68,40047,1,8,0:0:0:0:
256,112,40258,6,0,P|192:136|136:56,1,170,4|0,0:0|0:0,0:0:0:0:
56,96,40892,2,0,P|72:136|68:188,1,85,8|0,0:0|0:0,0:0:0:0:
36,256,41314,1,2,0:0:0:0:
92,320,41525,1,0,0:0:0:0:
172,344,41737,1,8,0:0:0:0:
256,332,41948,6,0,P|328:324|376:236,1,170,2|0,0:0|0:0,0:0:0:0:
388,160,42582,1,8,0:0:0:0:
356,80,42793,2,0,L|252:72,1,85,0|2,0:0|0:0,0:0:0:0:
188,88,43216,1,0,0:0:0:0:
152,164,43427,1,8,0:0:0:0:
160,248,43638,6,0,P|232:280|320:240,1,170,4|0,0:0|0:0,0:0:0:0:
360,180,44272,1,8,0:0:0:0:
384,100,44483,1,0,0:0:0:0:
332,32,44694,2,0,P|288:20|236:40,1,85,4|0,0:0|0:0,0:0:0:0:
212,108,45117,5,8,0:0:0:0:
212,144,45223,1,0,0:0:0:0:
216,176,45328,1,0,0:0:0:0:
228,208,45434,1,0,0:0:0:0:
244,236,45539,6,0,P|306:298|419:286,1,170,4|8,0:0|0:0,0:0:0:0:
444,240,46173,1,0,0:0:0:0:
452,156,46385,2,0,P|389:93|276:105,1,170,2|8,0:0|0:0,0:0:0:0:
212,108,47018,1,0,0:0:0:0:
176,248,47230,6,0,P|92:232|64:152,1,170,2|8,0:0|0:0,0:0:0:0:
236,200,47863,2,0,P|320:216|348:296,1,170,2|0,0:0|0:0,0:0:0:0:
428,316,48497,2,0,L|512:268,1,85,8|0,0:0|0:0,0:0:0:0:
444,168,48920,6,0,P|360:152|332:72,1,170,2|8,0:0|0:0,0:0:0:0:
256,40,49554,1,2,0:0:0:0:
204,108,49765,2,0,P|120:76|44:116,1,170,0|8,0:0|0:0,0:0:0:0:
52,192,50399,1,0,0:0:0:0:
52,192,50504,1,0,0:0:0:0:
52,192,50610,6,0,P|136:224|212:184,1,170,2|8,0:0|0:0,0:0:0:0:
280,152,51244,2,0,P|356:120|432:152,1,170,2|0,0:0|0:0,0:0:0:0:
504,200,51878,1,8,0:0:0:0:
500,284,52089,1,0,0:0:0:0:
432,336,52300,5,4,0:0:0:0:
304,180,52723,1,8,0:0:0:0:
104,148,53145,2,0,P|68:112|80:36,2,127.5,2|0|0,0:0|0:0|0:0,0:0:0:0:
168,204,53990,6,0,L|256:268,1,85,2|0,0:0|0:0,0:0:0:0:
400,300,54413,2,0,L|312:236,1,85,8|0,0:0|0:0,0:0:0:0:
308,168,54835,1,2,0:0:0:0:
272,92,55047,1,0,0:0:0:0:
272,92,55152,1,0,0:0:0:0:
272,92,55258,2,0,L|168:100,1,85,8|0,0:0|0:0,0:0:0:0:
128,176,55680,6,0,P|92:117|128:25,1,170,6|8,0:0|0:0,0:0:0:0:
272,92,56314,1,2,0:0:0:0:
380,204,56525,2,0,P|309:248|228:233,1,170,0|8,0:0|0:0,0:0:0:0:
204,152,57159,1,0,0:0:0:0:
196,68,57370,6,0,L|172:12,2,42.5,6|0|0,0:0|0:0|0:0,0:0:0:0:
132,128,57793,2,0,L|108:72,2,42.5,10|0|0,0:0|0:0|0:0,0:0:0:0:
68,184,58216,2,0,L|44:128,2,42.5,2|0|0,0:0|0:0|0:0,0:0:0:0:
16,252,58638,2,0,L|-8:196,2,42.5,10|0|0,0:0|0:0|0:0,0:0:0:0:
104,336,59061,6,0,P|144:344|200:332,1,85,4|0,0:0|0:0,0:0:0:0:
272,340,59483,1,0,0:0:0:0:
320,268,59694,2,0,L|320:212,2,42.5,8|0|0,0:0|0:0|0:0,0:0:0:0:
256,132,60117,2,0,L|256:188,2,42.5,0|0|8,0:0|0:0|0:0,0:0:0:0:
160,204,60539,1,0,0:0:0:0:
160,204,60645,1,0,0:0:0:0:
160,204,60751,6,0,P|104:268|16:244,1,170,6|8,0:0|0:0,0:0:0:0:
0,176,61385,1,0,0:0:0:0:
88,96,61596,2,0,P|128:84|168:44,1,85,2|0,0:0|0:0,0:0:0:0:
192,44,61913,1,0,0:0:0:0:
224,40,62018,2,0,L|320:40,1,85,8|0,0:0|0:0,0:0:0:0:
324,140,62441,6,0,P|380:164|476:108,1,170,2|8,0:0|0:0,0:0:0:0:
512,192,63075,1,0,0:0:0:0:
492,276,63286,2,0,P|436:252|340:308,1,170,2|8,0:0|0:0,0:0:0:0:
252,328,63920,1,0,0:0:0:0:
252,328,64025,1,0,0:0:0:0:
252,328,64131,6,0,P|156:344|92:280,1,170,2|8,0:0|0:0,0:0:0:0:
56,232,64765,1,0,0:0:0:0:
112,112,64976,2,0,P|156:68|224:72,1,127.5,2|0,0:0|0:0,0:0:0:0:
244,92,65399,2,0,L|332:148,1,85,8|0,0:0|0:0,0:0:0:0:
372,212,65821,6,0,L|268:380,1,170,4|8,0:0|0:0,0:0:0:0:
200,376,66455,1,0,0:0:0:0:
168,296,66666,2,0,L|272:128,1,170,2|8,0:0|0:0,0:0:0:0:
316,88,67300,1,0,0:0:0:0:
400,104,67511,5,2,0:0:0:0:
476,256,67934,1,8,0:0:0:0:
404,304,68145,1,0,0:0:0:0:
320,292,68356,2,0,L|208:292,1,85,2|0,0:0|0:0,0:0:0:0:
75,248,68779,2,0,L|160:248,1,85,8|0,0:0|0:0,0:0:0:0:
236,208,69201,6,0,P|292:184|364:208,1,127.5,2|0,0:0|0:0,0:0:0:0:
384,220,69624,2,0,L|440:140,1,85,8|0,0:0|0:0,0:0:0:0:
312,72,70047,2,0,L|208:80,1,85,2|0,0:0|0:0,0:0:0:0:
200,80,70363,1,0,0:0:0:0:
176,88,70469,1,8,0:0:0:0:
104,132,70680,1,0,0:0:0:0:
160,248,70892,6,0,L|236:212,1,85,4|0,0:0|0:0,0:0:0:0:
312,172,71314,1,8,0:0:0:0:
380,224,71525,1,0,0:0:0:0:
384,308,71737,2,0,P|344:328|292:320,1,85,2|0,0:0|0:0,0:0:0:0:
272,316,72054,1,0,0:0:0:0:
240,308,72159,2,0,P|200:296|148:312,1,85,8|0,0:0|3:0,0:0:0:0:
28,208,72582,6,0,L|120:208,1,85,2|0,0:0|0:0,0:0:0:0:
148,132,73004,2,0,L|56:132,1,85,8|0,0:0|0:0,0:0:0:0:
220,48,73427,1,2,0:0:0:0:
304,68,73638,1,0,0:0:0:0:
376,116,73849,1,8,0:0:0:0:
432,176,74061,1,0,0:0:0:0:
432,176,74166,1,0,0:0:0:0:
432,176,74272,6,0,P|448:260|404:328,1,170,4|8,0:0|0:0,0:0:0:0:
320,344,74906,1,0,0:0:0:0:
236,332,75117,2,0,P|172:316|132:252,1,127.5,2|0,0:0|0:0,0:0:0:0:
124,236,75539,2,0,P|136:196|132:140,1,85,8|0,0:0|0:0,0:0:0:0:
176,80,75962,6,0,P|256:64|344:128,1,170,2|8,0:0|0:0,0:0:0:0:
380,176,76596,1,0,0:0:0:0:
308,224,76807,2,0,P|228:240|140:176,1,170,2|8,0:0|0:0,0:0:0:0:
92,268,77441,1,0,0:0:0:0:
92,268,77547,1,0,0:0:0:0:
92,268,77652,6,0,P|60:196|112:108,1,170,2|8,0:0|0:0,0:0:0:0:
176,56,78286,1,0,0:0:0:0:
260,64,78497,2,0,P|316:88|396:56,1,127.5,2|0,0:0|0:0,0:0:0:0:
412,68,78920,2,0,L|460:144,1,85,8|0,0:0|0:0,0:0:0:0:
376,280,79342,6,0,P|284:268|196:312,1,170,6|8,0:0|0:0,0:0:0:0:
140,340,79976,1,0,0:0:0:0:
140,340,80082,1,0,0:0:0:0:
140,340,80187,2,0,P|75:284|91:180,1,170,2|8,0:0|0:0,0:0:0:0:
100,96,80821,1,0,0:0:0:0:
216,104,81032,6,0,P|272:72|360:88,1,127.5,4|0,0:0|0:0,0:0:0:0:
364,92,81455,2,0,L|416:180,1,85,8|0,0:0|0:0,0:0:0:0:
440,240,81878,1,2,0:0:0:0:
368,288,82089,2,0,P|324:268|268:280,1,85,0|8,0:0|0:0,0:0:0:0:
224,324,82511,1,0,0:0:0:0:
128,232,82723,6,0,P|96:152|128:112,1,127.5,2|0,0:0|0:0,0:0:0:0:
144,104,83145,2,0,P|184:100|232:64,1,85,8|0,0:0|0:0,0:0:0:0:
385,48,83568,2,0,P|343:53|308:76,2,85,2|0|8,0:0|0:0|0:0,0:0:0:0:
472,100,84201,1,0,0:0:0:0:
440,196,84413,6,0,P|380:224|364:300,1,127.5,2|0,0:0|0:0,0:0:0:0:
344,320,84835,2,0,L|256:304,1,85,8|0,0:0|0:0,0:0:0:0:
144,220,85258,1,2,0:0:0:0:
188,148,85469,1,0,0:0:0:0:
252,92,85680,1,8,0:0:0:0:
308,156,85892,1,0,0:0:0:0:
308,156,85997,1,0,0:0:0:0:
308,156,86103,6,0,P|320:240|240:314,1,170,6|0,0:0|0:0,0:0:0:0:
100,268,86737,2,0,P|88:184|167:109,1,170,2|0,3:2|0:0,0:0:0:0:
224,128,87370,1,8,0:0:0:0:
308,156,87582,1,0,0:0:0:0:
308,156,87687,1,0,0:0:0:0:
308,156,87793,6,0,B|340:216|400:228|400:228|392:252|404:300,1,170,2|8,0:0|0:0,0:0:0:0:
336,336,88427,1,0,0:0:0:0:
252,336,88638,1,2,0:0:0:0:
172,308,88849,2,0,L|156:220,1,85,0|8,0:0|0:0,0:0:0:0:
150,192,89166,1,0,0:0:0:0:
144,160,89272,1,8,0:0:0:0:
337,195,89483,5,4,0:0:0:0:
204,256,102582,5,8,0:0:0:0:
288,228,102793,1,0,3:0:0:0:
320,216,102899,1,0,3:0:0:0:
344,192,103004,6,0,L|352:100,1,85,2|0,0:0|0:0,0:0:0:0:
296,40,103427,1,8,0:0:0:0:
212,52,103638,2,0,L|180:16,2,42.5,2|0|0,0:0|0:0|0:0,0:0:0:0:
172,128,104061,1,0,0:0:0:0:
128,200,104272,1,8,0:0:0:0:
48,224,104483,1,0,0:0:0:0:
152,308,104694,6,0,P|224:300|316:336,1,170,2|8,0:0|0:0,0:0:0:0:
392,364,105328,1,2,0:0:0:0:
420,284,105539,1,0,0:0:0:0:
384,208,105751,2,0,P|380:164|396:120,2,85,2|8|2,0:0|0:0|0:0,0:0:0:0:
256,260,106385,6,0,P|172:272|100:220,1,170,2|8,0:0|0:0,0:0:0:0:
84,144,107018,1,2,0:0:0:0:
84,144,107124,1,0,0:0:0:0:
84,144,107230,2,0,P|112:112|152:92,1,85
224,136,107652,2,0,P|252:168|292:188,1,85,8|0,0:0|0:0,0:0:0:0:
404,116,108075,6,0,P|432:204|408:288,1,170,2|8,0:0|0:0,0:0:0:0:
344,328,108709,1,2,0:0:0:0:
312,340,108814,1,0,0:0:0:0:
280,336,108920,2,0,P|208:288|116:312,1,170,0|8,3:0|0:0,0:0:0:0:
100,320,109448,2,0,L|56:328,1,42.5,0|0,3:0|3:0,0:0:0:0:
36,192,109765,5,4,0:0:0:0:
192,120,110187,2,0,L|288:140,2,85,8|0|2,0:0|0:0|0:0,0:0:0:0:
132,60,110821,1,0,0:0:0:0:
216,40,111032,1,8,0:0:0:0:
192,120,111244,6,0,P|176:196|224:276,1,170,2|0,0:0|0:0,0:0:0:0:
292,320,111878,1,8,0:0:0:0:
356,264,112089,1,0,0:0:0:0:
372,236,112194,1,0,0:0:0:0:
376,204,112300,5,2,0:0:0:0:
316,80,112511,1,0,0:0:0:0:
192,140,112723,1,8,0:0:0:0:
252,264,112934,1,0,0:0:0:0:
376,204,113145,6,0,P|416:200|468:212,2,85,2|0|8,0:0|0:0|0:0,0:0:0:0:
336,280,113779,1,0,0:0:0:0:
252,264,113990,1,2,0:0:0:0:
180,308,114201,2,0,P|136:320|92:312,1,85,0|8,0:0|0:0,0:0:0:0:
52,188,114624,6,0,P|132:160|224:188,1,170,4|0,0:0|0:0,0:0:0:0:
284,228,115258,1,8,0:0:0:0:
320,152,115469,1,0,0:0:0:0:
320,152,115575,1,0,0:0:0:0:
320,152,115680,2,0,P|332:108|320:64,1,85,2|0,0:0|0:0,0:0:0:0:
252,24,116103,1,8,0:0:0:0:
176,60,116314,1,0,3:0:0:0:
152,84,116420,1,0,3:0:0:0:
132,112,116525,6,0,P|112:188|144:272,1,170,4|8,0:0|0:0,0:0:0:0:
204,332,117159,2,0,P|248:344|300:336,1,85,0|2,0:0|0:0,0:0:0:0:
372,324,117582,1,0,0:0:0:0:
436,268,117793,1,8,0:0:0:0:
380,144,118004,6,0,P|328:80|244:68,1,170,4|0,0:0|0:0,0:0:0:0:
164,96,118638,1,8,0:0:0:0:
116,164,118849,2,0,P|104:208|116:256,1,85,0|2,0:0|0:0,0:0:0:0:
148,324,119272,5,0,0:0:0:0:
256,240,119483,1,8,0:0:0:0:
344,344,119694,1,0,0:0:0:0:
412,296,119906,6,0,P|452:228|424:136,1,170,2|8,0:0|0:0,0:0:0:0:
364,92,120539,1,0,0:0:0:0:
364,92,120645,1,0,0:0:0:0:
364,92,120751,2,0,L|272:104,2,85,2|0|8,0:0|0:0|0:0,0:0:0:0:
240,20,121385,6,0,P|192:100|220:168,1,170,4|0,0:0|0:0,0:0:0:0:
284,220,122018,1,8,0:0:0:0:
328,292,122230,1,0,0:0:0:0:
204,340,122441,6,0,P|112:336|48:280,1,170,4|8,0:0|0:0,0:0:0:0:
40,256,122969,1,0,0:0:0:0:
32,224,123075,1,0,0:0:0:0:
164,196,123286,6,0,P|248:208|316:160,1,170,4|8,0:0|0:0,0:0:0:0:
340,80,123920,1,0,0:0:0:0:
264,44,124131,2,0,P|224:36|176:52,2,85,2|0|8,0:0|0:0|0:0,0:0:0:0:
340,80,124765,1,2,0:0:0:0:
368,212,124976,6,0,P|316:284|228:308,1,170,0|8,0:0|0:0,0:0:0:0:
156,312,125610,1,0,0:0:0:0:
156,312,125716,1,0,0:0:0:0:
156,312,125821,5,2,0:0:0:0:
40,244,126032,1,0,0:0:0:0:
184,220,126244,2,0,P|196:176|184:128,1,85,8|0,0:0|0:0,0:0:0:0:
180,104,126561,1,0,0:0:0:0:
164,76,126666,6,0,P|248:96|328:64,1,170,2|8,0:0|0:0,0:0:0:0:
400,32,127300,1,0,0:0:0:0:
456,96,127511,2,0,P|468:136|460:192,1,85,2|0,0:0|0:0,0:0:0:0:
372,280,127934,1,8,0:0:0:0:
336,148,128145,1,2,0:0:0:0:
228,232,128356,6,0,B|184:260|100:216|56:244,1,170,0|8,0:0|0:0,0:0:0:0:
32,160,128990,1,0,0:0:0:0:
32,160,129096,1,0,0:0:0:0:
32,160,129201,2,0,P|36:115|61:74,1,85,2|0,0:0|0:0,0:0:0:0:
132,40,129624,1,8,0:0:0:0:
204,88,129835,1,0,0:0:0:0:
332,44,130047,6,0,P|384:100|368:204,1,170,4|8,0:0|0:0,0:0:0:0:
324,252,130680,1,0,0:0:0:0:
240,232,130892,2,0,P|176:224|112:260,1,127.5,2|0,0:0|0:0,0:0:0:0:
96,272,131314,2,0,L|84:188,1,85,8|0,0:0|0:0,0:0:0:0:
88,52,131737,5,2,0:0:0:0:
160,96,131948,1,0,0:0:0:0:
224,40,132159,1,8,0:0:0:0:
288,96,132370,1,0,0:0:0:0:
360,52,132582,5,2,0:0:0:0:
487,98,132793,1,0,0:0:0:0:
440,225,133004,1,8,0:0:0:0:
313,179,133216,1,0,0:0:0:0:
313,179,133321,1,0,0:0:0:0:
313,179,133427,6,0,P|232:208|216:292,1,170,4|8,0:0|0:0,0:0:0:0:
276,340,134061,1,0,0:0:0:0:
140,332,134272,2,0,P|128:288|128:244,2,85,2|0|8,0:0|0:0|0:0,0:0:0:0:
60,364,134906,1,0,0:0:0:0:
36,232,135117,6,0,L|44:144,1,85,6|0,0:0|0:0,0:0:0:0:
136,100,135539,2,0,L|144:188,1,85,10|0,0:0|0:0,0:0:0:0:
236,260,135962,2,0,L|244:172,1,85,2|0,0:0|0:0,0:0:0:0:
320,64,136385,2,0,L|332:116,3,42.5,8|0|0|0,0:0|0:0|0:0|0:0,0:0:0:0:
340,148,136807,6,0,P|348:196|324:280,1,127.500004863739,2|0,0:0|0:0,0:0:0:0:
256,192,137441,12,2,138709,0:0:0:0:
89,267,139131,6,0,L|92:212,1,31.8750012159348
100,200,139342,6,0,P|180:176|256:212,1,170,6|8,0:0|0:0,0:0:0:0:
292,288,139975,1,0,0:0:0:0:
344,220,140187,2,0,L|352:132,1,85,2|0,0:0|0:0,0:0:0:0:
484,100,140609,2,0,L|476:188,1,85,8|0,0:0|0:0,0:0:0:0:
452,320,141032,6,0,P|384:360|288:348,1,170,2|8,0:0|0:0,0:0:0:0:
228,300,141665,1,0,0:0:0:0:
184,228,141877,2,0,L|200:144,2,85,2|0|8,0:0|0:0|0:0,0:0:0:0:
112,276,142511,1,0,0:0:0:0:
112,276,142616,1,0,0:0:0:0:
112,276,142722,6,0,P|56:208|64:116,1,170,2|8,0:0|0:0,0:0:0:0:
124,76,143356,1,0,0:0:0:0:
196,120,143567,2,0,P|260:136|328:120,1,127.5,2|0,0:0|0:0,0:0:0:0:
344,100,143989,2,0,L|364:196,1,85,8|0,0:0|0:0,0:0:0:0:
368,320,144412,6,0,P|296:344|208:320,1,170,4|8,0:0|0:0,0:0:0:0:
164,248,145046,1,0,0:0:0:0:
215,121,145257,5,2,0:0:0:0:
82,139,145468,1,0,0:0:0:0:
164,248,145680,1,8,0:0:0:0:
215,121,145891,1,0,0:0:0:0:
316,260,146102,5,6,0:0:0:0:
452,164,146525,2,0,P|472:248|456:328,2,170,8|2|8,0:0|0:0|0:0,0:0:0:0:
388,108,147581,1,0,0:0:0:0:
304,128,147792,6,0,P|220:144|152:88,1,170,2|8,0:0|0:0,0:0:0:0:
104,28,148426,1,0,0:0:0:0:
68,28,148532,1,0,0:0:0:0:
36,44,148637,6,0,L|44:136,1,85,2|0,0:0|0:0,0:0:0:0:
88,200,149060,1,8,0:0:0:0:
172,224,149271,1,0,0:0:0:0:
172,224,149377,1,0,0:0:0:0:
172,224,149482,6,0,P|256:216|332:256,1,170,4|8,0:0|0:0,0:0:0:0:
380,324,150116,1,0,0:0:0:0:
380,324,150222,1,0,0:0:0:0:
380,324,150327,5,2,0:0:0:0:
252,376,150539,1,0,0:0:0:0:
140,300,150750,1,8,0:0:0:0:
268,252,150961,6,0,P|300:180|248:96,1,170,2|0,0:0|0:0,0:0:0:0:
132,152,151595,2,0,P|100:224|152:308,1,170,10|2,0:0|0:0,0:0:0:0:
220,356,152229,1,0,3:0:0:0:
296,320,152440,1,8,0:0:0:0:
376,344,152651,1,0,0:0:0:0:
376,344,152757,1,0,0:0:0:0:
376,344,152863,6,0,P|424:272|392:192,1,170,6|8,0:0|0:0,0:0:0:0:
332,148,153496,1,0,0:0:0:0:
248,188,153708,2,0,P|184:204|112:188,1,127.5,2|0,0:0|0:0,0:0:0:0:
100,168,154130,2,0,L|100:260,1,85,8|0,0:0|0:0,0:0:0:0:
180,364,154553,5,2,0:0:0:0:
264,352,154764,1,0,0:0:0:0:
260,268,154975,1,8,0:0:0:0:
176,276,155187,1,0,0:0:0:0:
60,348,155398,5,2,0:0:0:0:
24,272,155609,1,0,0:0:0:0:
16,188,155820,1,8,0:0:0:0:
48,108,156032,1,0,0:0:0:0:
48,108,156137,1,0,0:0:0:0:
48,108,156243,6,0,P|128:72|216:88,1,170,2|8,0:0|0:0,0:0:0:0:
284,124,156877,1,0,0:0:0:0:
336,192,157088,2,0,P|340:256|304:316,1,127.5,2|0,0:0|0:0,0:0:0:0:
280,328,157511,2,0,L|192:328,1,85,8|0,0:0|0:0,0:0:0:0:
100,228,157933,6,0,P|176:180|260:204,1,170,4|8,0:0|0:0,0:0:0:0:
316,252,158567,1,0,0:0:0:0:
388,204,158778,6,0,P|400:160|388:124,1,85,2|0,0:0|0:0,0:0:0:0:
252,120,159201,2,0,P|240:164|252:200,1,85,8|0,0:0|0:0,0:0:0:0:
288,332,159623,6,0,P|224:344|156:320,1,127.5,6|0,0:0|0:0,0:0:0:0:
140,304,160046,1,8,0:0:0:0:
88,240,160257,2,0,L|76:152,2,85,0|2|0,0:0|0:0|0:0,0:0:0:0:
172,228,160891,5,8,0:0:0:0:
252,120,161102,1,0,0:0:0:0:
340,228,161313,6,0,P|380:176|436:144,1,127.5,2|0,0:0|0:0,0:0:0:0:
468,136,161736,2,0,L|484:224,1,85,8|0,0:0|0:0,0:0:0:0:
448,352,162158,5,2,0:0:0:0:
384,296,162370,1,0,0:0:0:0:
328,360,162581,1,8,0:0:0:0:
264,304,162792,1,0,0:0:0:0:
204,360,163003,6,0,P|144:328|120:268,1,127.5,4|0,0:0|0:0,0:0:0:0:
124,240,163426,2,0,L|160:164,1,85,8|0,0:0|0:0,0:0:0:0:
224,108,163849,1,2,0:0:0:0:
284,168,164060,5,0,0:0:0:0:
396,92,164271,1,8,0:0:0:0:
436,224,164482,1,0,3:0:0:0:
436,224,164588,1,0,3:0:0:0:
436,224,164694,6,0,P|400:280|332:300,1,127.500004863739,4|8,0:0|0:0,0:0:0:0:
272,256,165327,1,0,3:0:0:0:
199,300,165539,2,0,P|140:277|107:223,1,127.500004863739,2|8,0:0|0:0,0:0:0:0:
100,140,166172,1,0,0:0:0:0:
140,64,166384,5,2,0:0:0:0:
140,64,167018,2,0,L|204:56,2,63.7500024318696,0|2|8,0:0|0:0|3:0,0:0:0:0:
36,112,167651,1,8,0:0:0:0:
124,188,167863,1,0,0:0:0:0:
52,304,168074,6,0,P|128:328|232:296,1,170,4|8,0:0|0:0,0:0:0:0:
272,244,168708,1,0,0:0:0:0:
272,244,168813,1,0,0:0:0:0:
272,244,168919,2,0,L|284:144,2,85,2|0|8,0:0|3:0|0:0,0:0:0:0:
412,344,169553,6,0,P|440:268|420:180,1,170,4|0,0:0|0:0,0:0:0:0:
376,108,170187,1,8,0:0:0:0:
304,156,170398,1,0,0:0:0:0:
272,168,170503,1,0,0:0:0:0:
240,176,170609,2,0,P|160:176|92:112,1,170,2|8,0:0|0:0,0:0:0:0:
208,44,171243,6,0,P|292:32|380:72,1,170,4|0,0:0|0:0,0:0:0:0:
408,140,171877,1,8,0:0:0:0:
416,224,172088,1,0,0:0:0:0:
360,288,172299,2,0,P|320:296|272:280,1,85,0|8,0:0|0:0,0:0:0:0:
216,228,172722,1,0,0:0:0:0:
128,320,172933,6,0,P|92:244|104:152,1,170,4|0,0:0|0:0,0:0:0:0:
152,92,173567,2,0,P|200:96|248:84,1,85,8|0,0:0|0:0,0:0:0:0:
388,44,173989,5,2,0:0:0:0:
316,160,174201,1,0,0:0:0:0:
292,24,174412,1,8,0:0:0:0:
436,120,174623,5,4,0:0:0:0:
436,120,174729,1,0,0:0:0:0:
436,120,174834,2,0,P|448:188|440:252,1,127.5,0|0,0:0|0:0,0:0:0:0:
440,276,175257,2,0,L|348:260,1,85,8|0,0:0|0:0,0:0:0:0:
296,200,175680,1,2,0:0:0:0:
232,256,175891,2,0,L|188:264,2,42.5,0|0|8,0:0|0:0|0:0,0:0:0:0:
160,140,176313,6,0,P|88:188|60:264,1,170,4|0,0:0|0:0,0:0:0:0:
104,336,176947,1,8,0:0:0:0:
188,336,177158,6,0,L|208:388,2,42.5,0|0|2,0:0|0:0|0:0,0:0:0:0:
248,204,177581,1,0,0:0:0:0:
324,316,177792,1,8,0:0:0:0:
428,228,178003,6,0,P|448:156|404:64,1,170,4|0,0:0|0:0,0:0:0:0:
384,56,178532,1,0,0:0:0:0:
356,48,178637,1,8,0:0:0:0:
272,72,178849,1,0,0:0:0:0:
188,52,179060,2,0,L|164:0,2,42.5,2|0|0,0:0|0:0|0:0,0:0:0:0:
128,112,179482,1,8,0:0:0:0:
236,192,179694,6,0,P|220:280|152:328,1,170,4|0,0:0|0:0,0:0:0:0:
96,268,180327,2,0,P|104:188|60:108,1,170,8|2,0:0|0:0,0:0:0:0:
32,32,180961,1,0,0:0:0:0:
116,44,181172,1,8,0:0:0:0:
232,116,181384,6,0,B|288:144|340:92|400:116,1,170,4|0,0:0|0:0,0:0:0:0:
464,172,182018,1,10,0:0:0:0:
464,172,182440,2,0,L|448:260,1,85,2|0,0:0|0:0,0:0:0:0:
376,300,182863,1,8,0:0:0:0:
280,204,183074,6,0,P|196:208|124:264,1,170,6|0,0:0|0:0,0:0:0:0:
96,336,183708,2,0,L|84:376,2,42.5,8|0|0,0:0|0:0|0:0,0:0:0:0:
180,324,184130,1,2,3:2:0:0:
252,372,184342,1,0,3:0:0:0:
332,340,184553,2,0,L|348:256,1,85,8|0,0:0|0:0,0:0:0:0:
360,172,184975,6,0,P|316:96|244:64,1,170,2|8,0:0|0:0,0:0:0:0:
188,128,185609,1,0,0:0:0:0:
112,88,185820,2,0,P|72:104|36:132,2,85,2|4|8,0:0|0:0|0:0,0:0:0:0:
188,128,186454,1,0,0:0:0:0:
188,128,186560,1,0,0:0:0:0:
188,128,186665,5,2,0:0:0:0:
256,192,198285,12,0,199623,0:0:0:0:
144,312,199975,5,0,0:0:0:0:
144,312,200081,1,0,0:0:0:0:
144,312,200187,2,0,P|128:264|144:216,1,85,4|0,0:0|0:0,0:0:0:0:
172,156,200609,1,8,0:0:0:0:
236,100,200820,1,0,0:0:0:0:
312,208,201032,2,0,P|360:248|424:248,1,127.5,2|0,0:0|0:0,0:0:0:0:
464,264,201454,2,0,L|416:352,1,85,8|0,0:0|0:0,0:0:0:0:
392,172,201877,6,0,P|316:124|236:168,1,170,2|8,0:0|0:0,0:0:0:0:
172,204,202511,1,0,0:0:0:0:
104,256,202722,2,0,P|96:308|108:352,1,85,2|0,0:0|0:0,0:0:0:0:
172,204,203144,2,0,P|180:152|168:108,1,85,8|0,0:0|0:0,0:0:0:0:
208,96,203461,1,0,0:0:0:0:
248,80,203567,6,0,P|288:72|352:92,1,85,4|0,0:0|0:0,0:0:0:0:
408,116,203989,1,0,0:0:0:0:
364,188,204201,1,8,0:0:0:0:
288,156,204412,2,0,P|248:180|228:224,1,85,2|0,0:0|0:0,0:0:0:0:
212,252,204729,2,0,P|156:288|80:272,1,127.5,2|0,0:0|0:0,0:0:0:0:
124,124,205257,6,0,L|140:208,1,85,2|0,0:0|0:0,0:0:0:0:
212,252,205680,1,8,0:0:0:0:
292,224,205891,1,0,0:0:0:0:
376,344,206102,2,0,P|448:336|496:240,1,170,2|8,0:0|0:0,0:0:0:0:
476,176,206736,1,0,0:0:0:0:
336,76,206947,6,0,P|272:56|204:80,1,127.5,4|0,0:0|0:0,0:0:0:0:
184,104,207370,2,0,L|160:188,1,85,8|0,0:0|0:0,0:0:0:0:
184,268,207792,1,2,0:0:0:0:
260,228,208003,2,0,P|312:220|356:232,1,85,0|8,0:0|0:0,0:0:0:0:
184,268,208426,1,0,0:0:0:0:
116,216,208637,6,0,P|76:160|84:96,2,127.5,2|2|0,0:0|0:0|0:0,0:0:0:0:
184,268,209482,2,0,L|308:332,1,127.5,2|0,0:0|0:0,0:0:0:0:
328,260,209905,2,0,L|252:220,1,85,8|0,0:0|0:0,0:0:0:0:
248,116,210327,6,0,L|408:200,1,170,4|8,0:0|0:0,0:0:0:0:
440,296,210961,1,0,0:0:0:0:
328,260,211172,2,0,P|280:252|240:264,1,85,2|0,0:0|0:0,0:0:0:0:
120,340,211595,2,0,P|168:348|208:336,1,85,8|0,0:0|0:0,0:0:0:0:
156,239,212018,5,8,0:0:0:0:
182,64,212229,1,8,0:0:0:0:
319,171,212440,1,8,0:0:0:0:
312,156,213496,5,0,0:0:0:0:
312,156,213602,1,0,0:0:0:0:
312,156,213708,2,0,L|348:232,1,85,4|0,0:0|0:0,0:0:0:0:
468,300,214130,2,0,L|431:223,1,85,8|0,0:0|0:0,0:0:0:0:
400,144,214553,1,2,0:0:0:0:
348,80,214764,1,0,0:0:0:0:
264,84,214975,2,0,P|204:100|132:80,1,127.5,8|0,0:0|0:0,0:0:0:0:
104,104,215398,6,0,L|88:196,1,85,2|0,0:0|0:0,0:0:0:0:
76,272,215820,1,8,0:0:0:0:
148,320,216032,1,0,0:0:0:0:
232,304,216243,2,0,P|263:316|331:305,1,85,2|0,0:0|0:0,0:0:0:0:
396,300,216665,1,8,0:0:0:0:
352,228,216877,1,0,0:0:0:0:
432,56,217088,6,0,P|467:134|427:210,1,170,2|8,0:0|0:0,0:0:0:0:
352,228,217722,1,0,0:0:0:0:
396,300,217933,2,0,L|312:348,1,85,2|0,0:0|0:0,0:0:0:0:
240,324,218356,1,8,0:0:0:0:
256,240,218567,1,0,0:0:0:0:
184,196,218778,6,0,P|116:216|52:188,2,127.5,2|2|2,0:0|0:0|0:0,0:0:0:0:
280,100,219623,2,0,P|344:80|408:112,2,127.5,2|2|2,0:0|0:0|0:0,0:0:0:0:
329,244,220468,6,0,L|340:160,1,85,4|0,0:0|0:0,0:0:0:0:
224,216,220891,1,8,0:0:0:0:
264,352,221102,1,0,0:0:0:0:
396,320,221313,2,0,L|416:160,1,127.5,2|0,0:0|0:0,0:0:0:0:
416,152,221736,1,8,0:0:0:0:
348,100,221947,1,0,0:0:0:0:
264,92,222158,6,0,P|216:96|184:116,1,85,2|0,0:0|0:0,0:0:0:0:
164,196,222581,2,0,P|212:192|244:172,1,85,8|0,0:0|0:0,0:0:0:0:
348,100,223003,2,0,L|324:244,1,127.5,2|0,0:0|0:0,0:0:0:0:
320,268,223426,1,8,0:0:0:0:
240,304,223637,1,0,0:0:0:0:
164,196,223849,6,0,P|136:240|144:284,1,85,2|0,0:0|0:0,0:0:0:0:
168,352,224271,1,8,0:0:0:0:
240,304,224482,2,0,P|268:260|260:216,1,85,2|0,0:0|0:0,0:0:0:0:
292,148,224905,1,2,0:0:0:0:
356,92,225116,2,0,P|376:144|356:192,1,85,8|2,0:0|0:0,0:0:0:0:
304,224,225539,6,0,P|284:280|308:352,2,127.5,2|2|2,0:0|0:0|0:0,0:0:0:0:
180,136,226384,2,0,P|200:80|176:8,2,127.5,2|2|2,0:0|0:0|0:0,0:0:0:0:
164,176,227123,1,8,0:0:0:0:
140,212,227229,6,0,P|124:244|132:304,1,85,4|0,0:0|0:0,0:0:0:0:
192,348,227651,1,8,0:0:0:0:
272,312,227863,2,0,P|348:308|392:228,1,170,2|0,0:0|0:0,0:0:0:0:
412,152,228496,1,8,0:0:0:0:
352,92,228708,1,0,0:0:0:0:
260,167,228919,6,0,L|260:271,1,85,2|0,0:0|0:0,0:0:0:0:
196,308,229342,1,8,0:0:0:0:
112,288,229553,2,0,P|80:260|64:216,1,85,2|0,0:0|0:0,0:0:0:0:
148,216,229975,1,2,0:0:0:0:
196,148,230187,2,0,P|240:128|264:92,1,85,8|2,0:0|0:0,0:0:0:0:
364,140,230609,6,0,P|396:208|340:296,1,170,4|8,0:0|0:0,0:0:0:0:
227,212,231243,2,0,L|312:212,2,85,2|0|0,0:0|0:0|0:0,0:0:0:0:
227,296,231877,2,0,L|312:296,1,85,8|0,0:0|0:0,0:0:0:0:
396,296,232299,5,2,0:0:0:0:
464,244,232511,2,0,P|479:194|468:151,1,85,12|8,0:0|0:0,0:0:0:0:
420,100,232933,1,0,0:0:0:0:
336,116,233144,1,8,0:0:0:0:
256,80,233356,1,0,0:0:0:0:
256,80,233461,2,0,P|204:72|160:84,1,85,8|0,0:0|0:0,0:0:0:0:
144,108,233778,1,8,0:0:0:0:
128,148,233884,1,0,0:0:0:0:
124,192,233989,6,0,P|156:240|228:256,1,127.5,4|0,0:0|0:0,0:0:0:0:
260,248,234412,1,8,0:0:0:0:
420,128,234623,1,4,0:0:0:0:
256,192,234729,12,0,240750,0:0:0:0:
