osu file format v5

[General]
AudioFilename: Brave Heart (TV size).mp3
AudioLeadIn: 0
PreviewTime: -1
Countdown: 1
SampleSet: Normal
StackLeniency: 0.7
Mode: 0
LetterboxInBreaks: 1

[Metadata]
Title:Brave Heart
Artist:Miyazaki Ayumi
Creator:flyboy87
Version:Normal
Source:Digimon Adventure
Tags:

[Difficulty]
HPDrainRate:5
CircleSize:5
OverallDifficulty:5
SliderMultiplier:1.4
SliderTickRate:2

[Events]
//Background and Video events
0,0,"digimonadvbg.jpg"
//Break Periods
2,24725,32371
2,53721,60607
2,90850,96268
//Storyboard Layer 0 (Background)
//Storyboard Layer 1 (Failing)
//Storyboard Layer 2 (Passing)
//Storyboard Layer 3 (Foreground)
//Storyboard Sound Samples
//Background Colour Transformations
3,100,163,162,255

[TimingPoints]
1803,421.348314606742,4,1,0,100,1

[HitObjects]
104,88,12547,1,0
176,88,12968,1,0
312,88,13811,1,0
168,88,14654,5,0
256,192,15496,1,2
112,192,16339,1,0
256,296,17392,5,8
288,296,17603,1,0
320,296,17814,1,8
392,296,18235,1,8
392,296,18446,1,2
392,224,18867,1,8
392,152,19288,1,4
320,152,19710,5,0
328,288,20553,1,2
184,288,21395,1,8
168,144,22238,1,2
320,144,23081,5,2
128,144,24134,1,0
160,144,24345,1,0
192,144,24555,1,2
48,128,33614,6,8,B|112:176,3,70
176,176,34668,5,2
248,176,35088,1,0
280,176,35299,1,2
312,176,35510,1,2
344,176,35720,2,0,B|488:176,1,140
480,144,36352,1,4
480,88,36563,5,0
424,40,36984,1,2
352,40,37406,5,8
312,40,37616,1,0
240,40,38038,1,0
168,40,38459,2,4,B|64:96|184:192|216:224|120:368,1,350
200,344,39934,1,4
360,248,40355,5,2
384,184,40777,2,2,B|448:160|384:64,1,140
352,72,41409,1,0
304,120,41830,1,0
280,144,42041,1,2
256,168,42251,1,8
232,192,42462,1,0
208,216,42673,1,8
184,240,42883,1,0
160,264,43094,1,8
128,112,43937,5,4
160,112,44147,1,2
192,112,44358,1,4
264,112,44779,5,2
320,64,45201,1,8
288,64,45411,1,8
248,64,45622,1,4
144,64,46254,6,0,B|280:168,1,140
328,160,47307,1,8
360,160,47518,1,0
296,160,48150,5,0
264,160,48361,2,0,B|184:160,1,70
160,160,48782,2,8,B|16:328,1,210
56,320,49625,5,0
88,320,49836,1,0
120,320,50046,2,2,B|280:320,1,140
296,320,50678,1,2
328,320,50889,1,0
432,320,51521,6,8,B|304:248,1,140
248,216,52364,1,0
336,160,52996,1,0
392,208,53417,1,2
80,56,61739,5,0
80,56,61845,1,0
80,56,61950,1,0
32,144,62582,6,8,B|104:200|152:256,1,140
96,296,63425,2,2,B|248:232,1,140
296,256,64267,2,0,B|224:192,1,70
160,144,65110,5,0
176,144,65215,1,0
192,144,65321,1,0
224,40,65953,6,0,B|336:128,1,140
368,64,66795,2,2,B|272:184,1,140
240,112,67638,2,4,B|376:208,1,140
456,200,68692,5,2
456,128,69113,5,4
456,56,69534,1,4
384,56,69956,1,4
312,56,70377,1,4
240,56,70798,5,2
240,88,71009,2,8,B|40:200,1,210
88,192,71852,1,4
120,88,72905,5,8
144,112,73116,1,2
168,136,73326,1,2
256,192,73537,12,0,75012
472,48,75222,5,0
456,56,75328,1,0
440,64,75433,1,0
336,64,76065,6,2,B|192:128,1,140
240,120,76697,1,0
312,120,77119,2,8,B|192:200,1,140
232,200,77751,1,10
264,200,77961,1,0
184,128,78593,5,8
216,128,78804,1,4
200,232,79436,5,8
232,232,79647,1,0
264,232,79857,1,0
336,232,80279,1,2
368,232,80489,1,0
472,232,81121,1,0
472,200,81332,1,4
472,96,81964,5,0
440,120,82175,1,0
408,136,82385,1,2
336,136,82807,1,2
264,136,83228,1,0
160,136,83860,5,0
232,136,84281,2,8,B|328:136,3,70
256,184,85335,6,4,B|193:56|62:56|62:56|100:223|256:280|256:280|120:352|120:352|408:352|408:352|256:272|256:272|421:227|457:38|457:38|352:53|256:208,1,1750
96,304,97449,5,0
232,304,98291,1,0
368,304,99134,1,8
368,160,99977,1,8
368,16,100819,1,12
216,96,101873,6,0,B|296:152,2,70
304,152,102926,5,0
272,216,103347,1,2
200,216,103769,5,2
160,216,103979,1,8
128,216,104190,1,8
24,216,104822,1,0
176,136,105876,5,4
280,136,106508,1,4
352,136,106929,6,2,B|280:208,3,70
224,256,108193,1,2
400,240,109246,5,4
400,136,109878,1,4
224,144,110932,1,0
296,144,111353,1,2
328,144,111564,1,4
