osu file format v12

[General]
AudioFilename: te-yut-te.mp3
AudioLeadIn: 2000
PreviewTime: 46547
Countdown: 0
SampleSet: Soft
StackLeniency: 0.7
Mode: 0
LetterboxInBreaks: 0
WidescreenStoryboard: 0

[Editor]
Bookmarks: 69047
DistanceSpacing: 0.8
BeatDivisor: 4
GridSize: 4
TimelineZoom: 1

[Metadata]
Title:te-yut-te
TitleUnicode:te-yut-te
Artist:Miyasuke
ArtistUnicode:宮助
Creator:yy-JUnKi
Version:Normal
Source:
Tags:kagamine rin [ Yuzuriha Inori ] FeiP
BeatmapID:392628
BeatmapSetID:160320

[Difficulty]
HPDrainRate:4
CircleSize:3
OverallDifficulty:3
ApproachRate:4
SliderMultiplier:1.2
SliderTickRate:1

[Events]
//Background and Video events
0,0,"kagamine rin.jpg",0,0
Video,0,"te-yut-te.avi"
//Break Periods
//Storyboard Layer 0 (Background)
//Storyboard Layer 1 (Fail)
//Storyboard Layer 2 (Pass)
//Storyboard Layer 3 (Foreground)
//Storyboard Sound Samples
//Background Colour Transformations
3,100,163,162,255

[TimingPoints]
690,428.571428571429,4,2,0,100,1,0
55761,-100,4,2,0,100,0,1
69047,285.714285714286,4,2,0,100,1,0
69332,375,4,2,0,100,1,0
69707,352.941428571429,4,2,0,100,1,0
72530,508.474576271186,4,2,0,100,1,0
76597,487.80487804878,4,2,0,100,1,0

[Colours]
Combo1 : 255,0,128
Combo2 : 95,107,255
Combo3 : 255,128,0
Combo4 : 95,255,95

[HitObjects]
256,52,690,6,0,P|163:95|143:126,1,120
108,192,1547,1,0,0:0:0:0:
72,280,1975,2,0,P|154:281|198:190,2,180
40,192,3690,1,0,0:0:0:0:
40,192,4118,1,0,0:0:0:0:
104,128,4547,6,0,P|172:81|233:78,1,120
256,156,5404,1,0,0:0:0:0:
304,72,5832,2,0,P|362:86|408:125,1,120
335,189,6690,1,0,0:0:0:0:
257,245,7118,1,0,0:0:0:0:
177,189,7547,1,0,0:0:0:0:
81,189,7975,6,0,P|101:250|164:283,1,120
201,357,8832,1,0,0:0:0:0:
255,277,9261,1,0,0:0:0:0:
311,357,9690,1,0,0:0:0:0:
366,279,10118,2,0,P|414:245|431:189,1,120
436,140,10761,1,0,0:0:0:0:
436,92,10975,1,0,0:0:0:0:
352,44,11404,6,0,P|258:105|155:44,1,240
104,128,12690,1,0,0:0:0:0:
176,192,13118,2,0,P|151:245|179:303,1,120
256,348,13975,1,0,0:0:0:0:
256,348,14404,1,0,0:0:0:0:
338,298,14832,2,0,P|360:244|336:192,1,120
304,100,15690,5,0,0:0:0:0:
208,100,16118,1,0,0:0:0:0:
120,140,16547,2,0,P|256:236|399:136,1,360
312,96,18261,6,0,P|354:53|437:53,1,120
400,140,19118,1,0,0:0:0:0:
340,216,19547,1,0,0:0:0:0:
400,292,19975,2,0,P|336:324|229:211,1,240
136,192,21261,1,0,0:0:0:0:
48,148,21690,6,0,P|82:113|231:200,1,240
256,272,22975,1,0,0:0:0:0:
347,243,23404,2,0,P|408:139|332:57,1,240
256,105,24690,1,0,0:0:0:0:
268,200,25118,6,0,P|254:247|406:312,1,240
454,253,26404,1,0,0:0:0:0:
388,183,26832,2,0,P|314:96|197:115,1,240
142,190,28118,1,0,0:0:0:0:
256,192,28547,12,0,31547,0:0:0:0:
181,191,31975,6,0,P|199:108|236:75,2,120
255,251,33261,1,0,0:0:0:0:
344,284,33690,2,0,P|305:335|233:338,2,120
368,191,34975,1,0,0:0:0:0:
352,96,35404,6,0,P|316:106|272:182,1,120
230,258,36261,2,0,P|186:221|167:149,1,120
255,126,37118,1,0,0:0:0:0:
185,59,37547,1,0,0:0:0:0:
98,100,37975,1,0,0:0:0:0:
60,188,38404,1,0,0:0:0:0:
127,256,38832,6,0,P|153:168|42:90,1,240
39,185,40118,1,0,0:0:0:0:
40,281,40547,2,0,P|68:321|221:253,1,240
166,189,41832,1,0,0:0:0:0:
219,109,42261,6,0,L|347:109,1,120
434,113,43118,2,0,P|455:147|445:241,1,120
383,290,43975,1,0,0:0:0:0:
346,258,44190,2,0,P|307:187|213:178,1,180
208,224,45047,2,0,P|161:279|57:271,1,180
156,108,46547,5,0,0:0:0:0:
256,272,47404,1,0,0:0:0:0:
356,108,48261,1,0,0:0:0:0:
256,272,49118,6,0,P|292:318|375:336,1,120
356,244,49975,1,0,0:0:0:0:
316,156,50404,1,0,0:0:0:0:
292,64,50832,2,0,P|234:101|271:264,1,240
328,192,52118,1,0,0:0:0:0:
370,277,52547,2,0,P|412:246|416:165,2,120
286,324,53832,1,0,0:0:0:0:
207,268,54261,2,0,B|163:242|138:297|72:254,2,120
303,270,55547,1,0,0:0:0:0:
359,192,55975,6,0,P|392:140|467:105,2,120
449,222,57261,1,0,0:0:0:0:
388,296,57690,2,0,P|305:302|259:166,1,240
311,96,58975,1,0,0:0:0:0:
229,44,59404,2,0,L|85:45,2,120
255,136,60690,1,0,0:0:0:0:
173,185,61118,6,0,P|214:223|353:128,1,240
438,190,62404,1,0,0:0:0:0:
469,99,62832,2,0,P|364:54|231:94,1,240
175,148,64118,1,0,0:0:0:0:
123,228,64547,2,0,P|82:188|165:50,1,240
244,79,65832,1,0,0:0:0:0:
309,149,66261,6,0,L|380:273,2,120
255,68,67547,1,0,0:0:0:0:
175,122,67975,2,0,P|134:203|188:340,1,240
256,192,69332,12,0,71295,0:0:0:0:
177,188,72530,6,0,P|199:140|337:195,1,240
255,243,74055,1,0,0:0:0:0:
256,147,74563,2,0,L|256:28,2,120
256,243,76089,1,0,0:0:0:0:
256,48,77084,5,0,0:0:0:0:
256,144,77572,1,0,0:0:0:0:
