osu file format v12

[General]
AudioFilename: te-yut-te.mp3
AudioLeadIn: 2000
PreviewTime: 46547
Countdown: 0
SampleSet: None
StackLeniency: 0.7
Mode: 3
LetterboxInBreaks: 0
SpecialStyle: 0
WidescreenStoryboard: 1

[Editor]
Bookmarks: 69047
DistanceSpacing: 2
BeatDivisor: 4
GridSize: 8
TimelineZoom: 4.099998

[Metadata]
Title:te-yut-te
TitleUnicode:te-yut-te
Artist:Miyasuke
ArtistUnicode:宮助
Creator:yy-JUnKi
Version:LV.20
Source:
Tags:kagamine rin [ Yuzuriha Inori ] FeiP
BeatmapID:416280
BeatmapSetID:160320

[Difficulty]
HPDrainRate:7
CircleSize:7
OverallDifficulty:7
ApproachRate:9
SliderMultiplier:1.4
SliderTickRate:1

[Events]
//Background and Video events
0,0,"kagamine rin.jpg",0,0
Video,0,"te-yut-te.avi"
//Break Periods
//Storyboard Layer 0 (Background)
//Storyboard Layer 1 (Fail)
//Storyboard Layer 2 (Pass)
//Storyboard Layer 3 (Foreground)
//Storyboard Sound Samples
//Background Colour Transformations
3,100,163,162,255

[TimingPoints]
690,428.571428571429,4,2,0,50,1,0
55761,-100,4,2,0,50,0,1
69047,-100,4,2,0,50,0,0

[Colours]
Combo1 : 255,0,128
Combo2 : 95,107,255
Combo3 : 255,128,0
Combo4 : 95,255,95

[HitObjects]
256,192,690,128,0,1118:0:0:0:0:
182,192,690,1,0,0:0:0:0:
329,192,690,1,0,0:0:0:0:
109,192,1118,1,0,0:0:0:0:
402,192,1118,1,0,0:0:0:0:
182,192,1332,1,0,0:0:0:0:
402,192,1332,1,0,0:0:0:0:
475,192,1332,1,0,0:0:0:0:
256,192,1547,1,0,0:0:0:0:
109,192,1547,1,0,0:0:0:0:
402,192,1547,1,0,0:0:0:0:
36,192,1761,1,0,0:0:0:0:
182,192,1761,1,0,0:0:0:0:
329,192,1761,1,0,0:0:0:0:
109,192,1975,1,0,0:0:0:0:
256,192,1975,1,0,0:0:0:0:
402,192,1975,1,0,0:0:0:0:
182,192,2190,1,0,0:0:0:0:
329,192,2190,1,0,0:0:0:0:
475,192,2190,1,0,0:0:0:0:
109,192,2404,1,0,0:0:0:0:
256,192,2404,1,0,0:0:0:0:
402,192,2404,1,0,0:0:0:0:
109,192,2618,1,0,0:0:0:0:
329,192,2618,1,0,0:0:0:0:
36,192,2618,1,0,0:0:0:0:
109,192,2832,1,0,0:0:0:0:
329,192,2832,1,0,0:0:0:0:
402,192,2832,1,0,0:0:0:0:
402,192,3047,1,0,0:0:0:0:
109,192,3047,1,0,0:0:0:0:
182,192,3047,1,0,0:0:0:0:
36,192,3261,1,0,0:0:0:0:
182,192,3261,1,0,0:0:0:0:
475,192,3261,1,0,0:0:0:0:
475,192,3475,1,0,0:0:0:0:
329,192,3475,1,0,0:0:0:0:
36,192,3475,1,0,0:0:0:0:
109,192,3690,128,0,3904:0:0:0:0:
402,192,3690,128,0,3904:0:0:0:0:
256,192,3690,1,0,0:0:0:0:
256,192,3904,1,0,0:0:0:0:
182,192,4011,1,0,0:0:0:0:
329,192,4011,1,0,0:0:0:0:
36,192,4118,1,0,0:0:0:0:
475,192,4118,1,0,0:0:0:0:
109,192,4332,128,0,4547:0:0:0:0:
256,192,4332,1,0,0:0:0:0:
36,192,4547,1,0,0:0:0:0:
182,192,4547,1,0,0:0:0:0:
402,192,4761,128,0,4975:0:0:0:0:
256,192,4761,1,0,0:0:0:0:
329,192,4975,1,0,0:0:0:0:
475,192,4975,1,0,0:0:0:0:
256,192,5190,128,0,5404:0:0:0:0:
36,192,5190,1,0,0:0:0:0:
109,192,5404,1,0,0:0:0:0:
402,192,5404,1,0,0:0:0:0:
182,192,5618,128,0,5832:0:0:0:0:
475,192,5618,1,0,0:0:0:0:
109,192,5832,1,0,0:0:0:0:
36,192,5832,1,0,0:0:0:0:
329,192,6047,128,0,6261:0:0:0:0:
36,192,6047,1,0,0:0:0:0:
402,192,6261,1,0,0:0:0:0:
475,192,6261,1,0,0:0:0:0:
182,192,6475,128,0,6690:0:0:0:0:
329,192,6475,128,0,6690:0:0:0:0:
256,192,6475,1,0,0:0:0:0:
256,192,6690,1,0,0:0:0:0:
109,192,6904,128,0,7118:0:0:0:0:
402,192,6904,128,0,7118:0:0:0:0:
256,192,6904,1,0,0:0:0:0:
36,192,7118,1,0,0:0:0:0:
475,192,7118,1,0,0:0:0:0:
256,192,7332,128,0,7547:0:0:0:0:
36,192,7332,1,0,0:0:0:0:
475,192,7332,1,0,0:0:0:0:
109,192,7547,1,0,0:0:0:0:
402,192,7547,1,0,0:0:0:0:
182,192,7761,1,0,0:0:0:0:
329,192,7761,1,0,0:0:0:0:
256,192,7761,1,0,0:0:0:0:
109,192,7975,128,0,8190:0:0:0:0:
256,192,7975,1,0,0:0:0:0:
182,192,8190,1,0,0:0:0:0:
36,192,8190,1,0,0:0:0:0:
402,192,8404,128,0,8618:0:0:0:0:
256,192,8404,1,0,0:0:0:0:
329,192,8618,1,0,0:0:0:0:
475,192,8618,1,0,0:0:0:0:
182,192,8832,128,0,9047:0:0:0:0:
36,192,8832,1,0,0:0:0:0:
256,192,9047,1,0,0:0:0:0:
329,192,9047,1,0,0:0:0:0:
329,192,9261,128,0,9475:0:0:0:0:
475,192,9261,1,0,0:0:0:0:
256,192,9475,1,0,0:0:0:0:
182,192,9475,1,0,0:0:0:0:
36,192,9690,1,0,0:0:0:0:
475,192,9690,1,0,0:0:0:0:
256,192,9690,1,0,0:0:0:0:
109,192,9904,1,0,0:0:0:0:
182,192,9904,1,0,0:0:0:0:
402,192,9904,1,0,0:0:0:0:
402,192,10118,1,0,0:0:0:0:
329,192,10118,1,0,0:0:0:0:
109,192,10118,1,0,0:0:0:0:
36,192,10332,1,0,0:0:0:0:
109,192,10332,1,0,0:0:0:0:
402,192,10332,1,0,0:0:0:0:
475,192,10547,1,0,0:0:0:0:
402,192,10547,1,0,0:0:0:0:
109,192,10547,1,0,0:0:0:0:
182,192,10761,1,0,0:0:0:0:
329,192,10761,1,0,0:0:0:0:
182,192,10868,1,0,0:0:0:0:
329,192,10868,1,0,0:0:0:0:
109,192,10975,1,0,0:0:0:0:
402,192,10975,1,0,0:0:0:0:
36,192,11190,1,0,0:0:0:0:
256,192,11190,1,0,0:0:0:0:
475,192,11190,1,0,0:0:0:0:
402,192,11404,128,0,11618:0:0:0:0:
256,192,11404,128,0,11618:0:0:0:0:
36,192,11404,1,0,0:0:0:0:
329,192,11618,1,0,0:0:0:0:
475,192,11618,1,0,0:0:0:0:
256,192,11832,128,0,12047:0:0:0:0:
109,192,11832,128,0,12047:0:0:0:0:
475,192,11832,1,0,0:0:0:0:
182,192,12047,1,0,0:0:0:0:
36,192,12047,1,0,0:0:0:0:
402,192,12261,128,0,12475:0:0:0:0:
36,192,12261,128,0,12475:0:0:0:0:
256,192,12261,1,0,0:0:0:0:
109,192,12475,1,0,0:0:0:0:
475,192,12475,1,0,0:0:0:0:
475,192,12690,128,0,12904:0:0:0:0:
109,192,12690,128,0,12904:0:0:0:0:
256,192,12690,1,0,0:0:0:0:
36,192,12904,1,0,0:0:0:0:
402,192,12904,1,0,0:0:0:0:
402,192,13118,128,0,13332:0:0:0:0:
256,192,13118,1,0,0:0:0:0:
36,192,13332,1,0,0:0:0:0:
182,192,13332,1,0,0:0:0:0:
109,192,13547,128,0,13761:0:0:0:0:
256,192,13547,1,0,0:0:0:0:
329,192,13761,1,0,0:0:0:0:
475,192,13761,1,0,0:0:0:0:
182,192,13975,128,0,14190:0:0:0:0:
256,192,13975,128,0,14190:0:0:0:0:
475,192,13975,1,0,0:0:0:0:
329,192,14190,1,0,0:0:0:0:
329,192,14404,128,0,14618:0:0:0:0:
256,192,14404,128,0,14618:0:0:0:0:
36,192,14404,1,0,0:0:0:0:
182,192,14618,1,0,0:0:0:0:
36,192,14832,128,0,15047:0:0:0:0:
256,192,14832,128,0,15047:0:0:0:0:
402,192,14832,1,0,0:0:0:0:
475,192,15047,1,0,0:0:0:0:
109,192,15047,1,0,0:0:0:0:
475,192,15261,128,0,15475:0:0:0:0:
256,192,15261,128,0,15475:0:0:0:0:
109,192,15261,1,0,0:0:0:0:
402,192,15475,1,0,0:0:0:0:
36,192,15475,1,0,0:0:0:0:
182,192,15690,128,0,15904:0:0:0:0:
329,192,15690,128,0,15904:0:0:0:0:
256,192,15690,1,0,0:0:0:0:
256,192,15904,1,0,0:0:0:0:
36,192,16118,128,0,16332:0:0:0:0:
475,192,16118,128,0,16332:0:0:0:0:
256,192,16118,1,0,0:0:0:0:
256,192,16332,1,0,0:0:0:0:
109,192,16547,1,0,0:0:0:0:
256,192,16547,1,0,0:0:0:0:
402,192,16547,1,0,0:0:0:0:
256,192,16761,1,0,0:0:0:0:
36,192,16761,1,0,0:0:0:0:
475,192,16761,1,0,0:0:0:0:
402,192,16975,1,0,0:0:0:0:
329,192,16975,1,0,0:0:0:0:
182,192,16975,1,0,0:0:0:0:
109,192,17190,1,0,0:0:0:0:
182,192,17190,1,0,0:0:0:0:
329,192,17190,1,0,0:0:0:0:
182,192,17404,1,0,0:0:0:0:
256,192,17404,1,0,0:0:0:0:
329,192,17404,1,0,0:0:0:0:
36,192,17618,1,0,0:0:0:0:
475,192,17618,1,0,0:0:0:0:
36,192,17725,1,0,0:0:0:0:
475,192,17725,1,0,0:0:0:0:
256,192,17832,1,0,0:0:0:0:
109,192,17832,1,0,0:0:0:0:
402,192,17832,1,0,0:0:0:0:
36,192,18047,1,0,0:0:0:0:
256,192,18047,1,0,0:0:0:0:
475,192,18047,1,0,0:0:0:0:
475,192,18261,128,0,19118:0:0:0:0:
109,192,18261,128,0,18475:0:0:0:0:
256,192,18261,1,0,0:0:0:0:
256,192,18475,1,0,0:0:0:0:
402,192,18690,128,0,18904:0:0:0:0:
256,192,18690,1,0,0:0:0:0:
256,192,18904,1,0,0:0:0:0:
36,192,19118,128,0,19975:0:0:0:0:
256,192,19118,1,0,0:0:0:0:
329,192,19118,128,0,19332:0:0:0:0:
256,192,19332,1,0,0:0:0:0:
256,192,19547,1,0,0:0:0:0:
182,192,19547,128,0,19761:0:0:0:0:
256,192,19761,1,0,0:0:0:0:
402,192,19975,128,0,20832:0:0:0:0:
256,192,19975,1,0,0:0:0:0:
109,192,19975,128,0,20190:0:0:0:0:
256,192,20190,1,0,0:0:0:0:
256,192,20404,1,0,0:0:0:0:
475,192,20404,128,0,20618:0:0:0:0:
256,192,20618,1,0,0:0:0:0:
109,192,20832,128,0,21690:0:0:0:0:
256,192,20832,1,0,0:0:0:0:
36,192,20832,128,0,21047:0:0:0:0:
256,192,21047,1,0,0:0:0:0:
256,192,21261,1,0,0:0:0:0:
402,192,21261,128,0,21475:0:0:0:0:
256,192,21475,1,0,0:0:0:0:
329,192,21690,1,0,0:0:0:0:
256,192,21690,128,0,21904:0:0:0:0:
36,192,21690,128,0,22547:0:0:0:0:
329,192,21904,1,0,0:0:0:0:
329,192,22118,1,0,0:0:0:0:
256,192,22118,128,0,22332:0:0:0:0:
329,192,22332,1,0,0:0:0:0:
182,192,22547,1,0,0:0:0:0:
256,192,22547,128,0,22761:0:0:0:0:
475,192,22547,128,0,23404:0:0:0:0:
182,192,22761,1,0,0:0:0:0:
182,192,22975,1,0,0:0:0:0:
256,192,22975,128,0,23190:0:0:0:0:
182,192,23190,1,0,0:0:0:0:
182,192,23404,1,0,0:0:0:0:
256,192,23404,128,0,23618:0:0:0:0:
36,192,23618,1,0,0:0:0:0:
475,192,23618,1,0,0:0:0:0:
109,192,23725,1,0,0:0:0:0:
402,192,23725,1,0,0:0:0:0:
36,192,23832,1,0,0:0:0:0:
475,192,23832,1,0,0:0:0:0:
109,192,23940,1,0,0:0:0:0:
182,192,23940,1,0,0:0:0:0:
402,192,24047,1,0,0:0:0:0:
109,192,24154,1,0,0:0:0:0:
329,192,24261,1,0,0:0:0:0:
402,192,24261,1,0,0:0:0:0:
182,192,24475,1,0,0:0:0:0:
256,192,24475,1,0,0:0:0:0:
329,192,24475,1,0,0:0:0:0:
109,192,24582,1,0,0:0:0:0:
402,192,24582,1,0,0:0:0:0:
109,192,24690,1,0,0:0:0:0:
402,192,24690,1,0,0:0:0:0:
36,192,24904,1,0,0:0:0:0:
256,192,24904,1,0,0:0:0:0:
475,192,24904,1,0,0:0:0:0:
109,192,25118,128,0,25332:0:0:0:0:
475,192,25118,1,0,0:0:0:0:
256,192,25332,1,0,0:0:0:0:
402,192,25547,128,0,25761:0:0:0:0:
36,192,25547,1,0,0:0:0:0:
256,192,25761,1,0,0:0:0:0:
109,192,25975,128,0,26190:0:0:0:0:
256,192,25975,128,0,26190:0:0:0:0:
329,192,25975,1,0,0:0:0:0:
329,192,26190,1,0,0:0:0:0:
402,192,26404,128,0,26618:0:0:0:0:
182,192,26404,1,0,0:0:0:0:
256,192,26404,128,0,26618:0:0:0:0:
182,192,26618,1,0,0:0:0:0:
36,192,26832,128,0,27047:0:0:0:0:
402,192,26832,128,0,27047:0:0:0:0:
256,192,26832,1,0,0:0:0:0:
256,192,27047,1,0,0:0:0:0:
109,192,27261,128,0,27475:0:0:0:0:
475,192,27261,128,0,27475:0:0:0:0:
256,192,27261,1,0,0:0:0:0:
256,192,27475,1,0,0:0:0:0:
256,192,27690,128,0,28118:0:0:0:0:
36,192,27690,1,0,0:0:0:0:
329,192,27690,128,0,28118:0:0:0:0:
109,192,27904,1,0,0:0:0:0:
475,192,28118,1,0,0:0:0:0:
182,192,28118,128,0,28547:0:0:0:0:
109,192,28118,128,0,28547:0:0:0:0:
402,192,28332,1,0,0:0:0:0:
256,192,28547,1,0,0:0:0:0:
36,192,28761,128,0,29190:0:0:0:0:
402,192,28761,128,0,29190:0:0:0:0:
475,192,29190,1,0,0:0:0:0:
109,192,29190,1,0,0:0:0:0:
256,192,29190,1,0,0:0:0:0:
109,192,29404,1,0,0:0:0:0:
256,192,29404,1,0,0:0:0:0:
402,192,29404,1,0,0:0:0:0:
475,192,29618,128,0,30047:0:0:0:0:
109,192,29618,128,0,30047:0:0:0:0:
36,192,30047,1,0,0:0:0:0:
256,192,30047,1,0,0:0:0:0:
402,192,30047,1,0,0:0:0:0:
36,192,30261,1,0,0:0:0:0:
256,192,30261,1,0,0:0:0:0:
475,192,30261,1,0,0:0:0:0:
109,192,30475,1,0,0:0:0:0:
256,192,30475,1,0,0:0:0:0:
402,192,30475,1,0,0:0:0:0:
36,192,30690,1,0,0:0:0:0:
256,192,30690,1,0,0:0:0:0:
329,192,30690,1,0,0:0:0:0:
475,192,30904,1,0,0:0:0:0:
256,192,30904,1,0,0:0:0:0:
182,192,30904,1,0,0:0:0:0:
256,192,31118,1,0,0:0:0:0:
109,192,31225,1,0,0:0:0:0:
402,192,31225,1,0,0:0:0:0:
256,192,31332,1,0,0:0:0:0:
402,192,31440,1,0,0:0:0:0:
109,192,31440,1,0,0:0:0:0:
36,192,31547,1,0,0:0:0:0:
256,192,31547,1,0,0:0:0:0:
475,192,31547,1,0,0:0:0:0:
109,192,31761,1,0,0:0:0:0:
256,192,31761,1,0,0:0:0:0:
402,192,31761,1,0,0:0:0:0:
109,192,31975,128,0,32190:0:0:0:0:
256,192,31975,1,0,0:0:0:0:
475,192,31975,1,0,0:0:0:0:
256,192,32190,1,0,0:0:0:0:
475,192,32190,1,0,0:0:0:0:
402,192,32404,128,0,32618:0:0:0:0:
256,192,32404,1,0,0:0:0:0:
36,192,32404,1,0,0:0:0:0:
256,192,32618,1,0,0:0:0:0:
36,192,32618,1,0,0:0:0:0:
36,192,32832,128,0,33047:0:0:0:0:
475,192,32832,128,0,33047:0:0:0:0:
256,192,32832,1,0,0:0:0:0:
256,192,33047,1,0,0:0:0:0:
109,192,33261,128,0,33475:0:0:0:0:
402,192,33261,128,0,33475:0:0:0:0:
256,192,33261,1,0,0:0:0:0:
256,192,33475,1,0,0:0:0:0:
36,192,33690,1,0,0:0:0:0:
182,192,33690,1,0,0:0:0:0:
329,192,33690,1,0,0:0:0:0:
182,192,33904,1,0,0:0:0:0:
329,192,33904,1,0,0:0:0:0:
475,192,33904,1,0,0:0:0:0:
109,192,34118,1,0,0:0:0:0:
256,192,34118,1,0,0:0:0:0:
402,192,34118,1,0,0:0:0:0:
36,192,34332,1,0,0:0:0:0:
256,192,34332,1,0,0:0:0:0:
475,192,34332,1,0,0:0:0:0:
109,192,34547,128,0,34761:0:0:0:0:
256,192,34547,1,0,0:0:0:0:
329,192,34547,1,0,0:0:0:0:
256,192,34761,1,0,0:0:0:0:
329,192,34761,1,0,0:0:0:0:
402,192,34975,128,0,35190:0:0:0:0:
256,192,34975,1,0,0:0:0:0:
182,192,34975,1,0,0:0:0:0:
256,192,35190,1,0,0:0:0:0:
182,192,35190,1,0,0:0:0:0:
109,192,35404,128,0,35618:0:0:0:0:
402,192,35404,128,0,35618:0:0:0:0:
256,192,35404,1,0,0:0:0:0:
256,192,35618,1,0,0:0:0:0:
256,192,35832,1,0,0:0:0:0:
36,192,35832,128,0,36047:0:0:0:0:
182,192,35832,128,0,36047:0:0:0:0:
256,192,36047,1,0,0:0:0:0:
475,192,36261,128,0,36475:0:0:0:0:
329,192,36261,128,0,36475:0:0:0:0:
256,192,36261,1,0,0:0:0:0:
256,192,36475,1,0,0:0:0:0:
256,192,36690,1,0,0:0:0:0:
182,192,36690,128,0,36904:0:0:0:0:
329,192,36690,128,0,36904:0:0:0:0:
256,192,36904,1,0,0:0:0:0:
36,192,37118,1,0,0:0:0:0:
182,192,37118,1,0,0:0:0:0:
402,192,37118,1,0,0:0:0:0:
329,192,37332,1,0,0:0:0:0:
475,192,37332,1,0,0:0:0:0:
109,192,37332,1,0,0:0:0:0:
109,192,37547,1,0,0:0:0:0:
256,192,37547,1,0,0:0:0:0:
402,192,37547,1,0,0:0:0:0:
36,192,37761,1,0,0:0:0:0:
256,192,37761,1,0,0:0:0:0:
475,192,37761,1,0,0:0:0:0:
256,192,37975,1,0,0:0:0:0:
182,192,37975,1,0,0:0:0:0:
329,192,37975,1,0,0:0:0:0:
36,192,38190,1,0,0:0:0:0:
475,192,38190,1,0,0:0:0:0:
182,192,38297,1,0,0:0:0:0:
329,192,38297,1,0,0:0:0:0:
36,192,38404,1,0,0:0:0:0:
475,192,38404,1,0,0:0:0:0:
109,192,38618,1,0,0:0:0:0:
256,192,38618,1,0,0:0:0:0:
402,192,38618,1,0,0:0:0:0:
109,192,38832,128,0,39261:0:0:0:0:
256,192,38832,128,0,39047:0:0:0:0:
36,192,38832,1,0,0:0:0:0:
36,192,39047,1,0,0:0:0:0:
402,192,39261,128,0,39690:0:0:0:0:
256,192,39261,128,0,39475:0:0:0:0:
475,192,39261,1,0,0:0:0:0:
475,192,39475,1,0,0:0:0:0:
182,192,39690,128,0,40118:0:0:0:0:
256,192,39690,128,0,39904:0:0:0:0:
36,192,39690,1,0,0:0:0:0:
36,192,39904,1,0,0:0:0:0:
329,192,40118,128,0,40547:0:0:0:0:
256,192,40118,128,0,40332:0:0:0:0:
475,192,40118,1,0,0:0:0:0:
475,192,40332,1,0,0:0:0:0:
36,192,40547,128,0,40761:0:0:0:0:
256,192,40547,1,0,0:0:0:0:
475,192,40761,1,0,0:0:0:0:
256,192,40761,128,0,40975:0:0:0:0:
182,192,40868,1,0,0:0:0:0:
329,192,40868,1,0,0:0:0:0:
475,192,40975,128,0,41190:0:0:0:0:
36,192,40975,1,0,0:0:0:0:
36,192,41190,1,0,0:0:0:0:
256,192,41190,1,0,0:0:0:0:
402,192,41190,128,0,41618:0:0:0:0:
182,192,41511,1,0,0:0:0:0:
256,192,41511,1,0,0:0:0:0:
182,192,41618,1,0,0:0:0:0:
256,192,41618,1,0,0:0:0:0:
109,192,41832,1,0,0:0:0:0:
402,192,41832,1,0,0:0:0:0:
475,192,42047,1,0,0:0:0:0:
36,192,42047,1,0,0:0:0:0:
256,192,42047,1,0,0:0:0:0:
36,192,42261,1,0,0:0:0:0:
256,192,42261,1,0,0:0:0:0:
402,192,42261,128,0,42475:0:0:0:0:
36,192,42475,1,0,0:0:0:0:
256,192,42475,1,0,0:0:0:0:
475,192,42690,1,0,0:0:0:0:
256,192,42690,1,0,0:0:0:0:
109,192,42690,128,0,42904:0:0:0:0:
475,192,42904,1,0,0:0:0:0:
256,192,42904,1,0,0:0:0:0:
256,192,43118,128,0,43332:0:0:0:0:
109,192,43118,1,0,0:0:0:0:
402,192,43118,1,0,0:0:0:0:
36,192,43332,1,0,0:0:0:0:
475,192,43332,1,0,0:0:0:0:
256,192,43547,128,0,43761:0:0:0:0:
36,192,43547,1,0,0:0:0:0:
475,192,43547,1,0,0:0:0:0:
402,192,43761,1,0,0:0:0:0:
109,192,43761,1,0,0:0:0:0:
36,192,43975,1,0,0:0:0:0:
256,192,43975,1,0,0:0:0:0:
475,192,43975,1,0,0:0:0:0:
182,192,44190,128,0,44618:0:0:0:0:
329,192,44190,128,0,44618:0:0:0:0:
256,192,44190,1,0,0:0:0:0:
36,192,44190,128,0,44618:0:0:0:0:
475,192,44190,128,0,44618:0:0:0:0:
256,192,44618,1,0,0:0:0:0:
109,192,44832,1,0,0:0:0:0:
256,192,44832,1,0,0:0:0:0:
402,192,44832,1,0,0:0:0:0:
109,192,45047,128,0,45475:0:0:0:0:
256,192,45047,1,0,0:0:0:0:
402,192,45047,128,0,45475:0:0:0:0:
256,192,45475,1,0,0:0:0:0:
36,192,45690,1,0,0:0:0:0:
256,192,45690,1,0,0:0:0:0:
475,192,45690,1,0,0:0:0:0:
182,192,46547,128,0,47404:0:0:0:0:
329,192,46547,128,0,47404:0:0:0:0:
36,192,46547,128,0,47404:0:0:0:0:
475,192,46547,128,0,47404:0:0:0:0:
109,192,47404,128,0,48261:0:0:0:0:
402,192,47404,128,0,48261:0:0:0:0:
256,192,47404,128,0,48261:0:0:0:0:
182,192,48261,128,0,49118:0:0:0:0:
329,192,48261,128,0,49118:0:0:0:0:
36,192,48261,128,0,49118:0:0:0:0:
475,192,48261,128,0,49118:0:0:0:0:
109,192,49118,1,0,0:0:0:0:
402,192,49118,1,0,0:0:0:0:
36,192,49332,1,0,0:0:0:0:
256,192,49332,1,0,0:0:0:0:
475,192,49332,1,0,0:0:0:0:
109,192,49547,1,0,0:0:0:0:
402,192,49547,1,0,0:0:0:0:
256,192,49547,1,0,0:0:0:0:
36,192,49761,1,0,0:0:0:0:
109,192,49761,1,0,0:0:0:0:
475,192,49761,1,0,0:0:0:0:
475,192,49975,1,0,0:0:0:0:
402,192,49975,1,0,0:0:0:0:
36,192,49975,1,0,0:0:0:0:
109,192,50190,1,0,0:0:0:0:
182,192,50190,1,0,0:0:0:0:
402,192,50190,1,0,0:0:0:0:
402,192,50404,1,0,0:0:0:0:
329,192,50404,1,0,0:0:0:0:
109,192,50404,1,0,0:0:0:0:
256,192,50618,1,0,0:0:0:0:
182,192,50618,1,0,0:0:0:0:
329,192,50618,1,0,0:0:0:0:
36,192,50832,128,0,51047:0:0:0:0:
256,192,50832,128,0,51047:0:0:0:0:
475,192,50832,1,0,0:0:0:0:
475,192,51047,1,0,0:0:0:0:
36,192,51261,1,0,0:0:0:0:
475,192,51261,128,0,51475:0:0:0:0:
256,192,51261,128,0,51475:0:0:0:0:
36,192,51475,1,0,0:0:0:0:
182,192,51690,128,0,51904:0:0:0:0:
402,192,51690,128,0,51904:0:0:0:0:
256,192,51690,1,0,0:0:0:0:
256,192,51904,1,0,0:0:0:0:
329,192,52118,128,0,52332:0:0:0:0:
109,192,52118,128,0,52332:0:0:0:0:
256,192,52118,1,0,0:0:0:0:
256,192,52332,1,0,0:0:0:0:
109,192,52547,128,0,52761:0:0:0:0:
182,192,52547,1,0,0:0:0:0:
475,192,52761,1,0,0:0:0:0:
256,192,52761,1,0,0:0:0:0:
402,192,52975,128,0,53190:0:0:0:0:
329,192,52975,1,0,0:0:0:0:
36,192,53190,1,0,0:0:0:0:
256,192,53190,1,0,0:0:0:0:
182,192,53404,128,0,53618:0:0:0:0:
475,192,53404,1,0,0:0:0:0:
36,192,53618,1,0,0:0:0:0:
256,192,53618,1,0,0:0:0:0:
329,192,53832,128,0,54047:0:0:0:0:
36,192,53832,1,0,0:0:0:0:
256,192,54047,1,0,0:0:0:0:
475,192,54047,1,0,0:0:0:0:
109,192,54261,128,0,54475:0:0:0:0:
402,192,54261,1,0,0:0:0:0:
329,192,54475,1,0,0:0:0:0:
475,192,54475,1,0,0:0:0:0:
402,192,54690,128,0,54904:0:0:0:0:
109,192,54690,1,0,0:0:0:0:
36,192,54904,1,0,0:0:0:0:
182,192,54904,1,0,0:0:0:0:
256,192,55118,1,0,0:0:0:0:
182,192,55118,1,0,0:0:0:0:
329,192,55118,1,0,0:0:0:0:
109,192,55332,1,0,0:0:0:0:
402,192,55332,1,0,0:0:0:0:
182,192,55440,1,0,0:0:0:0:
329,192,55440,1,0,0:0:0:0:
256,192,55547,1,0,0:0:0:0:
36,192,55547,1,0,0:0:0:0:
475,192,55547,1,0,0:0:0:0:
109,192,55761,1,0,0:0:0:0:
256,192,55761,1,0,0:0:0:0:
402,192,55761,1,0,0:0:0:0:
256,192,55975,128,0,56190:0:0:0:0:
109,192,55975,128,0,56190:0:0:0:0:
36,192,55975,1,0,0:0:0:0:
475,192,56190,1,0,0:0:0:0:
402,192,56404,128,0,56618:0:0:0:0:
256,192,56404,128,0,56618:0:0:0:0:
475,192,56404,1,0,0:0:0:0:
36,192,56618,1,0,0:0:0:0:
256,192,56832,128,0,57047:0:0:0:0:
36,192,56832,1,0,0:0:0:0:
109,192,57047,1,0,0:0:0:0:
402,192,57047,1,0,0:0:0:0:
256,192,57261,128,0,57475:0:0:0:0:
475,192,57261,1,0,0:0:0:0:
109,192,57475,1,0,0:0:0:0:
402,192,57475,1,0,0:0:0:0:
182,192,57690,128,0,57904:0:0:0:0:
36,192,57690,1,0,0:0:0:0:
475,192,57904,1,0,0:0:0:0:
109,192,57904,1,0,0:0:0:0:
329,192,58118,128,0,58332:0:0:0:0:
475,192,58118,1,0,0:0:0:0:
402,192,58332,1,0,0:0:0:0:
36,192,58332,1,0,0:0:0:0:
109,192,58547,128,0,58761:0:0:0:0:
475,192,58547,128,0,58761:0:0:0:0:
256,192,58547,1,0,0:0:0:0:
256,192,58761,1,0,0:0:0:0:
402,192,58975,128,0,59190:0:0:0:0:
36,192,58975,128,0,59190:0:0:0:0:
256,192,58975,1,0,0:0:0:0:
256,192,59190,1,0,0:0:0:0:
109,192,59404,1,0,0:0:0:0:
256,192,59404,1,0,0:0:0:0:
402,192,59404,1,0,0:0:0:0:
36,192,59618,1,0,0:0:0:0:
256,192,59618,1,0,0:0:0:0:
475,192,59618,1,0,0:0:0:0:
109,192,59832,1,0,0:0:0:0:
256,192,59832,1,0,0:0:0:0:
329,192,59832,1,0,0:0:0:0:
402,192,60047,1,0,0:0:0:0:
256,192,60047,1,0,0:0:0:0:
182,192,60047,1,0,0:0:0:0:
109,192,60261,1,0,0:0:0:0:
256,192,60261,1,0,0:0:0:0:
475,192,60261,1,0,0:0:0:0:
256,192,60475,1,0,0:0:0:0:
36,192,60475,1,0,0:0:0:0:
402,192,60475,1,0,0:0:0:0:
36,192,60690,1,0,0:0:0:0:
182,192,60690,1,0,0:0:0:0:
402,192,60690,1,0,0:0:0:0:
475,192,60904,1,0,0:0:0:0:
329,192,60904,1,0,0:0:0:0:
109,192,60904,1,0,0:0:0:0:
182,192,61118,128,0,61547:0:0:0:0:
475,192,61118,128,0,61332:0:0:0:0:
256,192,61118,1,0,0:0:0:0:
256,192,61332,1,0,0:0:0:0:
402,192,61547,128,0,61975:0:0:0:0:
256,192,61547,128,0,61761:0:0:0:0:
36,192,61547,1,0,0:0:0:0:
36,192,61761,1,0,0:0:0:0:
109,192,61975,128,0,62404:0:0:0:0:
475,192,61975,1,0,0:0:0:0:
182,192,62190,1,0,0:0:0:0:
402,192,62297,1,0,0:0:0:0:
329,192,62404,128,0,62832:0:0:0:0:
182,192,62404,1,0,0:0:0:0:
256,192,62618,1,0,0:0:0:0:
402,192,62618,1,0,0:0:0:0:
36,192,62832,1,0,0:0:0:0:
256,192,62832,128,0,63690:0:0:0:0:
109,192,62832,128,0,63047:0:0:0:0:
36,192,63047,1,0,0:0:0:0:
402,192,63261,128,0,63475:0:0:0:0:
475,192,63261,1,0,0:0:0:0:
475,192,63475,1,0,0:0:0:0:
182,192,63690,128,0,64547:0:0:0:0:
329,192,63690,128,0,64547:0:0:0:0:
109,192,63690,1,0,0:0:0:0:
402,192,63690,1,0,0:0:0:0:
109,192,63904,1,0,0:0:0:0:
402,192,63904,1,0,0:0:0:0:
256,192,64118,1,0,0:0:0:0:
36,192,64118,1,0,0:0:0:0:
475,192,64118,1,0,0:0:0:0:
256,192,64332,1,0,0:0:0:0:
36,192,64332,1,0,0:0:0:0:
475,192,64332,1,0,0:0:0:0:
109,192,64547,128,0,65404:0:0:0:0:
256,192,64547,128,0,65404:0:0:0:0:
402,192,64547,128,0,65404:0:0:0:0:
36,192,64761,1,0,0:0:0:0:
475,192,64761,1,0,0:0:0:0:
182,192,64975,1,0,0:0:0:0:
329,192,64975,1,0,0:0:0:0:
475,192,65190,1,0,0:0:0:0:
36,192,65190,1,0,0:0:0:0:
36,192,65404,128,0,66261:0:0:0:0:
182,192,65404,128,0,66261:0:0:0:0:
329,192,65404,128,0,66261:0:0:0:0:
475,192,65404,128,0,66261:0:0:0:0:
402,192,65618,1,0,0:0:0:0:
256,192,65618,1,0,0:0:0:0:
109,192,65832,1,0,0:0:0:0:
256,192,65832,1,0,0:0:0:0:
402,192,66047,1,0,0:0:0:0:
256,192,66047,1,0,0:0:0:0:
109,192,66261,128,0,67118:0:0:0:0:
256,192,66261,128,0,67118:0:0:0:0:
402,192,66261,128,0,67118:0:0:0:0:
36,192,66475,1,0,0:0:0:0:
329,192,66475,1,0,0:0:0:0:
182,192,66690,1,0,0:0:0:0:
475,192,66690,1,0,0:0:0:0:
329,192,66904,1,0,0:0:0:0:
36,192,66904,1,0,0:0:0:0:
182,192,67118,128,0,67975:0:0:0:0:
329,192,67118,128,0,67975:0:0:0:0:
36,192,67332,1,0,0:0:0:0:
256,192,67332,1,0,0:0:0:0:
475,192,67332,1,0,0:0:0:0:
109,192,67547,1,0,0:0:0:0:
256,192,67547,1,0,0:0:0:0:
402,192,67547,1,0,0:0:0:0:
36,192,67761,1,0,0:0:0:0:
256,192,67761,1,0,0:0:0:0:
475,192,67761,1,0,0:0:0:0:
256,192,67975,128,0,68190:0:0:0:0:
109,192,68190,1,0,0:0:0:0:
402,192,68190,1,0,0:0:0:0:
182,192,68297,1,0,0:0:0:0:
329,192,68297,1,0,0:0:0:0:
256,192,68404,1,0,0:0:0:0:
36,192,68511,1,0,0:0:0:0:
475,192,68511,1,0,0:0:0:0:
109,192,68618,1,0,0:0:0:0:
402,192,68618,1,0,0:0:0:0:
182,192,68725,1,0,0:0:0:0:
329,192,68725,1,0,0:0:0:0:
256,192,68832,1,0,0:0:0:0:
36,192,68832,1,0,0:0:0:0:
475,192,68832,1,0,0:0:0:0:
109,192,69047,128,0,69332:0:0:0:0:
256,192,69047,1,0,0:0:0:0:
402,192,69332,128,0,69690:0:0:0:0:
256,192,69332,1,0,0:0:0:0:
256,192,69690,128,0,70047:0:0:0:0:
36,192,70047,128,0,71297:0:0:0:0:
475,192,70047,128,0,71297:0:0:0:0:
182,192,72475,128,0,73011:0:0:0:0:
329,192,72475,128,0,73011:0:0:0:0:
256,192,73011,1,0,0:0:0:0:
36,192,73547,1,0,0:0:0:0:
182,192,73547,1,0,0:0:0:0:
329,192,73547,1,0,0:0:0:0:
475,192,73547,1,0,0:0:0:0:
109,192,74082,128,0,74618:0:0:0:0:
256,192,74082,128,0,74618:0:0:0:0:
402,192,74082,128,0,74618:0:0:0:0:
182,192,74618,1,0,0:0:0:0:
329,192,74618,1,0,0:0:0:0:
36,192,75047,1,0,0:0:0:0:
256,192,75047,1,0,0:0:0:0:
475,192,75047,1,0,0:0:0:0:
182,192,75368,1,0,0:0:0:0:
329,192,75368,1,0,0:0:0:0:
256,192,75582,1,0,0:0:0:0:
182,192,75582,128,0,76118:0:0:0:0:
329,192,75582,128,0,76118:0:0:0:0:
36,192,76118,1,0,0:0:0:0:
256,192,76118,1,0,0:0:0:0:
475,192,76118,1,0,0:0:0:0:
36,192,76868,1,0,0:0:0:0:
256,192,76868,1,0,0:0:0:0:
475,192,76868,1,0,0:0:0:0:
109,192,77082,1,0,0:0:0:0:
182,192,77082,1,0,0:0:0:0:
329,192,77082,1,0,0:0:0:0:
402,192,77082,1,0,0:0:0:0:
36,192,77511,1,0,0:0:0:0:
256,192,77511,1,0,0:0:0:0:
475,192,77511,1,0,0:0:0:0:
