osu file format v12

[General]
AudioFilename: te-yut-te.mp3
AudioLeadIn: 2000
PreviewTime: 46547
Countdown: 0
SampleSet: Soft
StackLeniency: 0.7
Mode: 0
LetterboxInBreaks: 0
WidescreenStoryboard: 0

[Editor]
Bookmarks: 69047
DistanceSpacing: 2
BeatDivisor: 4
GridSize: 8
TimelineZoom: 1

[Metadata]
Title:te-yut-te
TitleUnicode:te-yut-te
Artist:Miyasuke
ArtistUnicode:宮助
Creator:yy-JUnKi
Version:Insane
Source:
Tags:kagamine rin [ Yuzuriha Inori ] FeiP
BeatmapID:392648
BeatmapSetID:160320

[Difficulty]
HPDrainRate:8
CircleSize:4
OverallDifficulty:6
ApproachRate:8
SliderMultiplier:1.4
SliderTickRate:1

[Events]
//Background and Video events
0,0,"kagamine rin.jpg",0,0
Video,0,"te-yut-te.avi"
//Break Periods
//Storyboard Layer 0 (Background)
//Storyboard Layer 1 (Fail)
//Storyboard Layer 2 (Pass)
//Storyboard Layer 3 (Foreground)
//Storyboard Sound Samples
//Background Colour Transformations
3,100,163,162,255

[TimingPoints]
690,428.571428571429,4,2,0,100,1,0
55761,-100,4,2,0,100,0,1
69047,285.714285714286,4,2,0,100,1,0
69332,375,4,2,0,100,1,0
69707,352.941428571429,4,2,0,100,1,0
72530,508.474576271186,4,2,0,100,1,0
76597,487.80487804878,4,2,0,100,1,0

[Colours]
Combo1 : 255,0,128
Combo2 : 95,107,255
Combo3 : 255,128,0
Combo4 : 95,255,95

[HitObjects]
256,80,690,5,0,0:0:0:0:
176,192,1118,2,0,L|112:256,2,70,2|0|2,0:0|0:0|0:0,0:0:0:0:
336,192,1761,2,0,L|400:256,2,70,0|2|0,0:0|0:0|0:0,0:0:0:0:
256,120,2404,1,2,0:0:0:0:
256,256,2618,1,0,0:0:0:0:
200,192,2832,6,0,L|120:192,2,70,2|0|2,0:0|0:0|0:0,0:0:0:0:
312,192,3475,2,0,L|392:192,2,70,0|2|8,0:0|0:0|0:0,0:0:0:0:
280,192,4011,1,8,0:0:0:0:
256,192,4118,1,8,0:0:0:0:
256,56,4332,1,0,0:0:0:0:
168,112,4547,6,0,P|136:168|128:200,1,70,2|0,0:0|0:0,0:0:0:0:
344,272,4975,2,0,P|376:216|384:184,1,70,2|0,0:0|0:0,0:0:0:0:
376,96,5404,6,0,L|296:96,1,70,2|0,0:0|0:0,0:0:0:0:
136,288,5832,2,0,L|216:288,1,70,2|0,0:0|0:0,0:0:0:0:
304,192,6261,1,2,0:0:0:0:
208,192,6475,1,0,0:0:0:0:
144,64,6690,1,2,0:0:0:0:
144,64,6797,1,2,0:0:0:0:
144,64,6904,1,2,0:0:0:0:
256,144,7118,1,2,0:0:0:0:
368,64,7332,1,0,0:0:0:0:
368,168,7547,5,2,0:0:0:0:
352,272,7761,1,2,0:0:0:0:
256,320,7975,1,2,0:0:0:0:
160,272,8190,1,0,0:0:0:0:
160,272,8404,1,2,0:0:0:0:
144,168,8618,1,2,0:0:0:0:
88,80,8832,6,2,P|152:72|168:80,1,70,2|0,0:0|0:0,0:0:0:0:
424,80,9261,2,0,P|360:72|344:80,1,70,2|0,0:0|0:0,0:0:0:0:
320,176,9690,1,2,0:0:0:0:
312,280,9904,1,0,0:0:0:0:
200,280,10118,1,2,0:0:0:0:
192,176,10332,1,0,0:0:0:0:
256,56,10547,2,0,L|256:136,1,70,2|8,0:0|0:0,0:0:0:0:
256,126,10975,1,8,0:0:0:0:
136,192,11190,6,0,L|208:256,1,70,2|0,0:0|0:0,0:0:0:0:
376,192,11618,2,0,L|304:256,1,70,2|0,0:0|0:0,0:0:0:0:
368,104,12047,2,0,L|312:152,1,70,2|0,0:0|0:0,0:0:0:0:
144,104,12475,2,0,L|200:152,1,70,2|0,0:0|0:0,0:0:0:0:
64,192,12904,1,2,0:0:0:0:
192,256,13118,1,0,0:0:0:0:
320,256,13332,1,8,0:0:0:0:
320,256,13440,1,8,0:0:0:0:
320,256,13547,1,8,0:0:0:0:
448,192,13761,1,2,0:0:0:0:
328,112,13975,6,0,P|384:96|400:96,1,70,0|8,0:0|0:0,0:0:0:0:
395,95,14297,1,8,0:0:0:0:
395,95,14404,1,8,0:0:0:0:
256,192,14618,1,2,0:0:0:0:
184,112,14832,2,0,P|128:96|112:96,1,70,0|8,0:0|0:0,0:0:0:0:
116,95,15154,1,8,0:0:0:0:
116,95,15261,1,8,0:0:0:0:
144,200,15475,5,2,0:0:0:0:
256,224,15690,1,0,0:0:0:0:
368,200,15904,1,8,0:0:0:0:
368,200,16011,1,8,0:0:0:0:
368,200,16118,1,8,0:0:0:0:
256,288,16332,1,2,0:0:0:0:
112,280,16547,2,0,L|192:280,1,70,0|2,0:0|0:0,0:0:0:0:
400,280,16975,2,0,L|320:280,1,70,0|2,0:0|0:0,0:0:0:0:
408,168,17404,5,0,0:0:0:0:
376,128,17511,1,0,0:0:0:0:
328,104,17618,1,0,0:0:0:0:
280,128,17725,1,0,0:0:0:0:
232,128,17832,5,0,0:0:0:0:
184,104,17939,1,0,0:0:0:0:
136,128,18046,1,0,0:0:0:0:
104,168,18153,1,0,0:0:0:0:
104,224,18261,6,0,L|56:296,2,70
408,160,18904,2,0,L|456:88,2,70
328,232,19547,1,0,0:0:0:0:
256,304,19761,1,0,0:0:0:0:
184,232,19975,1,0,0:0:0:0:
112,112,20190,5,0,0:0:0:0:
112,112,20297,1,0,0:0:0:0:
112,112,20404,1,0,0:0:0:0:
256,240,20618,1,0,0:0:0:0:
256,104,20832,1,0,0:0:0:0:
400,112,21047,1,0,0:0:0:0:
400,112,21154,1,0,0:0:0:0:
400,112,21261,1,0,0:0:0:0:
256,192,21475,1,0,0:0:0:0:
152,280,21690,6,0,P|192:320|216:328,1,70
360,280,22118,2,0,P|320:320|296:328,1,70
352,192,22547,2,0,L|328:120,1,70
160,192,22975,2,0,L|184:120,1,70
80,224,23404,1,0,0:0:0:0:
216,264,23618,1,0,0:0:0:0:
432,160,23832,1,0,0:0:0:0:
296,120,24046,1,0,0:0:0:0:
344,256,24261,6,0,L|416:304,2,70
368,120,24904,1,0,0:0:0:0:
168,256,25118,2,0,L|96:304,2,70
144,120,25761,1,0,0:0:0:0:
72,40,25975,2,0,P|136:32|160:32,1,70
192,168,26404,1,0,0:0:0:0:
328,168,26618,1,0,0:0:0:0:
440,40,26832,2,0,P|376:32|352:32,1,70
424,160,27261,5,0,0:0:0:0:
328,264,27475,1,0,0:0:0:0:
256,144,27690,2,0,L|256:48,2,70
88,160,28332,1,0,0:0:0:0:
184,264,28546,1,0,0:0:0:0:
160,128,28761,6,0,L|200:40,2,70
104,256,29404,1,0,0:0:0:0:
352,256,29618,2,0,L|312:344,2,70
408,128,30261,5,0,0:0:0:0:
408,128,30475,1,0,0:0:0:0:
256,192,30690,1,0,0:0:0:0:
256,192,30904,1,0,0:0:0:0:
104,128,31118,1,0,0:0:0:0:
104,128,31332,1,0,0:0:0:0:
104,128,31440,1,0,0:0:0:0:
104,128,31547,1,0,0:0:0:0:
152,256,31761,1,0,0:0:0:0:
40,336,31975,6,0,L|120:336,1,70
200,224,32404,1,0,0:0:0:0:
472,48,32618,2,0,L|392:48,1,70
312,160,33047,1,0,0:0:0:0:
360,256,33261,1,0,0:0:0:0:
256,344,33475,1,0,0:0:0:0:
160,240,33690,6,0,L|96:192,2,70
352,240,34332,2,0,L|424:192,1,70
312,104,34761,1,0,0:0:0:0:
256,64,34868,1,0,0:0:0:0:
200,104,34975,1,0,0:0:0:0:
256,232,35190,1,0,0:0:0:0:
128,288,35404,6,0,L|80:216,1,70
89,154,35832,2,0,L|128:96,1,70
384,96,36261,2,0,L|422:154,1,70
422,229,36689,2,0,L|384:288,1,70
320,160,37118,1,0,0:0:0:0:
208,72,37332,1,0,0:0:0:0:
256,208,37547,1,0,0:0:0:0:
304,72,37761,1,0,0:0:0:0:
192,160,37975,1,0,0:0:0:0:
216,296,38190,5,0,0:0:0:0:
256,312,38297,1,0,0:0:0:0:
296,296,38404,1,0,0:0:0:0:
384,192,38618,1,0,0:0:0:0:
128,192,38832,1,0,0:0:0:0:
128,192,39047,1,0,0:0:0:0:
256,128,39261,1,0,0:0:0:0:
256,128,39475,1,0,0:0:0:0:
344,240,39690,6,0,L|376:320,2,70
360,104,40332,1,0,0:0:0:0:
168,144,40547,2,0,L|142:79,2,70
152,280,41189,1,0,0:0:0:0:
256,192,41404,1,0,0:0:0:0:
360,280,41618,1,0,0:0:0:0:
360,280,41725,1,0,0:0:0:0:
360,280,41832,1,0,0:0:0:0:
256,48,42047,1,0,0:0:0:0:
168,112,42261,6,0,L|88:112,1,70
344,112,42690,2,0,L|424:112,1,70
384,208,43118,2,0,L|336:288,1,70
164,268,43547,2,0,L|128:208,1,70
184,80,43975,5,0,0:0:0:0:
96,192,44190,2,0,L|96:288,2,70
328,304,44832,1,0,0:0:0:0:
416,192,45047,2,0,L|416:96,2,70
416,192,45690,1,0,0:0:0:0:
200,72,46547,6,0,P|184:152|200:328,1,245
315,313,47404,2,0,P|330:192|312:72,1,245
311,71,48261,1,0,0:0:0:0:
256,160,48475,1,0,0:0:0:0:
256,264,48690,1,0,0:0:0:0:
256,264,48797,1,0,0:0:0:0:
256,264,48904,1,0,0:0:0:0:
160,224,49118,6,0,L|96:256,2,70
352,160,49761,2,0,L|416:128,2,70
224,104,50404,1,0,0:0:0:0:
288,280,50618,1,0,0:0:0:0:
176,192,50832,2,0,L|96:192,2,70
106,192,51475,1,0,0:0:0:0:
336,192,51690,2,0,L|416:192,2,70
406,192,52333,1,0,0:0:0:0:
320,80,52547,6,0,L|400:80,2,70
192,80,53190,2,0,L|112:80,2,70
368,192,53832,2,0,L|448:192,2,70
144,192,54475,2,0,L|64:192,2,70
256,280,55118,1,0,0:0:0:0:
256,104,55332,1,0,0:0:0:0:
256,104,55440,1,0,0:0:0:0:
256,104,55547,1,0,0:0:0:0:
256,280,55761,1,0,0:0:0:0:
392,248,55975,6,0,P|416:176|408:160,1,70
120,136,56404,2,0,P|96:208|104:224,1,70
184,304,56832,1,0,0:0:0:0:
328,304,57047,1,0,0:0:0:0:
256,256,57261,1,0,0:0:0:0:
256,116,57475,1,0,0:0:0:0:
168,72,57690,6,0,L|80:72,2,70
344,72,58332,2,0,L|432:72,2,70
416,192,58975,1,0,0:0:0:0:
328,296,59190,1,0,0:0:0:0:
184,296,59404,1,0,0:0:0:0:
96,192,59619,1,0,0:0:0:0:
72,328,59832,2,0,P|136:352|144:352,1,70
375,352,60261,2,0,P|409:345|440:328,1,70
368,208,60690,5,0,0:0:0:0:
256,288,60904,1,0,0:0:0:0:
144,208,61118,1,0,0:0:0:0:
192,72,61332,1,0,0:0:0:0:
192,72,61440,1,0,0:0:0:0:
192,72,61547,1,0,0:0:0:0:
320,72,61761,1,0,0:0:0:0:
448,136,61975,2,0,L|384:216,1,70
107,190,62404,2,0,L|64:136,1,70
192,72,62832,6,0,L|200:152,1,70
313,242,63261,2,0,L|320:312,1,70
192,264,63690,1,0,0:0:0:0:
320,264,63904,1,0,0:0:0:0:
160,192,64118,1,0,0:0:0:0:
352,192,64332,1,0,0:0:0:0:
384,328,64547,2,0,L|472:328,2,70
256,192,65190,1,0,0:0:0:0:
128,56,65404,2,0,L|40:56,2,70
256,120,66047,5,0,0:0:0:0:
128,176,66261,2,0,P|176:224|208:224,1,70
337,223,66690,2,0,P|367:206|384:176,1,70
384,40,67118,1,0,0:0:0:0:
256,96,67332,1,0,0:0:0:0:
128,40,67547,1,0,0:0:0:0:
128,40,67761,1,0,0:0:0:0:
176,168,67975,6,0,L|96:152,2,70
336,216,68618,2,0,L|416:232,2,70
256,192,69332,12,0,71295,0:0:0:0:
184,112,72530,6,0,L|184:280,1,140
184,112,73546,1,0,0:0:0:0:
328,272,74055,6,0,L|328:104,1,140
328,272,75071,1,0,0:0:0:0:
328,272,75453,1,0,0:0:0:0:
328,272,75580,2,0,L|328:112,1,140
256,80,76840,5,0,0:0:0:0:
112,192,77084,1,0,0:0:0:0:
400,192,77572,1,0,0:0:0:0:
